找回密码

蓝光电影网

查看: 111|回复: 0

[UHD.HEVC] 群尸屠城 Demons.1985.2160p.BluRay.REMUX.HEVC.DTS-HD.MA.5.1-FGT 55.18GB

[复制链接]
蓝光币
1084
发表于 2021-2-25 15:30:06 | 显示全部楼层 |阅读模式


◎译  名 群尸屠城/Demons/月夜惊心/猛鬼戏院
◎片  名 Dèmoni
◎年  代 1985
◎产  地 意大利
◎类  别 行动 / 可骇
◎语  言 英语,意大利语
◎上映日期 1985-10-04
◎IMDb评分  6.7/10 from 20089 users
◎IMDb链接  https://www.imdb.com/title/tt0089013/
◎豆瓣评分 6.8/10 from 1220 users
◎豆瓣链接 https://movie.douban.com/subject/1593738/
◎片  长 88分钟
◎导  演 兰帕德·帕瓦 Lamberto Bava
◎编  剧 达里奥·阿基多 Dario Argento / 兰帕德·帕瓦 Lamberto Bava / 弗兰科·费里尼 Franco Ferrini / 达尔达诺·萨凯蒂 Dardano Sacchetti
◎主  演 塞尔吉奥·斯蒂韦尔蒂 Sergio Stivaletti
       兰帕德·帕瓦 Lamberto Bava
       Bobby Rhodes
       Peter Pitsch
       Goffredo Unger
       娜塔莎·霍维 Natasha Hovey
       Giovanni Frezza
       卡尔·泽尼 Karl Zinny
       妮可莱塔·埃尔米 Nicoletta Elmi
       乌尔巴诺·巴尔贝里尼 Urbano Barberini
       米歇尔·索伊 Michele Soavi
       伊丽亚娜·米格里欧 Eliana Miglio
       Enrica Maria Scrivano
◎标  签 可骇 | 意大利 | 丧尸 | 僵尸 | 惊悚 | Cult | 1985 | 血腥
◎简  介


  西柏林,一家新完工的电影院正在派发电影票,招揽观众。影院首映的是一部名为《魔鬼》的可骇影片。年轻女孩绮丽儿(Natasha Hovey 纳塔莎?霍维 饰)对影片颇感爱好,她约请好友凯茜(Paola Cozzo 饰)一同逃课前往电影院。
  
  途中她们碰到另一伙年轻人,其中一个女人将影片宣传用的面具戴在脸上,却失慎割伤了皮肤。这个失慎的闪失致使了无可挽回的大灾难,该女子变玉成身发绿的可骇恶魔,凡是被她抓伤或咬到的也会发生一样的变化。人们四散逃命,可骇敏捷舒展。绮丽儿她们该若何逃诞生天呢?
  1. Video
  2. ID                                       : 1
  3. ID in the original source medium         : 4113 (0x1011)
  4. Format                                   : HEVC
  5. Format/Info                              : High Efficiency Video Coding
  6. Format profile                           : Main [email protected]@High
  7. HDR format                               : SMPTE ST 2086, HDR10 compatible
  8. Codec ID                                 : V_MPEGH/ISO/HEVC
  9. Duration                                 : 1 h 28 min
  10. Bit rate                                 : 78.5 Mb/s
  11. Width                                    : 3 840 pixels
  12. Height                                   : 2 160 pixels
  13. Display aspect ratio                     : 16:9
  14. Frame rate mode                          : Constant
  15. Frame rate                               : 24.000 FPS
  16. Color space                              : YUV
  17. Chroma subsampling                       : 4:2:0 (Type 2)
  18. Bit depth                                : 10 bits
  19. Bits/(Pixel*Frame)                       : 0.394
  20. Stream size                              : 48.4 GiB (88%)
  21. Language                                 : English
  22. Default                                  : No
  23. Forced                                   : No
  24. Color range                              : Limited
  25. Color primaries                          : BT.2020
  26. Transfer characteristics                 : PQ
  27. Matrix coefficients                      : BT.2020 non-constant
  28. Mastering display color primaries        : BT.2020
  29. Mastering display luminance              : min: 0.0001 cd/m2, max: 1000 cd/m2
  30. Original source medium                   : Blu-ray

  31. Audio #1
  32. ID                                       : 2
  33. ID in the original source medium         : 4352 (0x1100)
  34. Format                                   : DTS XLL
  35. Format/Info                              : Digital Theater Systems
  36. Commercial name                          : DTS-HD Master Audio
  37. Codec ID                                 : A_DTS
  38. Duration                                 : 1 h 28 min
  39. Bit rate mode                            : Variable
  40. Bit rate                                 : 3 012 kb/s
  41. Channel(s)                               : 6 channels
  42. Channel layout                           : C L R Ls Rs LFE
  43. Sampling rate                            : 48.0 kHz
  44. Frame rate                               : 93.750 FPS (512 SPF)
  45. Bit depth                                : 24 bits
  46. Compression mode                         : Lossless
  47. Stream size                              : 1.86 GiB (3%)
  48. Title                                    : DTS-HD MA 5.1
  49. Language                                 : English
  50. Default                                  : Yes
  51. Forced                                   : No
  52. Original source medium                   : Blu-ray

  53. Audio #2
  54. ID                                       : 3
  55. Format                                   : AC-3
  56. Format/Info                              : Audio Coding 3
  57. Commercial name                          : Dolby Digital
  58. Codec ID                                 : A_AC3
  59. Duration                                 : 1 h 28 min
  60. Bit rate mode                            : Constant
  61. Bit rate                                 : 640 kb/s
  62. Channel(s)                               : 6 channels
  63. Channel layout                           : L R C LFE Ls Rs
  64. Sampling rate                            : 48.0 kHz
  65. Frame rate                               : 31.250 FPS (1536 SPF)
  66. Compression mode                         : Lossy
  67. Stream size                              : 405 MiB (1%)
  68. Title                                    : DD 5.1
  69. Language                                 : English
  70. Service kind                             : Complete Main
  71. Default                                  : No
  72. Forced                                   : No

  73. Audio #3
  74. ID                                       : 4
  75. ID in the original source medium         : 4353 (0x1101)
  76. Format                                   : DTS XLL
  77. Format/Info                              : Digital Theater Systems
  78. Commercial name                          : DTS-HD Master Audio
  79. Codec ID                                 : A_DTS
  80. Duration                                 : 1 h 28 min
  81. Bit rate mode                            : Variable
  82. Bit rate                                 : 1 647 kb/s
  83. Channel(s)                               : 2 channels
  84. Channel layout                           : L R
  85. Sampling rate                            : 48.0 kHz
  86. Frame rate                               : 93.750 FPS (512 SPF)
  87. Bit depth                                : 24 bits
  88. Compression mode                         : Lossless
  89. Stream size                              : 1.02 GiB (2%)
  90. Title                                    : DTS-HD MA 2.0
  91. Language                                 : English
  92. Default                                  : No
  93. Forced                                   : No
  94. Original source medium                   : Blu-ray

  95. Audio #4
  96. ID                                       : 5
  97. ID in the original source medium         : 4354 (0x1102)
  98. Format                                   : DTS XLL
  99. Format/Info                              : Digital Theater Systems
  100. Commercial name                          : DTS-HD Master Audio
  101. Codec ID                                 : A_DTS
  102. Duration                                 : 1 h 28 min
  103. Bit rate mode                            : Variable
  104. Bit rate                                 : 3 010 kb/s
  105. Channel(s)                               : 6 channels
  106. Channel layout                           : C L R Ls Rs LFE
  107. Sampling rate                            : 48.0 kHz
  108. Frame rate                               : 93.750 FPS (512 SPF)
  109. Bit depth                                : 24 bits
  110. Compression mode                         : Lossless
  111. Stream size                              : 1.86 GiB (3%)
  112. Title                                    : DTS-HD MA 5.1
  113. Language                                 : Italian
  114. Default                                  : No
  115. Forced                                   : No
  116. Original source medium                   : Blu-ray

  117. Audio #5
  118. ID                                       : 6
  119. Format                                   : AC-3
  120. Format/Info                              : Audio Coding 3
  121. Commercial name                          : Dolby Digital
  122. Codec ID                                 : A_AC3
  123. Duration                                 : 1 h 28 min
  124. Bit rate mode                            : Constant
  125. Bit rate                                 : 640 kb/s
  126. Channel(s)                               : 6 channels
  127. Channel layout                           : L R C LFE Ls Rs
  128. Sampling rate                            : 48.0 kHz
  129. Frame rate                               : 31.250 FPS (1536 SPF)
  130. Compression mode                         : Lossy
  131. Stream size                              : 405 MiB (1%)
  132. Title                                    : DD 5.1
  133. Language                                 : Italian
  134. Service kind                             : Complete Main
  135. Default                                  : No
  136. Forced                                   : No

  137. Audio #6
  138. ID                                       : 7
  139. ID in the original source medium         : 4355 (0x1103)
  140. Format                                   : DTS XLL
  141. Format/Info                              : Digital Theater Systems
  142. Commercial name                          : DTS-HD Master Audio
  143. Codec ID                                 : A_DTS
  144. Duration                                 : 1 h 28 min
  145. Bit rate mode                            : Variable
  146. Bit rate                                 : 1 616 kb/s
  147. Channel(s)                               : 2 channels
  148. Channel layout                           : L R
  149. Sampling rate                            : 48.0 kHz
  150. Frame rate                               : 93.750 FPS (512 SPF)
  151. Bit depth                                : 24 bits
  152. Compression mode                         : Lossless
  153. Stream size                              : 1 021 MiB (2%)
  154. Title                                    : DTS-HD MA 2.0
  155. Language                                 : Italian
  156. Default                                  : No
  157. Forced                                   : No
  158. Original source medium                   : Blu-ray

  159. Audio #7
  160. ID                                       : 8
  161. ID in the original source medium         : 4357 (0x1105)
  162. Format                                   : AC-3
  163. Format/Info                              : Audio Coding 3
  164. Commercial name                          : Dolby Digital
  165. Codec ID                                 : A_AC3
  166. Duration                                 : 1 h 28 min
  167. Bit rate mode                            : Constant
  168. Bit rate                                 : 112 kb/s
  169. Channel(s)                               : 2 channels
  170. Channel layout                           : L R
  171. Sampling rate                            : 48.0 kHz
  172. Frame rate                               : 31.250 FPS (1536 SPF)
  173. Compression mode                         : Lossy
  174. Stream size                              : 70.8 MiB (0%)
  175. Title                                    : DD 2.0
  176. Language                                 : English
  177. Service kind                             : Complete Main
  178. Default                                  : No
  179. Forced                                   : No
  180. Original source medium                   : Blu-ray

  181. Audio #8
  182. ID                                       : 9
  183. ID in the original source medium         : 4358 (0x1106)
  184. Format                                   : AC-3
  185. Format/Info                              : Audio Coding 3
  186. Commercial name                          : Dolby Digital
  187. Codec ID                                 : A_AC3
  188. Duration                                 : 1 h 28 min
  189. Bit rate mode                            : Constant
  190. Bit rate                                 : 112 kb/s
  191. Channel(s)                               : 2 channels
  192. Channel layout                           : L R
  193. Sampling rate                            : 48.0 kHz
  194. Frame rate                               : 31.250 FPS (1536 SPF)
  195. Compression mode                         : Lossy
  196. Stream size                              : 70.8 MiB (0%)
  197. Title                                    : DD 2.0
  198. Language                                 : English
  199. Service kind                             : Complete Main
  200. Default                                  : No
  201. Forced                                   : No
  202. Original source medium                   : Blu-ray

  203. Audio #9
  204. ID                                       : 10
  205. ID in the original source medium         : 4359 (0x1107)
  206. Format                                   : AC-3
  207. Format/Info                              : Audio Coding 3
  208. Commercial name                          : Dolby Digital
  209. Codec ID                                 : A_AC3
  210. Duration                                 : 1 h 28 min
  211. Bit rate mode                            : Constant
  212. Bit rate                                 : 112 kb/s
  213. Channel(s)                               : 2 channels
  214. Channel layout                           : L R
  215. Sampling rate                            : 48.0 kHz
  216. Frame rate                               : 31.250 FPS (1536 SPF)
  217. Compression mode                         : Lossy
  218. Stream size                              : 70.8 MiB (0%)
  219. Title                                    : DD 2.0
  220. Language                                 : English
  221. Service kind                             : Complete Main
  222. Default                                  : No
  223. Forced                                   : No
  224. Original source medium                   : Blu-ray

  225. Text #1
  226. ID                                       : 11
  227. Format                                   : UTF-8
  228. Codec ID                                 : S_TEXT/UTF8
  229. Codec ID/Info                            : UTF-8 Plain Text
  230. Duration                                 : 1 h 21 min
  231. Bit rate                                 : 33 b/s
  232. Count of elements                        : 627
  233. Stream size                              : 20.1 KiB (0%)
  234. Title                                    : English-SRT
  235. Language                                 : English
  236. Default                                  : Yes
  237. Forced                                   : No

  238. Text #2
  239. ID                                       : 12
  240. ID in the original source medium         : 4768 (0x12A0)
  241. Format                                   : PGS
  242. Muxing mode                              : zlib
  243. Codec ID                                 : S_HDMV/PGS
  244. Codec ID/Info                            : Picture based subtitle format used on BDs/HD-DVDs
  245. Duration                                 : 1 h 28 min
  246. Bit rate                                 : 23.2 kb/s
  247. Count of elements                        : 1547
  248. Stream size                              : 14.6 MiB (0%)
  249. Title                                    : English-PGS
  250. Language                                 : English
  251. Default                                  : No
  252. Forced                                   : No
  253. Original source medium                   : Blu-ray

  254. Text #3
  255. ID                                       : 13
  256. ID in the original source medium         : 4771 (0x12A3)
  257. Format                                   : PGS
  258. Muxing mode                              : zlib
  259. Codec ID                                 : S_HDMV/PGS
  260. Codec ID/Info                            : Picture based subtitle format used on BDs/HD-DVDs
  261. Duration                                 : 1 h 27 min
  262. Bit rate                                 : 41.3 kb/s
  263. Count of elements                        : 1824
  264. Stream size                              : 25.9 MiB (0%)
  265. Title                                    : English-COMMENTARY
  266. Language                                 : English
  267. Default                                  : No
  268. Forced                                   : No
  269. Original source medium                   : Blu-ray

  270. Menu
  271. 00:00:00.000                             : en:Chapter 01
  272. 00:06:41.000                             : en:Chapter 02
  273. 00:13:47.750                             : en:Chapter 03
  274. 00:21:04.000                             : en:Chapter 04
  275. 00:32:45.583                             : en:Chapter 05
  276. 00:43:26.250                             : en:Chapter 06
  277. 00:45:24.625                             : en:Chapter 07
  278. 00:52:00.041                             : en:Chapter 08
  279. 00:58:55.500                             : en:Chapter 09
  280. 01:05:17.375                             : en:Chapter 10
  281. 01:13:56.958                             : en:Chapter 11
  282. 01:20:49.875                             : en:Chapter 12
复制代码



                                       
                                       

                                       
                                       
                                       




回复

使用道具 举报

懒得打字嘛,点击右侧快捷回复 【右侧内容,后台自定义】
您需要登录后才可以回帖 登录 | 立即加入

本版积分规则

Archiver|小黑屋| 蓝光电影网 |网站地图

Copyright © 2021 Comsenz Inc. Powered by 蓝光电影网

蓝光电影网

本站内容由用户自主分享和转载自互联网,转载目的在于传递更多信息,并不代表本网赞同其观点和对其真实性负责。

如有侵权、违反国家法律政策行为,请联系我们,我们会第一时间及时清除和处理!

举报反馈邮箱:[email protected]

快速回复 返回顶部 返回列表