找回密码

蓝光电影网

查看: 104|回复: 0

[UHD.HEVC] 财色惊魂 The.Killers.1964.2160p.BluRay.REMUX.HEVC.DTS-HD.MA.2.0-FGT 55.54GB

[复制链接]
蓝光币
1084
发表于 2021-2-22 10:29:28 | 显示全部楼层 |阅读模式


◎译  名 财色惊魂/Ernest Hemingway's The Killers/凶手
◎片  名 The Killers
◎年  代 1964
◎产  地 美国
◎类  别 剧情 / 悬疑 / 犯罪
◎语  言 英语
◎上映日期 1964-07-07
◎IMDb评分  7.1/10 from 7169 users
◎IMDb链接  https://www.imdb.com/title/tt0058262/
◎豆瓣评分 6.8/10 from 400 users
◎豆瓣链接 https://movie.douban.com/subject/1294571/
◎片  长 93分钟
◎导  演 唐·希格尔 Don Siegel
◎编  剧 吉恩·L·库恩 Gene L. Coon
◎主  演 李·马文 Lee Marvin
       安吉·迪金森 Angie Dickinson
       约翰·卡萨维蒂 John Cassavetes
       克鲁·古拉格 Clu Gulager
       罗纳德·里根 Ronald Reagan
       唐·希格尔 Don Siegel
◎标  签 美国 | CC | 黑色 | 犯罪 | 1964 | 黑色电影 | DonSiegel | 1960s
◎简  介


  查理(李·马文 Lee Marvin 饰)和李(克鲁·古拉格 Clu Gulager 饰)是拿钱处事的职业杀手,某次,在了结掉了他们的方针强尼(约翰·卡索维茨 John Cassavetes 饰)后,他们对这桩简单的让人简直不敢相信的买卖发生了思疑。在猎奇心的趋向下,查理和李起头观察强尼的底细,得知他曾是一位小著名望的赛车手,却由于赛场上的一路变乱而被迫竣事了职业生活。
  
  随着观察的不竭深入,一个名为希拉(安吉·迪金森 Angie Dickinson 饰)的女人渐渐浮出了水面,希拉是黑帮老迈布朗宁(罗纳德·里根 Ronald Reagan 饰)的情人,同时和被杀的强尼也有着千丝万缕的关联。渐渐地,查理和李发现他们堕入了一个深深的漩涡当中没法自拔。
  1. Video
  2. ID                                       : 1
  3. ID in the original source medium         : 4113 (0x1011)
  4. Format                                   : HEVC
  5. Format/Info                              : High Efficiency Video Coding
  6. Format profile                           : Main [email protected]@High
  7. HDR format                               : SMPTE ST 2086, HDR10 compatible
  8. Codec ID                                 : V_MPEGH/ISO/HEVC
  9. Duration                                 : 1 h 34 min
  10. Bit rate                                 : 81.4 Mb/s
  11. Width                                    : 3 840 pixels
  12. Height                                   : 2 160 pixels
  13. Display aspect ratio                     : 16:9
  14. Frame rate mode                          : Constant
  15. Frame rate                               : 23.976 (24000/1001/189150) FPS
  16. Color space                              : YUV
  17. Chroma subsampling                       : 4:2:0 (Type 2)
  18. Bit depth                                : 10 bits
  19. Bits/(Pixel*Frame)                       : 0.410
  20. Stream size                              : 53.9 GiB (97%)
  21. Language                                 : English
  22. Default                                  : No
  23. Forced                                   : No
  24. Color range                              : Limited
  25. Color primaries                          : BT.2020
  26. Transfer characteristics                 : PQ
  27. Matrix coefficients                      : BT.2020 non-constant
  28. Mastering display color primaries        : Display P3
  29. Mastering display luminance              : min: 0.0001 cd/m2, max: 1000 cd/m2
  30. Maximum Content Light Level              : 1000 cd/m2
  31. Maximum Frame-Average Light Level        : 400 cd/m2
  32. Original source medium                   : Blu-ray
  33. Audio #1
  34. ID                                       : 2
  35. ID in the original source medium         : 4353 (0x1101)
  36. Format                                   : DTS XLL
  37. Format/Info                              : Digital Theater Systems
  38. Commercial name                          : DTS-HD Master Audio
  39. Codec ID                                 : A_DTS
  40. Duration                                 : 1 h 34 min
  41. Bit rate mode                            : Variable
  42. Bit rate                                 : 1 175 kb/s
  43. Channel(s)                               : 2 channels
  44. Channel layout                           : L R
  45. Sampling rate                            : 48.0 kHz
  46. Frame rate                               : 93.750 FPS (512 SPF)
  47. Bit depth                                : 24 bits
  48. Compression mode                         : Lossless
  49. Stream size                              : 796 MiB (1%)
  50. Title                                    : DTS-HD MA 2.0
  51. Language                                 : English
  52. Default                                  : Yes
  53. Forced                                   : No
  54. Original source medium                   : Blu-ray
  55. Audio #2
  56. ID                                       : 3
  57. Format                                   : AC-3
  58. Format/Info                              : Audio Coding 3
  59. Commercial name                          : Dolby Digital
  60. Codec ID                                 : A_AC3
  61. Duration                                 : 1 h 34 min
  62. Bit rate mode                            : Constant
  63. Bit rate                                 : 640 kb/s
  64. Channel(s)                               : 2 channels
  65. Channel layout                           : L R
  66. Sampling rate                            : 48.0 kHz
  67. Frame rate                               : 31.250 FPS (1536 SPF)
  68. Compression mode                         : Lossy
  69. Stream size                              : 434 MiB (1%)
  70. Title                                    : DD 2.0
  71. Language                                 : English
  72. Service kind                             : Complete Main
  73. Default                                  : No
  74. Forced                                   : No
  75. Audio #3
  76. ID                                       : 4
  77. ID in the original source medium         : 4352 (0x1100)
  78. Format                                   : DTS XLL
  79. Format/Info                              : Digital Theater Systems
  80. Commercial name                          : DTS-HD Master Audio
  81. Codec ID                                 : A_DTS
  82. Duration                                 : 1 h 34 min
  83. Bit rate mode                            : Variable
  84. Bit rate                                 : 664 kb/s
  85. Channel(s)                               : 2 channels
  86. Channel layout                           : L R
  87. Sampling rate                            : 48.0 kHz
  88. Frame rate                               : 93.750 FPS (512 SPF)
  89. Bit depth                                : 16 bits
  90. Compression mode                         : Lossless
  91. Stream size                              : 450 MiB (1%)
  92. Title                                    : DTS-HD MA 2.0
  93. Language                                 : German
  94. Default                                  : No
  95. Forced                                   : No
  96. Original source medium                   : Blu-ray
  97. Text #1
  98. ID                                       : 5
  99. Format                                   : UTF-8
  100. Codec ID                                 : S_TEXT/UTF8
  101. Codec ID/Info                            : UTF-8 Plain Text
  102. Duration                                 : 1 h 31 min
  103. Bit rate                                 : 63 b/s
  104. Count of elements                        : 1087
  105. Stream size                              : 42.4 KiB (0%)
  106. Title                                    : English-SRT
  107. Language                                 : English
  108. Default                                  : Yes
  109. Forced                                   : No
  110. Text #2
  111. ID                                       : 6
  112. ID in the original source medium         : 4769 (0x12A1)
  113. Format                                   : PGS
  114. Muxing mode                              : zlib
  115. Codec ID                                 : S_HDMV/PGS
  116. Codec ID/Info                            : Picture based subtitle format used on BDs/HD-DVDs
  117. Duration                                 : 1 h 31 min
  118. Bit rate                                 : 34.9 kb/s
  119. Count of elements                        : 2178
  120. Stream size                              : 22.8 MiB (0%)
  121. Title                                    : English-PGS
  122. Language                                 : English
  123. Default                                  : No
  124. Forced                                   : No
  125. Original source medium                   : Blu-ray
  126. Text #3
  127. ID                                       : 7
  128. ID in the original source medium         : 4768 (0x12A0)
  129. Format                                   : PGS
  130. Muxing mode                              : zlib
  131. Codec ID                                 : S_HDMV/PGS
  132. Codec ID/Info                            : Picture based subtitle format used on BDs/HD-DVDs
  133. Duration                                 : 1 h 31 min
  134. Bit rate                                 : 39.8 kb/s
  135. Count of elements                        : 1827
  136. Stream size                              : 26.0 MiB (0%)
  137. Title                                    : German-PGS
  138. Language                                 : German
  139. Default                                  : No
  140. Forced                                   : No
  141. Original source medium                   : Blu-ray
  142. Menu
  143. 00:00:00.000                             : en:Chapter 01
  144. 00:01:25.460                             : en:Chapter 02
  145. 00:06:03.154                             : en:Chapter 03
  146. 00:09:09.757                             : en:Chapter 04
  147. 00:14:07.596                             : en:Chapter 05
  148. 00:20:10.167                             : en:Chapter 06
  149. 00:22:32.893                             : en:Chapter 07
  150. 00:28:41.845                             : en:Chapter 08
  151. 00:38:42.903                             : en:Chapter 09
  152. 00:45:33.397                             : en:Chapter 10
  153. 00:54:49.911                             : en:Chapter 11
  154. 01:03:00.568                             : en:Chapter 12
  155. 01:10:25.471                             : en:Chapter 13
  156. 01:17:12.085                             : en:Chapter 14
  157. 01:25:37.549                             : en:Chapter 15
  158. 01:34:01.135                             : en:Chapter 16
复制代码



                                       
                                       

                                       
                                       
                                       




回复

使用道具 举报

懒得打字嘛,点击右侧快捷回复 【右侧内容,后台自定义】
您需要登录后才可以回帖 登录 | 立即加入

本版积分规则

Archiver|小黑屋| 蓝光电影网 |网站地图

Copyright © 2021 Comsenz Inc. Powered by 蓝光电影网

蓝光电影网

本站内容由用户自主分享和转载自互联网,转载目的在于传递更多信息,并不代表本网赞同其观点和对其真实性负责。

如有侵权、违反国家法律政策行为,请联系我们,我们会第一时间及时清除和处理!

举报反馈邮箱:[email protected]

快速回复 返回顶部 返回列表