找回密码

蓝光电影网

查看: 158|回复: 0

[UHD.HEVC] 英国佬/英国水手 The.Limey.1999.2160p.BluRay.REMUX.HEVC.DTS-HD.MA.5.1-FGT 37.61GB

[复制链接]
蓝光币
1080
发表于 2021-2-17 09:22:29 | 显示全部楼层 |阅读模式


◎译  名 英国佬/英国海员/菩提树下
◎片  名 The Limey
◎年  代 1999
◎产  地 美国
◎类  别 剧情 / 悬疑 / 惊悚 / 犯罪
◎语  言 英语
◎上映日期 2000-04-26
◎IMDb评分  7/10 from 30226 users
◎IMDb链接  https://www.imdb.com/title/tt0165854/
◎豆瓣评分 6.7/10 from 417 users
◎豆瓣链接 https://movie.douban.com/subject/1293793/
◎片  长 89 分钟
◎导  演 史蒂文·索德伯格 Steven Soderbergh
◎编  剧 莱姆·多布斯 Lem Dobbs
◎主  演 特伦斯·斯坦普 Terence Stamp
       阿兰·格拉夫 Allan Graf
       Ousaun Elam
       Lincoln Simonds
◎标  签 美国 | 犯罪 | StevenSoderbergh | 1999 | 复仇 | 美国电影 | 史蒂文·索德伯格 | 悬疑
◎简  介


  著名的韦氏辞书中“Limey“的诠释之一是“英国海员”,在这部斯蒂芬·索德伯赫的的作品中,我们的仆人公已经做过海员。这位倔强的英国人来到洛杉矶一心要为自己的爱女复仇。所以本片取名“Limey”意为报告一个在洛杉矶由于愤慨、复仇而丢失了自己的人——威尔森。
  1. Video
  2. ID                                       : 1
  3. ID in the original source medium         : 4113 (0x1011)
  4. Format                                   : HEVC
  5. Format/Info                              : High Efficiency Video Coding
  6. Format profile                           : Main [email protected]@High
  7. HDR format                               : SMPTE ST 2086, HDR10 compatible
  8. Codec ID                                 : V_MPEGH/ISO/HEVC
  9. Duration                                 : 1 h 28 min
  10. Bit rate                                 : 54.0 Mb/s
  11. Width                                    : 3 840 pixels
  12. Height                                   : 2 160 pixels
  13. Display aspect ratio                     : 16:9
  14. Frame rate mode                          : Constant
  15. Frame rate                               : 23.976 (24000/1001/189150) FPS
  16. Color space                              : YUV
  17. Chroma subsampling                       : 4:2:0 (Type 2)
  18. Bit depth                                : 10 bits
  19. Bits/(Pixel*Frame)                       : 0.272
  20. Stream size                              : 33.5 GiB (89%)
  21. Language                                 : English
  22. Default                                  : No
  23. Forced                                   : No
  24. Color range                              : Limited
  25. Color primaries                          : BT.2020
  26. Transfer characteristics                 : PQ
  27. Matrix coefficients                      : BT.2020 non-constant
  28. Mastering display color primaries        : Display P3
  29. Mastering display luminance              : min: 0.0001 cd/m2, max: 1000 cd/m2
  30. Original source medium                   : Blu-ray
  31. Audio #1
  32. ID                                       : 2
  33. ID in the original source medium         : 4353 (0x1101)
  34. Format                                   : DTS XLL
  35. Format/Info                              : Digital Theater Systems
  36. Commercial name                          : DTS-HD Master Audio
  37. Codec ID                                 : A_DTS
  38. Duration                                 : 1 h 28 min
  39. Bit rate mode                            : Variable
  40. Bit rate                                 : 2 315 kb/s
  41. Channel(s)                               : 6 channels
  42. Channel layout                           : C L R Ls Rs LFE
  43. Sampling rate                            : 48.0 kHz
  44. Frame rate                               : 93.750 FPS (512 SPF)
  45. Bit depth                                : 16 bits
  46. Compression mode                         : Lossless
  47. Delay relative to video                  : 1 s 1 ms
  48. Stream size                              : 1.44 GiB (4%)
  49. Title                                    : DTS-HD MA 5.1
  50. Language                                 : English
  51. Default                                  : Yes
  52. Forced                                   : No
  53. Original source medium                   : Blu-ray
  54. Audio #2
  55. ID                                       : 3
  56. Format                                   : AC-3
  57. Format/Info                              : Audio Coding 3
  58. Commercial name                          : Dolby Digital
  59. Codec ID                                 : A_AC3
  60. Duration                                 : 1 h 28 min
  61. Bit rate mode                            : Constant
  62. Bit rate                                 : 640 kb/s
  63. Channel(s)                               : 6 channels
  64. Channel layout                           : L R C LFE Ls Rs
  65. Sampling rate                            : 48.0 kHz
  66. Frame rate                               : 31.250 FPS (1536 SPF)
  67. Compression mode                         : Lossy
  68. Stream size                              : 407 MiB (1%)
  69. Title                                    : DD 5.1
  70. Language                                 : English
  71. Service kind                             : Complete Main
  72. Default                                  : No
  73. Forced                                   : No
  74. Audio #3
  75. ID                                       : 4
  76. ID in the original source medium         : 4352 (0x1100)
  77. Format                                   : DTS XLL
  78. Format/Info                              : Digital Theater Systems
  79. Commercial name                          : DTS-HD Master Audio
  80. Codec ID                                 : A_DTS
  81. Duration                                 : 1 h 28 min
  82. Bit rate mode                            : Variable
  83. Bit rate                                 : 2 167 kb/s
  84. Channel(s)                               : 6 channels
  85. Channel layout                           : C L R Ls Rs LFE
  86. Sampling rate                            : 48.0 kHz
  87. Frame rate                               : 93.750 FPS (512 SPF)
  88. Bit depth                                : 16 bits
  89. Compression mode                         : Lossless
  90. Delay relative to video                  : 1 s 1 ms
  91. Stream size                              : 1.34 GiB (4%)
  92. Title                                    : DTS-HD MA 5.1
  93. Language                                 : French
  94. Default                                  : No
  95. Forced                                   : No
  96. Original source medium                   : Blu-ray
  97. Audio #4
  98. ID                                       : 5
  99. ID in the original source medium         : 4354 (0x1102)
  100. Format                                   : DTS
  101. Format/Info                              : Digital Theater Systems
  102. Codec ID                                 : A_DTS
  103. Duration                                 : 1 h 28 min
  104. Bit rate mode                            : Constant
  105. Bit rate                                 : 768 kb/s
  106. Channel(s)                               : 2 channels
  107. Channel layout                           : L R
  108. Sampling rate                            : 48.0 kHz
  109. Frame rate                               : 93.750 FPS (512 SPF)
  110. Bit depth                                : 16 bits
  111. Compression mode                         : Lossy
  112. Delay relative to video                  : 1 s 1 ms
  113. Stream size                              : 487 MiB (1%)
  114. Title                                    : DTS 2.0
  115. Language                                 : English
  116. Default                                  : No
  117. Forced                                   : No
  118. Original source medium                   : Blu-ray
  119. Audio #5
  120. ID                                       : 6
  121. ID in the original source medium         : 4355 (0x1103)
  122. Format                                   : DTS
  123. Format/Info                              : Digital Theater Systems
  124. Codec ID                                 : A_DTS
  125. Duration                                 : 1 h 28 min
  126. Bit rate mode                            : Constant
  127. Bit rate                                 : 768 kb/s
  128. Channel(s)                               : 2 channels
  129. Channel layout                           : L R
  130. Sampling rate                            : 48.0 kHz
  131. Frame rate                               : 93.750 FPS (512 SPF)
  132. Bit depth                                : 16 bits
  133. Compression mode                         : Lossy
  134. Delay relative to video                  : 1 s 1 ms
  135. Stream size                              : 487 MiB (1%)
  136. Title                                    : DTS 2.0
  137. Language                                 : English
  138. Default                                  : No
  139. Forced                                   : No
  140. Original source medium                   : Blu-ray
  141. Text #1
  142. ID                                       : 7
  143. Format                                   : UTF-8
  144. Codec ID                                 : S_TEXT/UTF8
  145. Codec ID/Info                            : UTF-8 Plain Text
  146. Duration                                 : 1 h 25 min
  147. Bit rate                                 : 46 b/s
  148. Count of elements                        : 912
  149. Stream size                              : 29.1 KiB (0%)
  150. Title                                    : English-SRT
  151. Language                                 : English
  152. Default                                  : Yes
  153. Forced                                   : No
  154. Text #2
  155. ID                                       : 8
  156. ID in the original source medium         : 4768 (0x12A0)
  157. Format                                   : PGS
  158. Muxing mode                              : zlib
  159. Codec ID                                 : S_HDMV/PGS
  160. Codec ID/Info                            : Picture based subtitle format used on BDs/HD-DVDs
  161. Duration                                 : 1 h 28 min
  162. Bit rate                                 : 235 b/s
  163. Count of elements                        : 20
  164. Stream size                              : 152 KiB (0%)
  165. Title                                    : French-PGS
  166. Language                                 : French
  167. Default                                  : No
  168. Forced                                   : No
  169. Original source medium                   : Blu-ray
  170. Text #3
  171. ID                                       : 9
  172. ID in the original source medium         : 4769 (0x12A1)
  173. Format                                   : PGS
  174. Muxing mode                              : zlib
  175. Codec ID                                 : S_HDMV/PGS
  176. Codec ID/Info                            : Picture based subtitle format used on BDs/HD-DVDs
  177. Duration                                 : 1 h 28 min
  178. Bit rate                                 : 27.5 kb/s
  179. Count of elements                        : 1936
  180. Stream size                              : 17.4 MiB (0%)
  181. Title                                    : French-FORCED-PGS
  182. Language                                 : French
  183. Default                                  : No
  184. Forced                                   : No
  185. Original source medium                   : Blu-ray
  186. Menu
  187. 00:00:00.000                             : en:Chapter 01
  188. 00:14:29.702                             : en:Chapter 02
  189. 00:27:45.413                             : en:Chapter 03
  190. 00:44:56.568                             : en:Chapter 04
  191. 01:01:26.683                             : en:Chapter 05
  192. 01:10:06.076                             : en:Chapter 06
  193. 01:22:51.883                             : en:Chapter 07
  194. 01:25:27.122                             : en:Chapter 08
复制代码



                                       
                                       

                                       
                                       
                                       




回复

使用道具 举报

懒得打字嘛,点击右侧快捷回复 【右侧内容,后台自定义】
您需要登录后才可以回帖 登录 | 立即加入

本版积分规则

Archiver|小黑屋| 蓝光电影网 |网站地图

Copyright © 2021 Comsenz Inc. Powered by 蓝光电影网

蓝光电影网

本站内容由用户自主分享和转载自互联网,转载目的在于传递更多信息,并不代表本网赞同其观点和对其真实性负责。

如有侵权、违反国家法律政策行为,请联系我们,我们会第一时间及时清除和处理!

举报反馈邮箱:[email protected]

快速回复 返回顶部 返回列表