找回密码

蓝光电影网

查看: 161|回复: 0

[UHD.HEVC] 比尔和泰德寻歌记/阿比阿弟寻歌大冒险 Bill.and.Ted.Face.the.Music.2020.2160p.BluRay.REMUX.HEVC.SDR.DTS-HD.MA.5.1-FGT 46.62GB

[复制链接]
蓝光币
1082
发表于 2021-2-4 18:50:27 | 显示全部楼层 |阅读模式


◎译  名 比尔和泰德寻歌记/阿比阿弟寻歌大冒险(台)
◎片  名 Bill & Ted Face the Music
◎年  代 2020
◎产  地 美国
◎类  别 笑剧 / 科幻 / 音乐
◎语  言 英语
◎上映日期 2020-08-28(美国)
◎IMDb评分  6.1/10 from 28395 users
◎IMDb链接  https://www.imdb.com/title/tt1086064/
◎豆瓣评分 5.8/10 from 994 users
◎豆瓣链接 https://movie.douban.com/subject/3012034/
◎片  长 91分钟
◎导  演 迪恩·帕里索 Dean Parisot
◎编  剧 克里斯·马瑟森 Chris Matheson / 艾德·索罗门 Ed Solomon
◎主  演 基努·里维斯 Keanu Reeves
       萨玛拉·维文 Samara Weaving
       安东尼·卡里根 Anthony Carrigan
       亚历克斯·温特 Alex Winter
       威廉姆·赛德勒 William Sadler
       杰玛·梅斯 Jayma Mays
       埃瑞恩·海耶斯 Erinn Hayes
       吉莉恩·贝尔 Jillian Bell
       布里盖特·伦迪·佩恩 Brigette Lundy-Paine
       贝克·班尼特 Beck Bennett
       卡迪小子 Kid Cudi
       小哈尔·兰登 Hal Landon Jr.
       艾米·斯托克-波因顿 Amy Stock-Poynton
◎标  签 笑剧 | 科幻 | 美国 | 基努里维斯 | 2020 | KeanuReeves | 美国电影 | 电影
◎简  介


  此前基努·里维斯、亚历克斯·温特已确认联手回归笑剧[比尔和泰德]系列第三部[比尔和泰德寻歌记],导演迪恩·帕里索特,该系列原编剧克里斯·马瑟森、艾德·索罗门操刀剧本。但克日里维斯却对该片能否如期而至暗示不太肯定。里维斯是在接管“雅虎文娱”采访时流露的这一消息,他称由于一些幕后题目,该片能否照原计划停止现在并不肯定。里维斯暗示:“我们为这部电影已经等了很长时候,但现在还是存在一些‘应战’。我很喜好这个系列的这些脚色,新片剧本已经停当,故事很棒,但在‘资金、版权、条约’上还存在一些题目。”
  
  [比尔和泰德]系列前两部[比尔和泰德历险记]、[比尔和泰德畅游鬼门关]别离于1989年、1991年上映,报告了两个高中生穿越时空履历冒险的故事。新片则围绕两个已人到中年的好友再次开启时空探险、寻觅“拯救歌曲”展开。米高梅负责北美刊行。
  1. Video
  2. ID                                       : 1
  3. ID in the original source medium         : 4113 (0x1011)
  4. Format                                   : HEVC
  5. Format/Info                              : High Efficiency Video Coding
  6. Format profile                           : Main [email protected]@High
  7. Codec ID                                 : V_MPEGH/ISO/HEVC
  8. Duration                                 : 1 h 31 min
  9. Bit rate                                 : 65.0 Mb/s
  10. Width                                    : 3 840 pixels
  11. Height                                   : 2 160 pixels
  12. Display aspect ratio                     : 16:9
  13. Frame rate mode                          : Constant
  14. Frame rate                               : 23.976 (24000/1001/189150) FPS
  15. Color space                              : YUV
  16. Chroma subsampling                       : 4:2:0
  17. Bit depth                                : 10 bits
  18. Bits/(Pixel*Frame)                       : 0.327
  19. Stream size                              : 41.7 GiB (89%)
  20. Language                                 : English
  21. Default                                  : No
  22. Forced                                   : No
  23. Color range                              : Limited
  24. Color primaries                          : BT.709
  25. Transfer characteristics                 : BT.709
  26. Matrix coefficients                      : BT.709
  27. Original source medium                   : Blu-ray
  28. Audio #1
  29. ID                                       : 2
  30. ID in the original source medium         : 4352 (0x1100)
  31. Format                                   : DTS XLL
  32. Format/Info                              : Digital Theater Systems
  33. Commercial name                          : DTS-HD Master Audio
  34. Codec ID                                 : A_DTS
  35. Duration                                 : 1 h 31 min
  36. Bit rate mode                            : Variable
  37. Bit rate                                 : 3 499 kb/s
  38. Channel(s)                               : 6 channels
  39. Channel layout                           : C L R Ls Rs LFE
  40. Sampling rate                            : 48.0 kHz
  41. Frame rate                               : 93.750 FPS (512 SPF)
  42. Bit depth                                : 24 bits
  43. Compression mode                         : Lossless
  44. Stream size                              : 2.24 GiB (5%)
  45. Title                                    : DTS-HD MA 5.1
  46. Language                                 : English
  47. Default                                  : Yes
  48. Forced                                   : No
  49. Original source medium                   : Blu-ray
  50. Audio #2
  51. ID                                       : 3
  52. Format                                   : AC-3
  53. Format/Info                              : Audio Coding 3
  54. Commercial name                          : Dolby Digital
  55. Codec ID                                 : A_AC3
  56. Duration                                 : 1 h 31 min
  57. Bit rate mode                            : Constant
  58. Bit rate                                 : 640 kb/s
  59. Channel(s)                               : 6 channels
  60. Channel layout                           : L R C LFE Ls Rs
  61. Sampling rate                            : 48.0 kHz
  62. Frame rate                               : 31.250 FPS (1536 SPF)
  63. Compression mode                         : Lossy
  64. Stream size                              : 420 MiB (1%)
  65. Title                                    : DD 5.1
  66. Language                                 : English
  67. Service kind                             : Complete Main
  68. Default                                  : No
  69. Forced                                   : No
  70. Audio #3
  71. ID                                       : 4
  72. ID in the original source medium         : 4353 (0x1101)
  73. Format                                   : DTS XLL
  74. Format/Info                              : Digital Theater Systems
  75. Commercial name                          : DTS-HD Master Audio
  76. Codec ID                                 : A_DTS
  77. Duration                                 : 1 h 31 min
  78. Bit rate mode                            : Variable
  79. Bit rate                                 : 3 538 kb/s
  80. Channel(s)                               : 6 channels
  81. Channel layout                           : C L R Ls Rs LFE
  82. Sampling rate                            : 48.0 kHz
  83. Frame rate                               : 93.750 FPS (512 SPF)
  84. Bit depth                                : 24 bits
  85. Compression mode                         : Lossless
  86. Stream size                              : 2.27 GiB (5%)
  87. Title                                    : DTS-HD MA 5.1
  88. Language                                 : English
  89. Default                                  : No
  90. Forced                                   : No
  91. Original source medium                   : Blu-ray
  92. Text #1
  93. ID                                       : 5
  94. Format                                   : UTF-8
  95. Codec ID                                 : S_TEXT/UTF8
  96. Codec ID/Info                            : UTF-8 Plain Text
  97. Duration                                 : 1 h 31 min
  98. Bit rate                                 : 59 b/s
  99. Count of elements                        : 1543
  100. Stream size                              : 39.5 KiB (0%)
  101. Title                                    : English-SRT
  102. Language                                 : English
  103. Default                                  : Yes
  104. Forced                                   : No
  105. Text #2
  106. ID                                       : 6
  107. ID in the original source medium         : 4608 (0x1200)
  108. Format                                   : PGS
  109. Muxing mode                              : zlib
  110. Codec ID                                 : S_HDMV/PGS
  111. Codec ID/Info                            : Picture based subtitle format used on BDs/HD-DVDs
  112. Duration                                 : 1 h 31 min
  113. Bit rate                                 : 42.1 kb/s
  114. Count of elements                        : 3324
  115. Stream size                              : 27.5 MiB (0%)
  116. Title                                    : English-PGS
  117. Language                                 : English
  118. Default                                  : No
  119. Forced                                   : No
  120. Original source medium                   : Blu-ray
  121. Menu
  122. 00:00:00.000                             : en:Chapter 01
  123. 00:09:51.507                             : en:Chapter 02
  124. 00:19:57.696                             : en:Chapter 03
  125. 00:30:03.092                             : en:Chapter 04
  126. 00:40:51.115                             : en:Chapter 05
  127. 00:50:40.328                             : en:Chapter 06
  128. 01:00:05.059                             : en:Chapter 07
  129. 01:09:59.612                             : en:Chapter 08
  130. 01:20:50.554                             : en:Chapter 09
复制代码



                                       
                                       

                                       
                                       
                                       




回复

使用道具 举报

懒得打字嘛,点击右侧快捷回复 【右侧内容,后台自定义】
您需要登录后才可以回帖 登录 | 立即加入

本版积分规则

Archiver|小黑屋| 蓝光电影网 |网站地图

Copyright © 2021 Comsenz Inc. Powered by 蓝光电影网

蓝光电影网

本站内容由用户自主分享和转载自互联网,转载目的在于传递更多信息,并不代表本网赞同其观点和对其真实性负责。

如有侵权、违反国家法律政策行为,请联系我们,我们会第一时间及时清除和处理!

举报反馈邮箱:[email protected]

快速回复 返回顶部 返回列表