找回密码

蓝光电影网

查看: 62|回复: 0

[2160p] 龙虎少年队2 22.Jump.Street.2014.2160p.BluRay.x265.10bit.SDR.DTS-HD.MA.TrueHD.7.1.Atmos-SWTYBLZ 34.86GB

[复制链接]
蓝光币
1078
发表于 2020-9-15 22:10:40 | 显示全部楼层 |阅读模式


◎译  名 龙虎少年队2/21 Jump Street 2/囧探出更(港)/龙虎少年队:童颜巨捕(台)
◎片  名 22 Jump Street
◎年  代 2014
◎产  地 美国
◎类  别 笑剧 / 行动 / 犯罪
◎语  言 英语
◎上映日期 2014-06-13(美国)
◎IMDb评分  7/10 from 339669 users
◎IMDb链接  https://www.imdb.com/title/tt2294449/
◎豆瓣评分 6.9/10 from 22990 users
◎豆瓣链接 https://movie.douban.com/subject/10546666/
◎片  长 112分钟
◎导  演 菲尔·罗德 Phil Lord / 克里斯托弗·米勒 Christopher Miller
◎编  剧 迈克尔·巴考尔 Michael Bacall / 奥伦·尤济尔 Oren Uziel / 罗德尼·罗斯曼 Rodney Rothman / 乔纳·希尔 Jonah Hill
◎主  演 乔纳·希尔 Jonah Hill
       查宁·塔图姆 Channing Tatum
       彼得·斯特曼 Peter Stormare
       怀亚特·罗素 Wyatt Russell
       艾波·斯蒂文斯 Amber Stevens
       吉莉恩·贝尔 Jillian Bell
       艾斯·库珀 Ice Cube
       尼克·奥弗曼 Nick Offerman
       吉米·塔特罗 Jimmy Tatro
       卡罗琳·阿隆 Caroline Aaron
       克雷格·罗伯兹 Craig Roberts
       马克·埃文·杰克逊 Marc Evan Jackson
       乔·克里斯特 Joe Chrest
       埃迪·J.费尔南德斯 Eddie J. Fernandez
       泰勒·福雷斯特 Tyler Forrest
       罗伯·里格尔 Rob Riggle
       徐海为 Haiwei Xu
       戴夫·弗兰科 Dave Franco
       德克斯·弗拉姆 Dax Flame
       理查德·格里克 Richard Grieco
       奎恩·拉提法 Queen Latifah
       库尔特·克劳斯 Kurt Krause
       托比·尼克尔斯 Toby Nichols
       阮春智 Dustin Nguyen
       塞斯·罗根 Seth Rogen
       安娜·法瑞丝 Anna Faris
◎标  签 笑剧 | 美国 | 行动 | 搞笑 | 2014 | 犯罪 | 好基友 | 校园
◎简  介


  故事紧接着上一部继续成长。延科(查宁·塔图姆 Channing Tatum 饰)和施密特(乔纳·希尔 Jonah Hill 饰)好不轻易从高中“顺遂结业”,期待着他们的,却是又一轮卧底行动,这一次,他们要应战的工具是“大学”。和高中相比,大学里人际关系的复杂水和蔼课业难度都要更上一层楼,这一次,兄弟两人可以顺遂完成使命吗?
  
  在学园中,延科加入了校足球队,结识了一帮志同道合的好友,与此同时,施密特挑选就读艺术系,与古灵精怪的玛雅(安珀·史蒂芬斯 Amber Stevens 饰)发生了一段浪漫轶事。但是,丰富出色的大门生活令密不成份的延科和施密特之间发生了裂缝,这裂缝之庞大极能够致使同甘共苦的两人终极各奔前程。
◎获奖情况
  第16届美国青少年挑选奖 ?(2014)
  最好冲破表演电影新星(提名) 怀亚特·罗素
  最好银幕拍档(提名) 查宁·塔图姆?/?乔纳·希尔
  ChoiceMovie:HissyFit 乔纳·希尔
  ChoiceMovie:HissyFit(提名) 艾斯·库珀
  最好暑期电影
  最好暑期电影明星 查宁·塔图姆
  最好暑期电影明星(提名) 乔纳·希尔
  1. Video
  2. ID                                       : 1
  3. Format                                   : HEVC
  4. Format/Info                              : High Efficiency Video Coding
  5. Format profile                           : Main [email protected]@High
  6. Codec ID                                 : V_MPEGH/ISO/HEVC
  7. Duration                                 : 1 h 51 min
  8. Bit rate                                 : 36.2 Mb/s
  9. Width                                    : 3 840 pixels
  10. Height                                   : 1 606 pixels
  11. Display aspect ratio                     : 2.40:1
  12. Frame rate mode                          : Constant
  13. Frame rate                               : 23.976 (24000/1001/189150) FPS
  14. Color space                              : YUV
  15. Chroma subsampling                       : 4:2:0
  16. Bit depth                                : 10 bits
  17. Bits/(Pixel*Frame)                       : 0.245
  18. Stream size                              : 28.3 GiB (82%)
  19. Title                                    : 22.Jump.Street.2014.2160p.BluRay.x265.10bit.SDR.DTS-HD.MA.TrueHD.7.1.Atmos-SWTYBLZ
  20. Writing library                          : x265 3.0ed72af837053:[Windows][GCC 8.2.0][64 bit] 10bit
  21. Encoding settings                        : cpuid=1111039 / frame-threads=6 / numa-pools=40 / wpp / no-pmode / no-pme / no-psnr / no-ssim / log-level=2 / input-csp=1 / input-res=3840x1606 / interlace=0 / total-frames=161040 / level-idc=51 / high-tier=1 / uhd-bd=0 / ref=3 / no-allow-non-conformance / repeat-headers / annexb / aud / hrd / info / hash=0 / no-temporal-layers / no-open-gop / min-keyint=1 / keyint=24 / gop-lookahead=0 / bframes=4 / b-adapt=2 / b-pyramid / bframe-bias=0 / rc-lookahead=25 / lookahead-slices=4 / scenecut=40 / radl=0 / no-splice / no-intra-refresh / ctu=64 / min-cu-size=8 / no-rect / no-amp / max-tu-size=32 / tu-inter-depth=1 / tu-intra-depth=1 / limit-tu=0 / rdoq-level=0 / dynamic-rd=0.00 / no-ssim-rd / signhide / no-tskip / nr-intra=0 / nr-inter=0 / no-constrained-intra / strong-intra-smoothing / max-merge=2 / limit-refs=3 / no-limit-modes / me=1 / subme=2 / merange=57 / temporal-mvp / weightp / no-weightb / no-analyze-src-pics / deblock=0:0 / no-sao / no-sao-non-deblock / rd=3 / no-early-skip / rskip / no-fast-intra / no-tskip-fast / no-cu-lossless / no-b-intra / no-splitrd-skip / rdpenalty=0 / psy-rd=2.00 / psy-rdoq=0.00 / no-rd-refine / no-lossless / cbqpoffs=0 / crqpoffs=0 / rc=crf / crf=16.0 / qcomp=0.60 / qpstep=4 / stats-write=0 / stats-read=0 / vbv-maxrate=160000 / vbv-bufsize=160000 / vbv-init=0.9 / crf-max=0.0 / crf-min=0.0 / ipratio=1.40 / pbratio=1.30 / aq-mode=1 / aq-strength=1.00 / cutree / zone-count=0 / no-strict-cbr / qg-size=32 / no-rc-grain / qpmax=69 / qpmin=0 / no-const-vbv / sar=1 / overscan=0 / videoformat=5 / range=0 / colorprim=2 / transfer=2 / colormatrix=2 / chromaloc=0 / display-window=0 / max-cll=0,0 / min-luma=0 / max-luma=1023 / log2-max-poc-lsb=8 / vui-timing-info / vui-hrd-info / slices=1 / opt-qp-pps / opt-ref-list-length-pps / no-multi-pass-opt-rps / scenecut-bias=0.05 / no-opt-cu-delta-qp / no-aq-motion / no-hdr / no-hdr-opt / no-dhdr10-opt / no-idr-recovery-sei / analysis-reuse-level=5 / scale-factor=0 / refine-intra=0 / refine-inter=0 / refine-mv=0 / refine-ctu-distortion=0 / no-limit-sao / ctu-info=0 / no-lowpass-dct / refine-analysis-type=0 / copy-pic=1 / max-ausize-factor=1.0 / no-dynamic-refine / no-single-sei / no-hevc-aq / qp-adaptation-range=1.00
  22. Language                                 : English
  23. Default                                  : Yes
  24. Forced                                   : No

  25. Audio #1
  26. ID                                       : 2
  27. ID in the original source medium         : 4352 (0x1100)
  28. Format                                   : MLP FBA 16-ch
  29. Format/Info                              : Meridian Lossless Packing FBA with 16-channel presentation
  30. Commercial name                          : Dolby TrueHD with Dolby Atmos
  31. Codec ID                                 : A_TRUEHD
  32. Duration                                 : 1 h 51 min
  33. Bit rate mode                            : Variable
  34. Bit rate                                 : 2 725 kb/s
  35. Maximum bit rate                         : 3 879 kb/s
  36. Channel(s)                               : 8 channels
  37. Channel layout                           : L R C LFE Ls Rs Lb Rb
  38. Sampling rate                            : 48.0 kHz
  39. Frame rate                               : 1 200.000 FPS (40 SPF)
  40. Compression mode                         : Lossless
  41. Stream size                              : 2.13 GiB (6%)
  42. Title                                    : 22.Jump.Street.2014.2160p.BluRay.x265.10bit.SDR.DTS-HD.MA.TrueHD.7.1.Atmos-SWTYBLZ
  43. Language                                 : English
  44. Default                                  : Yes
  45. Forced                                   : No
  46. Original source medium                   : Blu-ray
  47. Number of dynamic objects                : 11
  48. Bed channel count                        : 1 channel
  49. Bed channel configuration                : LFE

  50. Audio #2
  51. ID                                       : 3
  52. Format                                   : DTS XLL
  53. Format/Info                              : Digital Theater Systems
  54. Commercial name                          : DTS-HD Master Audio
  55. Codec ID                                 : A_DTS
  56. Duration                                 : 1 h 51 min
  57. Bit rate mode                            : Variable
  58. Bit rate                                 : 4 086 kb/s
  59. Channel(s)                               : 8 channels
  60. Channel layout                           : C L R LFE Lb Rb Lss Rss
  61. Sampling rate                            : 48.0 kHz
  62. Frame rate                               : 93.750 FPS (512 SPF)
  63. Bit depth                                : 24 bits
  64. Compression mode                         : Lossless
  65. Stream size                              : 3.19 GiB (9%)
  66. Title                                    : 22.Jump.Street.2014.2160p.BluRay.x265.10bit.SDR.DTS-HD.MA.TrueHD.7.1.Atmos-SWTYBLZ
  67. Language                                 : English
  68. Default                                  : No
  69. Forced                                   : No

  70. Audio #3
  71. ID                                       : 4
  72. ID in the original source medium         : 4352 (0x1100)
  73. Format                                   : AC-3
  74. Format/Info                              : Audio Coding 3
  75. Commercial name                          : Dolby Digital
  76. Codec ID                                 : A_AC3
  77. Duration                                 : 1 h 51 min
  78. Bit rate mode                            : Constant
  79. Bit rate                                 : 640 kb/s
  80. Channel(s)                               : 6 channels
  81. Channel layout                           : L R C LFE Ls Rs
  82. Sampling rate                            : 48.0 kHz
  83. Frame rate                               : 31.250 FPS (1536 SPF)
  84. Compression mode                         : Lossy
  85. Stream size                              : 512 MiB (1%)
  86. Title                                    : 22.Jump.Street.2014.2160p.BluRay.x265.10bit.SDR.DTS-HD.MA.TrueHD.7.1.Atmos-SWTYBLZ
  87. Language                                 : English
  88. Service kind                             : Complete Main
  89. Default                                  : No
  90. Forced                                   : No
  91. Original source medium                   : Blu-ray

  92. Text #1
  93. ID                                       : 5
  94. Format                                   : UTF-8
  95. Codec ID                                 : S_TEXT/UTF8
  96. Codec ID/Info                            : UTF-8 Plain Text
  97. Duration                                 : 1 h 50 min
  98. Bit rate                                 : 87 b/s
  99. Count of elements                        : 1999
  100. Stream size                              : 70.7 KiB (0%)
  101. Title                                    : English-SRT
  102. Language                                 : English
  103. Default                                  : Yes
  104. Forced                                   : No

  105. Text #2
  106. ID                                       : 6
  107. ID in the original source medium         : 4770 (0x12A2)
  108. Format                                   : PGS
  109. Muxing mode                              : zlib
  110. Codec ID                                 : S_HDMV/PGS
  111. Codec ID/Info                            : Picture based subtitle format used on BDs/HD-DVDs
  112. Duration                                 : 1 h 50 min
  113. Bit rate                                 : 53.9 kb/s
  114. Count of elements                        : 4028
  115. Stream size                              : 42.7 MiB (0%)
  116. Title                                    : English-PGS
  117. Language                                 : English
  118. Default                                  : No
  119. Forced                                   : No
  120. Original source medium                   : Blu-ray

  121. Text #3
  122. ID                                       : 7
  123. ID in the original source medium         : 4768 (0x12A0)
  124. Format                                   : PGS
  125. Muxing mode                              : zlib
  126. Codec ID                                 : S_HDMV/PGS
  127. Codec ID/Info                            : Picture based subtitle format used on BDs/HD-DVDs
  128. Duration                                 : 1 h 51 min
  129. Bit rate                                 : 60.7 kb/s
  130. Count of elements                        : 4524
  131. Stream size                              : 48.5 MiB (0%)
  132. Title                                    : English-SDH-PGS
  133. Language                                 : English
  134. Default                                  : No
  135. Forced                                   : No
  136. Original source medium                   : Blu-ray

  137. Text #4
  138. ID                                       : 8
  139. ID in the original source medium         : 4771 (0x12A3)
  140. Format                                   : PGS
  141. Muxing mode                              : zlib
  142. Codec ID                                 : S_HDMV/PGS
  143. Codec ID/Info                            : Picture based subtitle format used on BDs/HD-DVDs
  144. Duration                                 : 1 h 50 min
  145. Bit rate                                 : 27.5 kb/s
  146. Count of elements                        : 3876
  147. Stream size                              : 21.8 MiB (0%)
  148. Title                                    : Arabic-PGS
  149. Language                                 : Arabic
  150. Default                                  : No
  151. Forced                                   : No
  152. Original source medium                   : Blu-ray

  153. Text #5
  154. ID                                       : 9
  155. ID in the original source medium         : 4772 (0x12A4)
  156. Format                                   : PGS
  157. Muxing mode                              : zlib
  158. Codec ID                                 : S_HDMV/PGS
  159. Codec ID/Info                            : Picture based subtitle format used on BDs/HD-DVDs
  160. Duration                                 : 1 h 50 min
  161. Bit rate                                 : 37.6 kb/s
  162. Count of elements                        : 3658
  163. Stream size                              : 29.8 MiB (0%)
  164. Title                                    : Chinese-PGS
  165. Language                                 : Chinese
  166. Default                                  : No
  167. Forced                                   : No
  168. Original source medium                   : Blu-ray

  169. Text #6
  170. ID                                       : 10
  171. ID in the original source medium         : 4773 (0x12A5)
  172. Format                                   : PGS
  173. Muxing mode                              : zlib
  174. Codec ID                                 : S_HDMV/PGS
  175. Codec ID/Info                            : Picture based subtitle format used on BDs/HD-DVDs
  176. Duration                                 : 1 h 50 min
  177. Bit rate                                 : 34.1 kb/s
  178. Count of elements                        : 3647
  179. Stream size                              : 27.0 MiB (0%)
  180. Title                                    : Chinese-PGS
  181. Language                                 : Chinese
  182. Default                                  : No
  183. Forced                                   : No
  184. Original source medium                   : Blu-ray

  185. Text #7
  186. ID                                       : 11
  187. ID in the original source medium         : 4774 (0x12A6)
  188. Format                                   : PGS
  189. Muxing mode                              : zlib
  190. Codec ID                                 : S_HDMV/PGS
  191. Codec ID/Info                            : Picture based subtitle format used on BDs/HD-DVDs
  192. Duration                                 : 1 h 50 min
  193. Bit rate                                 : 36.7 kb/s
  194. Count of elements                        : 3626
  195. Stream size                              : 29.1 MiB (0%)
  196. Title                                    : Czech-PGS
  197. Language                                 : Czech
  198. Default                                  : No
  199. Forced                                   : No
  200. Original source medium                   : Blu-ray

  201. Text #8
  202. ID                                       : 12
  203. ID in the original source medium         : 4775 (0x12A7)
  204. Format                                   : PGS
  205. Muxing mode                              : zlib
  206. Codec ID                                 : S_HDMV/PGS
  207. Codec ID/Info                            : Picture based subtitle format used on BDs/HD-DVDs
  208. Duration                                 : 1 h 50 min
  209. Bit rate                                 : 40.5 kb/s
  210. Count of elements                        : 2786
  211. Stream size                              : 32.1 MiB (0%)
  212. Title                                    : Danish-PGS
  213. Language                                 : Danish
  214. Default                                  : No
  215. Forced                                   : No
  216. Original source medium                   : Blu-ray

  217. Text #9
  218. ID                                       : 13
  219. ID in the original source medium         : 4776 (0x12A8)
  220. Format                                   : PGS
  221. Muxing mode                              : zlib
  222. Codec ID                                 : S_HDMV/PGS
  223. Codec ID/Info                            : Picture based subtitle format used on BDs/HD-DVDs
  224. Duration                                 : 1 h 50 min
  225. Bit rate                                 : 38.7 kb/s
  226. Count of elements                        : 2732
  227. Stream size                              : 30.7 MiB (0%)
  228. Title                                    : Dutch-PGS
  229. Language                                 : Dutch
  230. Default                                  : No
  231. Forced                                   : No
  232. Original source medium                   : Blu-ray

  233. Text #10
  234. ID                                       : 14
  235. ID in the original source medium         : 4777 (0x12A9)
  236. Format                                   : PGS
  237. Muxing mode                              : zlib
  238. Codec ID                                 : S_HDMV/PGS
  239. Codec ID/Info                            : Picture based subtitle format used on BDs/HD-DVDs
  240. Duration                                 : 1 h 50 min
  241. Bit rate                                 : 39.0 kb/s
  242. Count of elements                        : 3936
  243. Stream size                              : 31.0 MiB (0%)
  244. Title                                    : Estonian-PGS
  245. Language                                 : Estonian
  246. Default                                  : No
  247. Forced                                   : No
  248. Original source medium                   : Blu-ray

  249. Text #11
  250. ID                                       : 15
  251. ID in the original source medium         : 4778 (0x12AA)
  252. Format                                   : PGS
  253. Muxing mode                              : zlib
  254. Codec ID                                 : S_HDMV/PGS
  255. Codec ID/Info                            : Picture based subtitle format used on BDs/HD-DVDs
  256. Duration                                 : 1 h 50 min
  257. Bit rate                                 : 37.4 kb/s
  258. Count of elements                        : 3532
  259. Stream size                              : 29.6 MiB (0%)
  260. Title                                    : Finnish-PGS
  261. Language                                 : Finnish
  262. Default                                  : No
  263. Forced                                   : No
  264. Original source medium                   : Blu-ray

  265. Text #12
  266. ID                                       : 16
  267. ID in the original source medium         : 4779 (0x12AB)
  268. Format                                   : PGS
  269. Muxing mode                              : zlib
  270. Codec ID                                 : S_HDMV/PGS
  271. Codec ID/Info                            : Picture based subtitle format used on BDs/HD-DVDs
  272. Duration                                 : 1 h 50 min
  273. Bit rate                                 : 35.3 kb/s
  274. Count of elements                        : 3482
  275. Stream size                              : 28.0 MiB (0%)
  276. Title                                    : French-PGS
  277. Language                                 : French
  278. Default                                  : No
  279. Forced                                   : No
  280. Original source medium                   : Blu-ray

  281. Text #13
  282. ID                                       : 17
  283. ID in the original source medium         : 4780 (0x12AC)
  284. Format                                   : PGS
  285. Muxing mode                              : zlib
  286. Codec ID                                 : S_HDMV/PGS
  287. Codec ID/Info                            : Picture based subtitle format used on BDs/HD-DVDs
  288. Duration                                 : 1 h 50 min
  289. Bit rate                                 : 43.8 kb/s
  290. Count of elements                        : 4666
  291. Stream size                              : 34.7 MiB (0%)
  292. Title                                    : German-PGS
  293. Language                                 : German
  294. Default                                  : No
  295. Forced                                   : No
  296. Original source medium                   : Blu-ray

  297. Text #14
  298. ID                                       : 18
  299. ID in the original source medium         : 4781 (0x12AD)
  300. Format                                   : PGS
  301. Muxing mode                              : zlib
  302. Codec ID                                 : S_HDMV/PGS
  303. Codec ID/Info                            : Picture based subtitle format used on BDs/HD-DVDs
  304. Duration                                 : 1 h 50 min
  305. Bit rate                                 : 47.3 kb/s
  306. Count of elements                        : 3640
  307. Stream size                              : 37.5 MiB (0%)
  308. Title                                    : Greek-PGS
  309. Language                                 : Greek
  310. Default                                  : No
  311. Forced                                   : No
  312. Original source medium                   : Blu-ray

  313. Text #15
  314. ID                                       : 19
  315. ID in the original source medium         : 4782 (0x12AE)
  316. Format                                   : PGS
  317. Muxing mode                              : zlib
  318. Codec ID                                 : S_HDMV/PGS
  319. Codec ID/Info                            : Picture based subtitle format used on BDs/HD-DVDs
  320. Duration                                 : 1 h 50 min
  321. Bit rate                                 : 34.9 kb/s
  322. Count of elements                        : 3880
  323. Stream size                              : 27.6 MiB (0%)
  324. Title                                    : Hebrew-PGS
  325. Language                                 : Hebrew
  326. Default                                  : No
  327. Forced                                   : No
  328. Original source medium                   : Blu-ray

  329. Text #16
  330. ID                                       : 20
  331. ID in the original source medium         : 4783 (0x12AF)
  332. Format                                   : PGS
  333. Muxing mode                              : zlib
  334. Codec ID                                 : S_HDMV/PGS
  335. Codec ID/Info                            : Picture based subtitle format used on BDs/HD-DVDs
  336. Duration                                 : 1 h 50 min
  337. Bit rate                                 : 41.9 kb/s
  338. Count of elements                        : 4174
  339. Stream size                              : 33.2 MiB (0%)
  340. Title                                    : Hindi-PGS
  341. Language                                 : Hindi
  342. Default                                  : No
  343. Forced                                   : No
  344. Original source medium                   : Blu-ray

  345. Text #17
  346. ID                                       : 21
  347. ID in the original source medium         : 4784 (0x12B0)
  348. Format                                   : PGS
  349. Muxing mode                              : zlib
  350. Codec ID                                 : S_HDMV/PGS
  351. Codec ID/Info                            : Picture based subtitle format used on BDs/HD-DVDs
  352. Duration                                 : 1 h 50 min
  353. Bit rate                                 : 49.0 kb/s
  354. Count of elements                        : 4164
  355. Stream size                              : 38.8 MiB (0%)
  356. Title                                    : Hungarian-PGS
  357. Language                                 : Hungarian
  358. Default                                  : No
  359. Forced                                   : No
  360. Original source medium                   : Blu-ray

  361. Text #18
  362. ID                                       : 22
  363. ID in the original source medium         : 4785 (0x12B1)
  364. Format                                   : PGS
  365. Muxing mode                              : zlib
  366. Codec ID                                 : S_HDMV/PGS
  367. Codec ID/Info                            : Picture based subtitle format used on BDs/HD-DVDs
  368. Duration                                 : 1 h 50 min
  369. Bit rate                                 : 48.5 kb/s
  370. Count of elements                        : 3686
  371. Stream size                              : 38.4 MiB (0%)
  372. Title                                    : Indonesian-PGS
  373. Language                                 : Indonesian
  374. Default                                  : No
  375. Forced                                   : No
  376. Original source medium                   : Blu-ray

  377. Text #19
  378. ID                                       : 23
  379. ID in the original source medium         : 4786 (0x12B2)
  380. Format                                   : PGS
  381. Muxing mode                              : zlib
  382. Codec ID                                 : S_HDMV/PGS
  383. Codec ID/Info                            : Picture based subtitle format used on BDs/HD-DVDs
  384. Duration                                 : 1 h 50 min
  385. Bit rate                                 : 50.2 kb/s
  386. Count of elements                        : 4154
  387. Stream size                              : 39.7 MiB (0%)
  388. Title                                    : Italian-PGS
  389. Language                                 : Italian
  390. Default                                  : No
  391. Forced                                   : No
  392. Original source medium                   : Blu-ray

  393. Text #20
  394. ID                                       : 24
  395. ID in the original source medium         : 4787 (0x12B3)
  396. Format                                   : PGS
  397. Muxing mode                              : zlib
  398. Codec ID                                 : S_HDMV/PGS
  399. Codec ID/Info                            : Picture based subtitle format used on BDs/HD-DVDs
  400. Duration                                 : 1 h 50 min
  401. Bit rate                                 : 38.7 kb/s
  402. Count of elements                        : 4174
  403. Stream size                              : 30.7 MiB (0%)
  404. Title                                    : Korean-PGS
  405. Language                                 : Korean
  406. Default                                  : No
  407. Forced                                   : No
  408. Original source medium                   : Blu-ray

  409. Text #21
  410. ID                                       : 25
  411. ID in the original source medium         : 4788 (0x12B4)
  412. Format                                   : PGS
  413. Muxing mode                              : zlib
  414. Codec ID                                 : S_HDMV/PGS
  415. Codec ID/Info                            : Picture based subtitle format used on BDs/HD-DVDs
  416. Duration                                 : 1 h 50 min
  417. Bit rate                                 : 35.9 kb/s
  418. Count of elements                        : 3256
  419. Stream size                              : 28.4 MiB (0%)
  420. Title                                    : Norwegian-PGS
  421. Language                                 : Norwegian
  422. Default                                  : No
  423. Forced                                   : No
  424. Original source medium                   : Blu-ray

  425. Text #22
  426. ID                                       : 26
  427. ID in the original source medium         : 4789 (0x12B5)
  428. Format                                   : PGS
  429. Muxing mode                              : zlib
  430. Codec ID                                 : S_HDMV/PGS
  431. Codec ID/Info                            : Picture based subtitle format used on BDs/HD-DVDs
  432. Duration                                 : 1 h 50 min
  433. Bit rate                                 : 37.3 kb/s
  434. Count of elements                        : 3446
  435. Stream size                              : 29.5 MiB (0%)
  436. Title                                    : Polish-PGS
  437. Language                                 : Polish
  438. Default                                  : No
  439. Forced                                   : No
  440. Original source medium                   : Blu-ray

  441. Text #23
  442. ID                                       : 27
  443. ID in the original source medium         : 4790 (0x12B6)
  444. Format                                   : PGS
  445. Muxing mode                              : zlib
  446. Codec ID                                 : S_HDMV/PGS
  447. Codec ID/Info                            : Picture based subtitle format used on BDs/HD-DVDs
  448. Duration                                 : 1 h 50 min
  449. Bit rate                                 : 46.3 kb/s
  450. Count of elements                        : 3530
  451. Stream size                              : 36.8 MiB (0%)
  452. Title                                    : Portuguese-PGS
  453. Language                                 : Portuguese
  454. Default                                  : No
  455. Forced                                   : No
  456. Original source medium                   : Blu-ray

  457. Text #24
  458. ID                                       : 28
  459. ID in the original source medium         : 4791 (0x12B7)
  460. Format                                   : PGS
  461. Muxing mode                              : zlib
  462. Codec ID                                 : S_HDMV/PGS
  463. Codec ID/Info                            : Picture based subtitle format used on BDs/HD-DVDs
  464. Duration                                 : 1 h 50 min
  465. Bit rate                                 : 40.7 kb/s
  466. Count of elements                        : 3126
  467. Stream size                              : 32.3 MiB (0%)
  468. Title                                    : Romanian-PGS
  469. Language                                 : Romanian
  470. Default                                  : No
  471. Forced                                   : No
  472. Original source medium                   : Blu-ray

  473. Text #25
  474. ID                                       : 29
  475. ID in the original source medium         : 4792 (0x12B8)
  476. Format                                   : PGS
  477. Muxing mode                              : zlib
  478. Codec ID                                 : S_HDMV/PGS
  479. Codec ID/Info                            : Picture based subtitle format used on BDs/HD-DVDs
  480. Duration                                 : 1 h 50 min
  481. Bit rate                                 : 40.7 kb/s
  482. Count of elements                        : 3928
  483. Stream size                              : 32.2 MiB (0%)
  484. Title                                    : Russian-PGS
  485. Language                                 : Russian
  486. Default                                  : No
  487. Forced                                   : No
  488. Original source medium                   : Blu-ray

  489. Text #26
  490. ID                                       : 30
  491. ID in the original source medium         : 4793 (0x12B9)
  492. Format                                   : PGS
  493. Muxing mode                              : zlib
  494. Codec ID                                 : S_HDMV/PGS
  495. Codec ID/Info                            : Picture based subtitle format used on BDs/HD-DVDs
  496. Duration                                 : 1 h 50 min
  497. Bit rate                                 : 41.0 kb/s
  498. Count of elements                        : 3636
  499. Stream size                              : 32.5 MiB (0%)
  500. Title                                    : Serbian-PGS
  501. Language                                 : Serbian
  502. Default                                  : No
  503. Forced                                   : No
  504. Original source medium                   : Blu-ray

  505. Text #27
  506. ID                                       : 31
  507. ID in the original source medium         : 4794 (0x12BA)
  508. Format                                   : PGS
  509. Muxing mode                              : zlib
  510. Codec ID                                 : S_HDMV/PGS
  511. Codec ID/Info                            : Picture based subtitle format used on BDs/HD-DVDs
  512. Duration                                 : 1 h 50 min
  513. Bit rate                                 : 40.5 kb/s
  514. Count of elements                        : 3736
  515. Stream size                              : 32.1 MiB (0%)
  516. Title                                    : Spanish-PGS
  517. Language                                 : Spanish
  518. Default                                  : No
  519. Forced                                   : No
  520. Original source medium                   : Blu-ray

  521. Text #28
  522. ID                                       : 32
  523. ID in the original source medium         : 4795 (0x12BB)
  524. Format                                   : PGS
  525. Muxing mode                              : zlib
  526. Codec ID                                 : S_HDMV/PGS
  527. Codec ID/Info                            : Picture based subtitle format used on BDs/HD-DVDs
  528. Duration                                 : 1 h 50 min
  529. Bit rate                                 : 43.5 kb/s
  530. Count of elements                        : 3972
  531. Stream size                              : 34.5 MiB (0%)
  532. Title                                    : Spanish-PGS
  533. Language                                 : Spanish
  534. Default                                  : No
  535. Forced                                   : No
  536. Original source medium                   : Blu-ray

  537. Text #29
  538. ID                                       : 33
  539. ID in the original source medium         : 4796 (0x12BC)
  540. Format                                   : PGS
  541. Muxing mode                              : zlib
  542. Codec ID                                 : S_HDMV/PGS
  543. Codec ID/Info                            : Picture based subtitle format used on BDs/HD-DVDs
  544. Duration                                 : 1 h 50 min
  545. Bit rate                                 : 33.2 kb/s
  546. Count of elements                        : 2114
  547. Stream size                              : 26.3 MiB (0%)
  548. Title                                    : Swedish-PGS
  549. Language                                 : Swedish
  550. Default                                  : No
  551. Forced                                   : No
  552. Original source medium                   : Blu-ray

  553. Text #30
  554. ID                                       : 34
  555. ID in the original source medium         : 4797 (0x12BD)
  556. Format                                   : PGS
  557. Muxing mode                              : zlib
  558. Codec ID                                 : S_HDMV/PGS
  559. Codec ID/Info                            : Picture based subtitle format used on BDs/HD-DVDs
  560. Duration                                 : 1 h 50 min
  561. Bit rate                                 : 37.5 kb/s
  562. Count of elements                        : 3656
  563. Stream size                              : 29.7 MiB (0%)
  564. Title                                    : Thai-PGS
  565. Language                                 : Thai
  566. Default                                  : No
  567. Forced                                   : No
  568. Original source medium                   : Blu-ray

  569. Text #31
  570. ID                                       : 35
  571. ID in the original source medium         : 4798 (0x12BE)
  572. Format                                   : PGS
  573. Muxing mode                              : zlib
  574. Codec ID                                 : S_HDMV/PGS
  575. Codec ID/Info                            : Picture based subtitle format used on BDs/HD-DVDs
  576. Duration                                 : 1 h 50 min
  577. Bit rate                                 : 45.2 kb/s
  578. Count of elements                        : 3656
  579. Stream size                              : 35.8 MiB (0%)
  580. Title                                    : Turkish-PGS
  581. Language                                 : Turkish
  582. Default                                  : No
  583. Forced                                   : No
  584. Original source medium                   : Blu-ray

  585. Menu
  586. 00:00:00.000                             : en:Chapter 01
  587. 00:06:21.798                             : en:Chapter 02
  588. 00:13:09.288                             : en:Chapter 03
  589. 00:19:57.362                             : en:Chapter 04
  590. 00:26:32.173                             : en:Chapter 05
  591. 00:31:30.096                             : en:Chapter 06
  592. 00:36:47.246                             : en:Chapter 07
  593. 00:43:49.251                             : en:Chapter 08
  594. 00:51:46.186                             : en:Chapter 09
  595. 00:58:58.409                             : en:Chapter 10
  596. 01:07:30.588                             : en:Chapter 11
  597. 01:16:28.041                             : en:Chapter 12
  598. 01:23:02.602                             : en:Chapter 13
  599. 01:29:51.677                             : en:Chapter 14
  600. 01:35:25.469                             : en:Chapter 15
  601. 01:41:57.111                             : en:Chapter 16
复制代码



                                       
                                       

                                       
                                       
                                       




回复

使用道具 举报

懒得打字嘛,点击右侧快捷回复 【右侧内容,后台自定义】
您需要登录后才可以回帖 登录 | 立即加入

本版积分规则

Archiver|小黑屋| 蓝光电影网 |网站地图

Copyright © 2021 Comsenz Inc. Powered by 蓝光电影网

蓝光电影网

本站内容由用户自主分享和转载自互联网,转载目的在于传递更多信息,并不代表本网赞同其观点和对其真实性负责。

如有侵权、违反国家法律政策行为,请联系我们,我们会第一时间及时清除和处理!

举报反馈邮箱:[email protected]

快速回复 返回顶部 返回列表