找回密码

蓝光电影网

查看: 52|回复: 0

[2160p] 龙虎少年队2 22.Jump.Street.2014.2160p.BluRay.x264.8bit.SDR.DTS-HD.MA.TrueHD.7.1.Atmos-SWTYBLZ 39.59GB

[复制链接]
蓝光币
1084
发表于 2020-9-15 22:09:55 | 显示全部楼层 |阅读模式


◎译  名 龙虎少年队2/21 Jump Street 2/囧探出更(港)/龙虎少年队:童颜巨捕(台)
◎片  名 22 Jump Street
◎年  代 2014
◎产  地 美国
◎类  别 笑剧 / 行动 / 犯罪
◎语  言 英语
◎上映日期 2014-06-13(美国)
◎IMDb评分  7/10 from 339669 users
◎IMDb链接  https://www.imdb.com/title/tt2294449/
◎豆瓣评分 6.9/10 from 22990 users
◎豆瓣链接 https://movie.douban.com/subject/10546666/
◎片  长 112分钟
◎导  演 菲尔·罗德 Phil Lord / 克里斯托弗·米勒 Christopher Miller
◎编  剧 迈克尔·巴考尔 Michael Bacall / 奥伦·尤济尔 Oren Uziel / 罗德尼·罗斯曼 Rodney Rothman / 乔纳·希尔 Jonah Hill
◎主  演 乔纳·希尔 Jonah Hill
       查宁·塔图姆 Channing Tatum
       彼得·斯特曼 Peter Stormare
       怀亚特·罗素 Wyatt Russell
       艾波·斯蒂文斯 Amber Stevens
       吉莉恩·贝尔 Jillian Bell
       艾斯·库珀 Ice Cube
       尼克·奥弗曼 Nick Offerman
       吉米·塔特罗 Jimmy Tatro
       卡罗琳·阿隆 Caroline Aaron
       克雷格·罗伯兹 Craig Roberts
       马克·埃文·杰克逊 Marc Evan Jackson
       乔·克里斯特 Joe Chrest
       埃迪·J.费尔南德斯 Eddie J. Fernandez
       泰勒·福雷斯特 Tyler Forrest
       罗伯·里格尔 Rob Riggle
       徐海为 Haiwei Xu
       戴夫·弗兰科 Dave Franco
       德克斯·弗拉姆 Dax Flame
       理查德·格里克 Richard Grieco
       奎恩·拉提法 Queen Latifah
       库尔特·克劳斯 Kurt Krause
       托比·尼克尔斯 Toby Nichols
       阮春智 Dustin Nguyen
       塞斯·罗根 Seth Rogen
       安娜·法瑞丝 Anna Faris
◎标  签 笑剧 | 美国 | 行动 | 搞笑 | 2014 | 犯罪 | 好基友 | 校园
◎简  介


  故事紧接着上一部继续成长。延科(查宁·塔图姆 Channing Tatum 饰)和施密特(乔纳·希尔 Jonah Hill 饰)好不轻易从高中“顺遂结业”,期待着他们的,却是又一轮卧底行动,这一次,他们要应战的工具是“大学”。和高中相比,大学里人际关系的复杂水和蔼课业难度都要更上一层楼,这一次,兄弟两人可以顺遂完成使命吗?
  
  在学园中,延科加入了校足球队,结识了一帮志同道合的好友,与此同时,施密特挑选就读艺术系,与古灵精怪的玛雅(安珀·史蒂芬斯 Amber Stevens 饰)发生了一段浪漫轶事。但是,丰富出色的大门生活令密不成份的延科和施密特之间发生了裂缝,这裂缝之庞大极能够致使同甘共苦的两人终极各奔前程。
◎获奖情况
  第16届美国青少年挑选奖 ?(2014)
  最好冲破表演电影新星(提名) 怀亚特·罗素
  最好银幕拍档(提名) 查宁·塔图姆?/?乔纳·希尔
  ChoiceMovie:HissyFit 乔纳·希尔
  ChoiceMovie:HissyFit(提名) 艾斯·库珀
  最好暑期电影
  最好暑期电影明星 查宁·塔图姆
  最好暑期电影明星(提名) 乔纳·希尔
  1. Video
  2. ID                                       : 1
  3. Format                                   : AVC
  4. Format/Info                              : Advanced Video Codec
  5. Format profile                           : [email protected]
  6. Format settings                          : CABAC / 5 Ref Frames
  7. Format settings, CABAC                   : Yes
  8. Format settings, Reference frames        : 5 frames
  9. Codec ID                                 : V_MPEG4/ISO/AVC
  10. Duration                                 : 1 h 51 min
  11. Bit rate                                 : 42.3 Mb/s
  12. Width                                    : 3 840 pixels
  13. Height                                   : 1 606 pixels
  14. Display aspect ratio                     : 2.40:1
  15. Frame rate mode                          : Constant
  16. Frame rate                               : 23.976 (24000/1001/189150) FPS
  17. Color space                              : YUV
  18. Chroma subsampling                       : 4:2:0
  19. Bit depth                                : 8 bits
  20. Scan type                                : Progressive
  21. Bits/(Pixel*Frame)                       : 0.286
  22. Stream size                              : 33.1 GiB (84%)
  23. Title                                    : 22.Jump.Street.2014.2160p.BluRay.x264.8bit.SDR.DTS-HD.MA.TrueHD.7.1.Atmos-SWTYBLZ
  24. Writing library                          : x264 core 157 r2935 545de2f
  25. Encoding settings                        : cabac=1 / ref=5 / deblock=1:-1:-1 / analyse=0x3:0x113 / me=umh / subme=10 / psy=1 / psy_rd=1.00:0.15 / mixed_ref=1 / me_range=48 / chroma_me=1 / trellis=2 / 8x8dct=1 / cqm=0 / deadzone=21,11 / fast_pskip=1 / chroma_qp_offset=-3 / threads=48 / lookahead_threads=4 / sliced_threads=0 / nr=0 / decimate=0 / interlaced=0 / bluray_compat=0 / constrained_intra=0 / bframes=3 / b_pyramid=2 / b_adapt=2 / b_bias=0 / direct=3 / weightb=1 / open_gop=0 / weightp=2 / keyint=250 / keyint_min=23 / scenecut=40 / intra_refresh=0 / rc_lookahead=50 / rc=crf / mbtree=1 / crf=18.0 / qcomp=0.60 / qpmin=0 / qpmax=69 / qpstep=4 / ip_ratio=1.40 / aq=1:1.00
  26. Language                                 : English
  27. Default                                  : Yes
  28. Forced                                   : No

  29. Audio #1
  30. ID                                       : 2
  31. ID in the original source medium         : 4352 (0x1100)
  32. Format                                   : MLP FBA 16-ch
  33. Format/Info                              : Meridian Lossless Packing FBA with 16-channel presentation
  34. Commercial name                          : Dolby TrueHD with Dolby Atmos
  35. Codec ID                                 : A_TRUEHD
  36. Duration                                 : 1 h 51 min
  37. Bit rate mode                            : Variable
  38. Bit rate                                 : 2 725 kb/s
  39. Maximum bit rate                         : 3 879 kb/s
  40. Channel(s)                               : 8 channels
  41. Channel layout                           : L R C LFE Ls Rs Lb Rb
  42. Sampling rate                            : 48.0 kHz
  43. Frame rate                               : 1 200.000 FPS (40 SPF)
  44. Compression mode                         : Lossless
  45. Stream size                              : 2.13 GiB (5%)
  46. Title                                    : 22.Jump.Street.2014.2160p.BluRay.x264.8bit.SDR.DTS-HD.MA.TrueHD.7.1.Atmos-SWTYBLZ
  47. Language                                 : English
  48. Default                                  : Yes
  49. Forced                                   : No
  50. Original source medium                   : Blu-ray
  51. Number of dynamic objects                : 11
  52. Bed channel count                        : 1 channel
  53. Bed channel configuration                : LFE

  54. Audio #2
  55. ID                                       : 3
  56. Format                                   : DTS XLL
  57. Format/Info                              : Digital Theater Systems
  58. Commercial name                          : DTS-HD Master Audio
  59. Codec ID                                 : A_DTS
  60. Duration                                 : 1 h 51 min
  61. Bit rate mode                            : Variable
  62. Bit rate                                 : 4 086 kb/s
  63. Channel(s)                               : 8 channels
  64. Channel layout                           : C L R LFE Lb Rb Lss Rss
  65. Sampling rate                            : 48.0 kHz
  66. Frame rate                               : 93.750 FPS (512 SPF)
  67. Bit depth                                : 24 bits
  68. Compression mode                         : Lossless
  69. Stream size                              : 3.19 GiB (8%)
  70. Title                                    : 22.Jump.Street.2014.2160p.BluRay.x264.8bit.SDR.DTS-HD.MA.TrueHD.7.1.Atmos-SWTYBLZ
  71. Language                                 : English
  72. Default                                  : No
  73. Forced                                   : No

  74. Audio #3
  75. ID                                       : 4
  76. ID in the original source medium         : 4352 (0x1100)
  77. Format                                   : AC-3
  78. Format/Info                              : Audio Coding 3
  79. Commercial name                          : Dolby Digital
  80. Codec ID                                 : A_AC3
  81. Duration                                 : 1 h 51 min
  82. Bit rate mode                            : Constant
  83. Bit rate                                 : 640 kb/s
  84. Channel(s)                               : 6 channels
  85. Channel layout                           : L R C LFE Ls Rs
  86. Sampling rate                            : 48.0 kHz
  87. Frame rate                               : 31.250 FPS (1536 SPF)
  88. Compression mode                         : Lossy
  89. Stream size                              : 512 MiB (1%)
  90. Title                                    : 22.Jump.Street.2014.2160p.BluRay.x264.8bit.SDR.DTS-HD.MA.TrueHD.7.1.Atmos-SWTYBLZ
  91. Language                                 : English
  92. Service kind                             : Complete Main
  93. Default                                  : No
  94. Forced                                   : No
  95. Original source medium                   : Blu-ray

  96. Text #1
  97. ID                                       : 5
  98. Format                                   : UTF-8
  99. Codec ID                                 : S_TEXT/UTF8
  100. Codec ID/Info                            : UTF-8 Plain Text
  101. Duration                                 : 1 h 50 min
  102. Bit rate                                 : 87 b/s
  103. Count of elements                        : 1999
  104. Stream size                              : 70.7 KiB (0%)
  105. Title                                    : English-SRT
  106. Language                                 : English
  107. Default                                  : Yes
  108. Forced                                   : No

  109. Text #2
  110. ID                                       : 6
  111. ID in the original source medium         : 4770 (0x12A2)
  112. Format                                   : PGS
  113. Muxing mode                              : zlib
  114. Codec ID                                 : S_HDMV/PGS
  115. Codec ID/Info                            : Picture based subtitle format used on BDs/HD-DVDs
  116. Duration                                 : 1 h 50 min
  117. Bit rate                                 : 53.9 kb/s
  118. Count of elements                        : 4028
  119. Stream size                              : 42.7 MiB (0%)
  120. Title                                    : English-PGS
  121. Language                                 : English
  122. Default                                  : No
  123. Forced                                   : No
  124. Original source medium                   : Blu-ray

  125. Text #3
  126. ID                                       : 7
  127. ID in the original source medium         : 4768 (0x12A0)
  128. Format                                   : PGS
  129. Muxing mode                              : zlib
  130. Codec ID                                 : S_HDMV/PGS
  131. Codec ID/Info                            : Picture based subtitle format used on BDs/HD-DVDs
  132. Duration                                 : 1 h 51 min
  133. Bit rate                                 : 60.7 kb/s
  134. Count of elements                        : 4524
  135. Stream size                              : 48.5 MiB (0%)
  136. Title                                    : English-SDH-PGS
  137. Language                                 : English
  138. Default                                  : No
  139. Forced                                   : No
  140. Original source medium                   : Blu-ray

  141. Text #4
  142. ID                                       : 8
  143. ID in the original source medium         : 4771 (0x12A3)
  144. Format                                   : PGS
  145. Muxing mode                              : zlib
  146. Codec ID                                 : S_HDMV/PGS
  147. Codec ID/Info                            : Picture based subtitle format used on BDs/HD-DVDs
  148. Duration                                 : 1 h 50 min
  149. Bit rate                                 : 27.5 kb/s
  150. Count of elements                        : 3876
  151. Stream size                              : 21.8 MiB (0%)
  152. Title                                    : Arabic-PGS
  153. Language                                 : Arabic
  154. Default                                  : No
  155. Forced                                   : No
  156. Original source medium                   : Blu-ray

  157. Text #5
  158. ID                                       : 9
  159. ID in the original source medium         : 4772 (0x12A4)
  160. Format                                   : PGS
  161. Muxing mode                              : zlib
  162. Codec ID                                 : S_HDMV/PGS
  163. Codec ID/Info                            : Picture based subtitle format used on BDs/HD-DVDs
  164. Duration                                 : 1 h 50 min
  165. Bit rate                                 : 37.6 kb/s
  166. Count of elements                        : 3658
  167. Stream size                              : 29.8 MiB (0%)
  168. Title                                    : Chinese-PGS
  169. Language                                 : Chinese
  170. Default                                  : No
  171. Forced                                   : No
  172. Original source medium                   : Blu-ray

  173. Text #6
  174. ID                                       : 10
  175. ID in the original source medium         : 4773 (0x12A5)
  176. Format                                   : PGS
  177. Muxing mode                              : zlib
  178. Codec ID                                 : S_HDMV/PGS
  179. Codec ID/Info                            : Picture based subtitle format used on BDs/HD-DVDs
  180. Duration                                 : 1 h 50 min
  181. Bit rate                                 : 34.1 kb/s
  182. Count of elements                        : 3647
  183. Stream size                              : 27.0 MiB (0%)
  184. Title                                    : Chinese-PGS
  185. Language                                 : Chinese
  186. Default                                  : No
  187. Forced                                   : No
  188. Original source medium                   : Blu-ray

  189. Text #7
  190. ID                                       : 11
  191. ID in the original source medium         : 4774 (0x12A6)
  192. Format                                   : PGS
  193. Muxing mode                              : zlib
  194. Codec ID                                 : S_HDMV/PGS
  195. Codec ID/Info                            : Picture based subtitle format used on BDs/HD-DVDs
  196. Duration                                 : 1 h 50 min
  197. Bit rate                                 : 36.7 kb/s
  198. Count of elements                        : 3626
  199. Stream size                              : 29.1 MiB (0%)
  200. Title                                    : Czech-PGS
  201. Language                                 : Czech
  202. Default                                  : No
  203. Forced                                   : No
  204. Original source medium                   : Blu-ray

  205. Text #8
  206. ID                                       : 12
  207. ID in the original source medium         : 4775 (0x12A7)
  208. Format                                   : PGS
  209. Muxing mode                              : zlib
  210. Codec ID                                 : S_HDMV/PGS
  211. Codec ID/Info                            : Picture based subtitle format used on BDs/HD-DVDs
  212. Duration                                 : 1 h 50 min
  213. Bit rate                                 : 40.5 kb/s
  214. Count of elements                        : 2786
  215. Stream size                              : 32.1 MiB (0%)
  216. Title                                    : Danish-PGS
  217. Language                                 : Danish
  218. Default                                  : No
  219. Forced                                   : No
  220. Original source medium                   : Blu-ray

  221. Text #9
  222. ID                                       : 13
  223. ID in the original source medium         : 4776 (0x12A8)
  224. Format                                   : PGS
  225. Muxing mode                              : zlib
  226. Codec ID                                 : S_HDMV/PGS
  227. Codec ID/Info                            : Picture based subtitle format used on BDs/HD-DVDs
  228. Duration                                 : 1 h 50 min
  229. Bit rate                                 : 38.7 kb/s
  230. Count of elements                        : 2732
  231. Stream size                              : 30.7 MiB (0%)
  232. Title                                    : Dutch-PGS
  233. Language                                 : Dutch
  234. Default                                  : No
  235. Forced                                   : No
  236. Original source medium                   : Blu-ray

  237. Text #10
  238. ID                                       : 14
  239. ID in the original source medium         : 4777 (0x12A9)
  240. Format                                   : PGS
  241. Muxing mode                              : zlib
  242. Codec ID                                 : S_HDMV/PGS
  243. Codec ID/Info                            : Picture based subtitle format used on BDs/HD-DVDs
  244. Duration                                 : 1 h 50 min
  245. Bit rate                                 : 39.0 kb/s
  246. Count of elements                        : 3936
  247. Stream size                              : 31.0 MiB (0%)
  248. Title                                    : Estonian-PGS
  249. Language                                 : Estonian
  250. Default                                  : No
  251. Forced                                   : No
  252. Original source medium                   : Blu-ray

  253. Text #11
  254. ID                                       : 15
  255. ID in the original source medium         : 4778 (0x12AA)
  256. Format                                   : PGS
  257. Muxing mode                              : zlib
  258. Codec ID                                 : S_HDMV/PGS
  259. Codec ID/Info                            : Picture based subtitle format used on BDs/HD-DVDs
  260. Duration                                 : 1 h 50 min
  261. Bit rate                                 : 37.4 kb/s
  262. Count of elements                        : 3532
  263. Stream size                              : 29.6 MiB (0%)
  264. Title                                    : Finnish-PGS
  265. Language                                 : Finnish
  266. Default                                  : No
  267. Forced                                   : No
  268. Original source medium                   : Blu-ray

  269. Text #12
  270. ID                                       : 16
  271. ID in the original source medium         : 4779 (0x12AB)
  272. Format                                   : PGS
  273. Muxing mode                              : zlib
  274. Codec ID                                 : S_HDMV/PGS
  275. Codec ID/Info                            : Picture based subtitle format used on BDs/HD-DVDs
  276. Duration                                 : 1 h 50 min
  277. Bit rate                                 : 35.3 kb/s
  278. Count of elements                        : 3482
  279. Stream size                              : 28.0 MiB (0%)
  280. Title                                    : French-PGS
  281. Language                                 : French
  282. Default                                  : No
  283. Forced                                   : No
  284. Original source medium                   : Blu-ray

  285. Text #13
  286. ID                                       : 17
  287. ID in the original source medium         : 4780 (0x12AC)
  288. Format                                   : PGS
  289. Muxing mode                              : zlib
  290. Codec ID                                 : S_HDMV/PGS
  291. Codec ID/Info                            : Picture based subtitle format used on BDs/HD-DVDs
  292. Duration                                 : 1 h 50 min
  293. Bit rate                                 : 43.8 kb/s
  294. Count of elements                        : 4666
  295. Stream size                              : 34.7 MiB (0%)
  296. Title                                    : German-PGS
  297. Language                                 : German
  298. Default                                  : No
  299. Forced                                   : No
  300. Original source medium                   : Blu-ray

  301. Text #14
  302. ID                                       : 18
  303. ID in the original source medium         : 4781 (0x12AD)
  304. Format                                   : PGS
  305. Muxing mode                              : zlib
  306. Codec ID                                 : S_HDMV/PGS
  307. Codec ID/Info                            : Picture based subtitle format used on BDs/HD-DVDs
  308. Duration                                 : 1 h 50 min
  309. Bit rate                                 : 47.3 kb/s
  310. Count of elements                        : 3640
  311. Stream size                              : 37.5 MiB (0%)
  312. Title                                    : Greek-PGS
  313. Language                                 : Greek
  314. Default                                  : No
  315. Forced                                   : No
  316. Original source medium                   : Blu-ray

  317. Text #15
  318. ID                                       : 19
  319. ID in the original source medium         : 4782 (0x12AE)
  320. Format                                   : PGS
  321. Muxing mode                              : zlib
  322. Codec ID                                 : S_HDMV/PGS
  323. Codec ID/Info                            : Picture based subtitle format used on BDs/HD-DVDs
  324. Duration                                 : 1 h 50 min
  325. Bit rate                                 : 34.9 kb/s
  326. Count of elements                        : 3880
  327. Stream size                              : 27.6 MiB (0%)
  328. Title                                    : Hebrew-PGS
  329. Language                                 : Hebrew
  330. Default                                  : No
  331. Forced                                   : No
  332. Original source medium                   : Blu-ray

  333. Text #16
  334. ID                                       : 20
  335. ID in the original source medium         : 4783 (0x12AF)
  336. Format                                   : PGS
  337. Muxing mode                              : zlib
  338. Codec ID                                 : S_HDMV/PGS
  339. Codec ID/Info                            : Picture based subtitle format used on BDs/HD-DVDs
  340. Duration                                 : 1 h 50 min
  341. Bit rate                                 : 41.9 kb/s
  342. Count of elements                        : 4174
  343. Stream size                              : 33.2 MiB (0%)
  344. Title                                    : Hindi-PGS
  345. Language                                 : Hindi
  346. Default                                  : No
  347. Forced                                   : No
  348. Original source medium                   : Blu-ray

  349. Text #17
  350. ID                                       : 21
  351. ID in the original source medium         : 4784 (0x12B0)
  352. Format                                   : PGS
  353. Muxing mode                              : zlib
  354. Codec ID                                 : S_HDMV/PGS
  355. Codec ID/Info                            : Picture based subtitle format used on BDs/HD-DVDs
  356. Duration                                 : 1 h 50 min
  357. Bit rate                                 : 49.0 kb/s
  358. Count of elements                        : 4164
  359. Stream size                              : 38.8 MiB (0%)
  360. Title                                    : Hungarian-PGS
  361. Language                                 : Hungarian
  362. Default                                  : No
  363. Forced                                   : No
  364. Original source medium                   : Blu-ray

  365. Text #18
  366. ID                                       : 22
  367. ID in the original source medium         : 4785 (0x12B1)
  368. Format                                   : PGS
  369. Muxing mode                              : zlib
  370. Codec ID                                 : S_HDMV/PGS
  371. Codec ID/Info                            : Picture based subtitle format used on BDs/HD-DVDs
  372. Duration                                 : 1 h 50 min
  373. Bit rate                                 : 48.5 kb/s
  374. Count of elements                        : 3686
  375. Stream size                              : 38.4 MiB (0%)
  376. Title                                    : Indonesian-PGS
  377. Language                                 : Indonesian
  378. Default                                  : No
  379. Forced                                   : No
  380. Original source medium                   : Blu-ray

  381. Text #19
  382. ID                                       : 23
  383. ID in the original source medium         : 4786 (0x12B2)
  384. Format                                   : PGS
  385. Muxing mode                              : zlib
  386. Codec ID                                 : S_HDMV/PGS
  387. Codec ID/Info                            : Picture based subtitle format used on BDs/HD-DVDs
  388. Duration                                 : 1 h 50 min
  389. Bit rate                                 : 50.2 kb/s
  390. Count of elements                        : 4154
  391. Stream size                              : 39.7 MiB (0%)
  392. Title                                    : Italian-PGS
  393. Language                                 : Italian
  394. Default                                  : No
  395. Forced                                   : No
  396. Original source medium                   : Blu-ray

  397. Text #20
  398. ID                                       : 24
  399. ID in the original source medium         : 4787 (0x12B3)
  400. Format                                   : PGS
  401. Muxing mode                              : zlib
  402. Codec ID                                 : S_HDMV/PGS
  403. Codec ID/Info                            : Picture based subtitle format used on BDs/HD-DVDs
  404. Duration                                 : 1 h 50 min
  405. Bit rate                                 : 38.7 kb/s
  406. Count of elements                        : 4174
  407. Stream size                              : 30.7 MiB (0%)
  408. Title                                    : Korean-PGS
  409. Language                                 : Korean
  410. Default                                  : No
  411. Forced                                   : No
  412. Original source medium                   : Blu-ray

  413. Text #21
  414. ID                                       : 25
  415. ID in the original source medium         : 4788 (0x12B4)
  416. Format                                   : PGS
  417. Muxing mode                              : zlib
  418. Codec ID                                 : S_HDMV/PGS
  419. Codec ID/Info                            : Picture based subtitle format used on BDs/HD-DVDs
  420. Duration                                 : 1 h 50 min
  421. Bit rate                                 : 35.9 kb/s
  422. Count of elements                        : 3256
  423. Stream size                              : 28.4 MiB (0%)
  424. Title                                    : Norwegian-PGS
  425. Language                                 : Norwegian
  426. Default                                  : No
  427. Forced                                   : No
  428. Original source medium                   : Blu-ray

  429. Text #22
  430. ID                                       : 26
  431. ID in the original source medium         : 4789 (0x12B5)
  432. Format                                   : PGS
  433. Muxing mode                              : zlib
  434. Codec ID                                 : S_HDMV/PGS
  435. Codec ID/Info                            : Picture based subtitle format used on BDs/HD-DVDs
  436. Duration                                 : 1 h 50 min
  437. Bit rate                                 : 37.3 kb/s
  438. Count of elements                        : 3446
  439. Stream size                              : 29.5 MiB (0%)
  440. Title                                    : Polish-PGS
  441. Language                                 : Polish
  442. Default                                  : No
  443. Forced                                   : No
  444. Original source medium                   : Blu-ray

  445. Text #23
  446. ID                                       : 27
  447. ID in the original source medium         : 4790 (0x12B6)
  448. Format                                   : PGS
  449. Muxing mode                              : zlib
  450. Codec ID                                 : S_HDMV/PGS
  451. Codec ID/Info                            : Picture based subtitle format used on BDs/HD-DVDs
  452. Duration                                 : 1 h 50 min
  453. Bit rate                                 : 46.3 kb/s
  454. Count of elements                        : 3530
  455. Stream size                              : 36.8 MiB (0%)
  456. Title                                    : Portuguese-PGS
  457. Language                                 : Portuguese
  458. Default                                  : No
  459. Forced                                   : No
  460. Original source medium                   : Blu-ray

  461. Text #24
  462. ID                                       : 28
  463. ID in the original source medium         : 4791 (0x12B7)
  464. Format                                   : PGS
  465. Muxing mode                              : zlib
  466. Codec ID                                 : S_HDMV/PGS
  467. Codec ID/Info                            : Picture based subtitle format used on BDs/HD-DVDs
  468. Duration                                 : 1 h 50 min
  469. Bit rate                                 : 40.7 kb/s
  470. Count of elements                        : 3126
  471. Stream size                              : 32.3 MiB (0%)
  472. Title                                    : Romanian-PGS
  473. Language                                 : Romanian
  474. Default                                  : No
  475. Forced                                   : No
  476. Original source medium                   : Blu-ray

  477. Text #25
  478. ID                                       : 29
  479. ID in the original source medium         : 4792 (0x12B8)
  480. Format                                   : PGS
  481. Muxing mode                              : zlib
  482. Codec ID                                 : S_HDMV/PGS
  483. Codec ID/Info                            : Picture based subtitle format used on BDs/HD-DVDs
  484. Duration                                 : 1 h 50 min
  485. Bit rate                                 : 40.7 kb/s
  486. Count of elements                        : 3928
  487. Stream size                              : 32.2 MiB (0%)
  488. Title                                    : Russian-PGS
  489. Language                                 : Russian
  490. Default                                  : No
  491. Forced                                   : No
  492. Original source medium                   : Blu-ray

  493. Text #26
  494. ID                                       : 30
  495. ID in the original source medium         : 4793 (0x12B9)
  496. Format                                   : PGS
  497. Muxing mode                              : zlib
  498. Codec ID                                 : S_HDMV/PGS
  499. Codec ID/Info                            : Picture based subtitle format used on BDs/HD-DVDs
  500. Duration                                 : 1 h 50 min
  501. Bit rate                                 : 41.0 kb/s
  502. Count of elements                        : 3636
  503. Stream size                              : 32.5 MiB (0%)
  504. Title                                    : Serbian-PGS
  505. Language                                 : Serbian
  506. Default                                  : No
  507. Forced                                   : No
  508. Original source medium                   : Blu-ray

  509. Text #27
  510. ID                                       : 31
  511. ID in the original source medium         : 4794 (0x12BA)
  512. Format                                   : PGS
  513. Muxing mode                              : zlib
  514. Codec ID                                 : S_HDMV/PGS
  515. Codec ID/Info                            : Picture based subtitle format used on BDs/HD-DVDs
  516. Duration                                 : 1 h 50 min
  517. Bit rate                                 : 40.5 kb/s
  518. Count of elements                        : 3736
  519. Stream size                              : 32.1 MiB (0%)
  520. Title                                    : Spanish-PGS
  521. Language                                 : Spanish
  522. Default                                  : No
  523. Forced                                   : No
  524. Original source medium                   : Blu-ray

  525. Text #28
  526. ID                                       : 32
  527. ID in the original source medium         : 4795 (0x12BB)
  528. Format                                   : PGS
  529. Muxing mode                              : zlib
  530. Codec ID                                 : S_HDMV/PGS
  531. Codec ID/Info                            : Picture based subtitle format used on BDs/HD-DVDs
  532. Duration                                 : 1 h 50 min
  533. Bit rate                                 : 43.5 kb/s
  534. Count of elements                        : 3972
  535. Stream size                              : 34.5 MiB (0%)
  536. Title                                    : Spanish-PGS
  537. Language                                 : Spanish
  538. Default                                  : No
  539. Forced                                   : No
  540. Original source medium                   : Blu-ray

  541. Text #29
  542. ID                                       : 33
  543. ID in the original source medium         : 4796 (0x12BC)
  544. Format                                   : PGS
  545. Muxing mode                              : zlib
  546. Codec ID                                 : S_HDMV/PGS
  547. Codec ID/Info                            : Picture based subtitle format used on BDs/HD-DVDs
  548. Duration                                 : 1 h 50 min
  549. Bit rate                                 : 33.2 kb/s
  550. Count of elements                        : 2114
  551. Stream size                              : 26.3 MiB (0%)
  552. Title                                    : Swedish-PGS
  553. Language                                 : Swedish
  554. Default                                  : No
  555. Forced                                   : No
  556. Original source medium                   : Blu-ray

  557. Text #30
  558. ID                                       : 34
  559. ID in the original source medium         : 4797 (0x12BD)
  560. Format                                   : PGS
  561. Muxing mode                              : zlib
  562. Codec ID                                 : S_HDMV/PGS
  563. Codec ID/Info                            : Picture based subtitle format used on BDs/HD-DVDs
  564. Duration                                 : 1 h 50 min
  565. Bit rate                                 : 37.5 kb/s
  566. Count of elements                        : 3656
  567. Stream size                              : 29.7 MiB (0%)
  568. Title                                    : Thai-PGS
  569. Language                                 : Thai
  570. Default                                  : No
  571. Forced                                   : No
  572. Original source medium                   : Blu-ray

  573. Text #31
  574. ID                                       : 35
  575. ID in the original source medium         : 4798 (0x12BE)
  576. Format                                   : PGS
  577. Muxing mode                              : zlib
  578. Codec ID                                 : S_HDMV/PGS
  579. Codec ID/Info                            : Picture based subtitle format used on BDs/HD-DVDs
  580. Duration                                 : 1 h 50 min
  581. Bit rate                                 : 45.2 kb/s
  582. Count of elements                        : 3656
  583. Stream size                              : 35.8 MiB (0%)
  584. Title                                    : Turkish-PGS
  585. Language                                 : Turkish
  586. Default                                  : No
  587. Forced                                   : No
  588. Original source medium                   : Blu-ray

  589. Menu
  590. 00:00:00.000                             : en:Chapter 01
  591. 00:06:21.798                             : en:Chapter 02
  592. 00:13:09.288                             : en:Chapter 03
  593. 00:19:57.362                             : en:Chapter 04
  594. 00:26:32.173                             : en:Chapter 05
  595. 00:31:30.096                             : en:Chapter 06
  596. 00:36:47.246                             : en:Chapter 07
  597. 00:43:49.251                             : en:Chapter 08
  598. 00:51:46.186                             : en:Chapter 09
  599. 00:58:58.409                             : en:Chapter 10
  600. 01:07:30.588                             : en:Chapter 11
  601. 01:16:28.041                             : en:Chapter 12
  602. 01:23:02.602                             : en:Chapter 13
  603. 01:29:51.677                             : en:Chapter 14
  604. 01:35:25.469                             : en:Chapter 15
  605. 01:41:57.111                             : en:Chapter 16
复制代码



                                       
                                       

                                       
                                       
                                       




回复

使用道具 举报

懒得打字嘛,点击右侧快捷回复 【右侧内容,后台自定义】
您需要登录后才可以回帖 登录 | 立即加入

本版积分规则

Archiver|小黑屋| 蓝光电影网 |网站地图

Copyright © 2021 Comsenz Inc. Powered by 蓝光电影网

蓝光电影网

本站内容由用户自主分享和转载自互联网,转载目的在于传递更多信息,并不代表本网赞同其观点和对其真实性负责。

如有侵权、违反国家法律政策行为,请联系我们,我们会第一时间及时清除和处理!

举报反馈邮箱:[email protected]

快速回复 返回顶部 返回列表