找回密码

蓝光电影网

查看: 395|回复: 0

[REMUX.HEVC] 2012 3D/2012世界末日 2012.2009.2160p.BluRay.REMUX.HEVC.DTS-HD.MA.TrueHD.7.1.Atmos-FGT 77.01GB

[复制链接]
蓝光币
1084
发表于 2021-2-3 14:43:50 | 显示全部楼层 |阅读模式


◎译  名 2012 3D/2012天下末日/2012地球扑灭/2012末日预言(港)/Farewell Atlantis
◎片  名 2012
◎年  代 2009
◎产  地 美国,加拿大
◎类  别 行动 / 科幻 / 冒险 / 灾难
◎语  言 英语,法语,藏语,汉语普通话,俄语,印地语,葡萄牙语,拉丁语,意大利语
◎上映日期 2009-11-13(中国大陆/美国) / 2012-11-20(中国大陆 3D)
◎IMDb评分  5.8/10 from 353358 users
◎IMDb链接  https://www.imdb.com/title/tt1190080/
◎豆瓣评分 7.9/10 from 477397 users
◎豆瓣链接 https://movie.douban.com/subject/3005875/
◎片  长 158分钟
◎导  演 罗兰·艾默里奇 Roland Emmerich
◎编  剧 罗兰·艾默里奇 Roland Emmerich / 哈洛德·克卢瑟 Harald Kloser
◎主  演 约翰·库萨克 John Cusack
       阿曼达·皮特 Amanda Peet
       切瓦特·埃加福 Chiwetel Ejiofor
       坦迪·牛顿 Thandie Newton
       奥利弗·普莱特 Oliver Platt
       汤姆·麦卡锡 Tom McCarthy
       伍迪·哈里森 Woody Harrelson
       丹尼·格洛弗 Danny Glover
       连姆·詹姆斯 Liam James
       摩根·莉莉 Morgan Lily
       扎特科·巴瑞克 Zlatko Buric
       毕崔斯·罗森 Beatrice Rosen
       乔翰·厄布 Johann Urb
       约翰·比灵斯列 John Billingsley
       黄经汉 Chin Han
       周逸之 Osric Chau
       张铮 Tseng Chang
       卢燕 Lisa Lu
       布鲁·曼库马 Blu Mankuma
       乔治·席格 George Segal
       帕特里克·波查 Patrick Bauchau
       吉米·米斯特雷 Jimi Mistry
       瑞安·麦克唐纳德 Ryan McDonald
       玛丽莲·江恩 Merrilyn Gann
       区亨利 Henry O
       帕特里克·吉尔莫 Patrick Gilmore
       韦弗·里库克 Viv Leacock
       多隆·贝尔 Doron Bell
       大卫·奥斯 David Orth
       泰·奥尔森 Ty Olsson
       Zinaid Memisevic
       BJ·哈里森 BJ Harrison
       Dominic Zamprogna
       卡琳·考诺娃 Karin Konoval
       Mary Gillis
       郑柏恒 Rick Tae
       Parm Soor
       杰拉德·普伦科特 Gerard Plunkett
       伊芙·哈洛 Eve Harlow
       肖恩·泰森 Sean Tyson
       迈克尔·巴佛 Michael Buffer
       达伦·A·赫伯特 Daren A. Herbert
       朱迪·汤普森 Jody Thompson
       坦娅·钱普 Tanya Champoux
       弗兰克·C·特纳 Frank C. Turner
       拉腊·萨迪克 Laara Sadiq
       吉莲·芭伯 Gillian Barber
       贝薇莉·埃利奥特 Beverley Elliott
       阿加·达什 Agam Darshi
       拉吉·拉尔 Raj Lal
       杰克博·布莱尔 Jacob Blair
       Scott E. Miller
       安娜-梅劳特里奇 Anna Mae Routledge
       艾迪·哈塞尔 Eddie Hassell
       亚历桑德拉·卡斯蒂略 Alexandra Castillo
       李利强 Leo Li Chiang
       杰夫·古斯塔夫森 Geoff Gustafson
       艾力克斯·萨哈拉 Alex Zahara
       杰森·格里菲斯 Jason Griffith
       吉尔·莫里森 Jill Morrison
       姜广涛 Guangtao Jiang
       张杰 Jie Zhang
◎标  签 灾难 | 美国 | 震动 | 人性 | 2009 | 亲情 | 感动 | 行动
◎简  介


  太阳活动异常,地球内部的能量平衡系统面临解体,玛雅人的预言行将实现,人类将遭受没顶之灾。列国政府已经联手起头奥秘制造方舟,希望能躲过这一浩劫。以写科幻小说谋生的杰克逊(约翰·库萨克 John Cusack 饰)在带孩子们到黄石公园渡周末时发生连续串怪事,而且碰到了神经兮兮的查理(伍迪·哈里森 Woody Harrelson 饰),查理告诉他天下末日行未到临。陪伴着火山爆发,激烈地震以及海啸,杰克逊率领自己的家人驾驶一架姑且租来的飞机冲出被死神阴霾瞬间覆盖的城市上空,起头寻觅查理口中列国政府正在结合奥秘制造的方舟。在生死攸关的时辰,一些巨大的鬼魂将脱颖而出,而一些无私的心灵将无所遁形,当千万万万个生通达过各类方式来到方舟制造基地之时,方舟有限的包容数目激发史无前例的发急。终极,仅存的人们用互爱和对生命的尊重度过了难关。
  
  本片被称为《后天》的升级版,投资跨越2亿美圆,是灾难片大师罗兰·艾默里奇(Roland Emmerich)的最新力作。
◎获奖情况
  第14届圣地亚哥影评人协会奖 ?(2009)
  年度劳模 伍迪·哈里森
  
  第12届美国青少年挑选奖 ?(2010)
  最好科幻电影(提名)
  最好科幻电影男演员(提名) 约翰·库萨克
  最好科幻电影女演员(提名) 阿曼达·皮特
  1. Video
  2. ID                                       : 1
  3. ID in the original source medium         : 4113 (0x1011)
  4. Format                                   : HEVC
  5. Format/Info                              : High Efficiency Video Coding
  6. Format profile                           : Main [email protected]@High
  7. HDR format                               : SMPTE ST 2086, HDR10 compatible
  8. Codec ID                                 : V_MPEGH/ISO/HEVC
  9. Duration                                 : 2 h 37 min
  10. Bit rate                                 : 49.3 Mb/s
  11. Width                                    : 3 840 pixels
  12. Height                                   : 2 160 pixels
  13. Display aspect ratio                     : 16:9
  14. Frame rate mode                          : Constant
  15. Frame rate                               : 23.976 (24000/1001/189150) FPS
  16. Color space                              : YUV
  17. Chroma subsampling                       : 4:2:0 (Type 2)
  18. Bit depth                                : 10 bits
  19. Bits/(Pixel*Frame)                       : 0.248
  20. Stream size                              : 54.4 GiB (71%)
  21. Language                                 : English
  22. Default                                  : No
  23. Forced                                   : No
  24. Color range                              : Limited
  25. Color primaries                          : BT.2020
  26. Transfer characteristics                 : PQ
  27. Matrix coefficients                      : BT.2020 non-constant
  28. Mastering display color primaries        : Display P3
  29. Mastering display luminance              : min: 0.0050 cd/m2, max: 4000 cd/m2
  30. Maximum Content Light Level              : 4451 cd/m2
  31. Maximum Frame-Average Light Level        : 514 cd/m2
  32. Original source medium                   : Blu-ray

  33. Audio #1
  34. ID                                       : 2
  35. ID in the original source medium         : 4352 (0x1100)
  36. Format                                   : MLP FBA 16-ch
  37. Format/Info                              : Meridian Lossless Packing FBA with 16-channel presentation
  38. Commercial name                          : Dolby TrueHD with Dolby Atmos
  39. Codec ID                                 : A_TRUEHD
  40. Duration                                 : 2 h 37 min
  41. Bit rate mode                            : Variable
  42. Bit rate                                 : 4 860 kb/s
  43. Maximum bit rate                         : 7 908 kb/s
  44. Channel(s)                               : 8 channels
  45. Channel layout                           : L R C LFE Ls Rs Lb Rb
  46. Sampling rate                            : 48.0 kHz
  47. Frame rate                               : 1 200.000 FPS (40 SPF)
  48. Compression mode                         : Lossless
  49. Stream size                              : 5.36 GiB (7%)
  50. Title                                    : TrueHD 7.1. Atmos
  51. Language                                 : English
  52. Default                                  : Yes
  53. Forced                                   : No
  54. Original source medium                   : Blu-ray
  55. Number of dynamic objects                : 11
  56. Bed channel count                        : 1 channel
  57. Bed channel configuration                : LFE

  58. Audio #2
  59. ID                                       : 3
  60. Format                                   : DTS XLL
  61. Format/Info                              : Digital Theater Systems
  62. Commercial name                          : DTS-HD Master Audio
  63. Codec ID                                 : A_DTS
  64. Duration                                 : 2 h 37 min
  65. Bit rate mode                            : Variable
  66. Bit rate                                 : 4 589 kb/s
  67. Channel(s)                               : 8 channels
  68. Channel layout                           : C L R LFE Lb Rb Lss Rss
  69. Sampling rate                            : 48.0 kHz
  70. Frame rate                               : 93.750 FPS (512 SPF)
  71. Bit depth                                : 24 bits
  72. Compression mode                         : Lossless
  73. Stream size                              : 5.06 GiB (7%)
  74. Title                                    : DTS-HD MA 7.1
  75. Language                                 : English
  76. Default                                  : No
  77. Forced                                   : No

  78. Audio #3
  79. ID                                       : 4
  80. ID in the original source medium         : 4352 (0x1100)
  81. Format                                   : AC-3
  82. Format/Info                              : Audio Coding 3
  83. Commercial name                          : Dolby Digital
  84. Codec ID                                 : A_AC3
  85. Duration                                 : 2 h 37 min
  86. Bit rate mode                            : Constant
  87. Bit rate                                 : 640 kb/s
  88. Channel(s)                               : 6 channels
  89. Channel layout                           : L R C LFE Ls Rs
  90. Sampling rate                            : 48.0 kHz
  91. Frame rate                               : 31.250 FPS (1536 SPF)
  92. Compression mode                         : Lossy
  93. Stream size                              : 723 MiB (1%)
  94. Title                                    : DD 5.1
  95. Language                                 : English
  96. Service kind                             : Complete Main
  97. Default                                  : No
  98. Forced                                   : No
  99. Original source medium                   : Blu-ray

  100. Audio #4
  101. ID                                       : 5
  102. ID in the original source medium         : 4354 (0x1102)
  103. Format                                   : AC-3
  104. Format/Info                              : Audio Coding 3
  105. Commercial name                          : Dolby Digital
  106. Codec ID                                 : A_AC3
  107. Duration                                 : 2 h 37 min
  108. Bit rate mode                            : Constant
  109. Bit rate                                 : 192 kb/s
  110. Channel(s)                               : 2 channels
  111. Channel layout                           : L R
  112. Sampling rate                            : 48.0 kHz
  113. Frame rate                               : 31.250 FPS (1536 SPF)
  114. Compression mode                         : Lossy
  115. Stream size                              : 217 MiB (0%)
  116. Title                                    : DD 2.0
  117. Language                                 : English
  118. Service kind                             : Complete Main
  119. Default                                  : No
  120. Forced                                   : No
  121. Original source medium                   : Blu-ray

  122. Audio #5
  123. ID                                       : 6
  124. ID in the original source medium         : 4355 (0x1103)
  125. Format                                   : AC-3
  126. Format/Info                              : Audio Coding 3
  127. Commercial name                          : Dolby Digital
  128. Codec ID                                 : A_AC3
  129. Duration                                 : 2 h 37 min
  130. Bit rate mode                            : Constant
  131. Bit rate                                 : 192 kb/s
  132. Channel(s)                               : 2 channels
  133. Channel layout                           : L R
  134. Sampling rate                            : 48.0 kHz
  135. Frame rate                               : 31.250 FPS (1536 SPF)
  136. Compression mode                         : Lossy
  137. Stream size                              : 217 MiB (0%)
  138. Title                                    : DD 2.0
  139. Language                                 : English
  140. Service kind                             : Complete Main
  141. Default                                  : No
  142. Forced                                   : No
  143. Original source medium                   : Blu-ray

  144. Audio #6
  145. ID                                       : 7
  146. ID in the original source medium         : 4356 (0x1104)
  147. Format                                   : AC-3
  148. Format/Info                              : Audio Coding 3
  149. Commercial name                          : Dolby Digital
  150. Codec ID                                 : A_AC3
  151. Duration                                 : 2 h 37 min
  152. Bit rate mode                            : Constant
  153. Bit rate                                 : 640 kb/s
  154. Channel(s)                               : 6 channels
  155. Channel layout                           : L R C LFE Ls Rs
  156. Sampling rate                            : 48.0 kHz
  157. Frame rate                               : 31.250 FPS (1536 SPF)
  158. Compression mode                         : Lossy
  159. Stream size                              : 723 MiB (1%)
  160. Title                                    : DD 5.1
  161. Language                                 : Catalan
  162. Service kind                             : Complete Main
  163. Default                                  : No
  164. Forced                                   : No
  165. Original source medium                   : Blu-ray

  166. Audio #7
  167. ID                                       : 8
  168. ID in the original source medium         : 4357 (0x1105)
  169. Format                                   : AC-3
  170. Format/Info                              : Audio Coding 3
  171. Commercial name                          : Dolby Digital
  172. Codec ID                                 : A_AC3
  173. Duration                                 : 2 h 37 min
  174. Bit rate mode                            : Constant
  175. Bit rate                                 : 640 kb/s
  176. Channel(s)                               : 6 channels
  177. Channel layout                           : L R C LFE Ls Rs
  178. Sampling rate                            : 48.0 kHz
  179. Frame rate                               : 31.250 FPS (1536 SPF)
  180. Compression mode                         : Lossy
  181. Stream size                              : 723 MiB (1%)
  182. Title                                    : DD 5.1
  183. Language                                 : Czech
  184. Service kind                             : Complete Main
  185. Default                                  : No
  186. Forced                                   : No
  187. Original source medium                   : Blu-ray

  188. Audio #8
  189. ID                                       : 9
  190. ID in the original source medium         : 4358 (0x1106)
  191. Format                                   : AC-3
  192. Format/Info                              : Audio Coding 3
  193. Commercial name                          : Dolby Digital
  194. Codec ID                                 : A_AC3
  195. Duration                                 : 2 h 37 min
  196. Bit rate mode                            : Constant
  197. Bit rate                                 : 640 kb/s
  198. Channel(s)                               : 6 channels
  199. Channel layout                           : L R C LFE Ls Rs
  200. Sampling rate                            : 48.0 kHz
  201. Frame rate                               : 31.250 FPS (1536 SPF)
  202. Compression mode                         : Lossy
  203. Stream size                              : 723 MiB (1%)
  204. Title                                    : DD 5.1
  205. Language                                 : French
  206. Service kind                             : Complete Main
  207. Default                                  : No
  208. Forced                                   : No
  209. Original source medium                   : Blu-ray

  210. Audio #9
  211. ID                                       : 10
  212. ID in the original source medium         : 4359 (0x1107)
  213. Format                                   : AC-3
  214. Format/Info                              : Audio Coding 3
  215. Commercial name                          : Dolby Digital
  216. Codec ID                                 : A_AC3
  217. Duration                                 : 2 h 37 min
  218. Bit rate mode                            : Constant
  219. Bit rate                                 : 640 kb/s
  220. Channel(s)                               : 6 channels
  221. Channel layout                           : L R C LFE Ls Rs
  222. Sampling rate                            : 48.0 kHz
  223. Frame rate                               : 31.250 FPS (1536 SPF)
  224. Compression mode                         : Lossy
  225. Stream size                              : 723 MiB (1%)
  226. Title                                    : DD 5.1
  227. Language                                 : French
  228. Service kind                             : Complete Main
  229. Default                                  : No
  230. Forced                                   : No
  231. Original source medium                   : Blu-ray

  232. Audio #10
  233. ID                                       : 11
  234. ID in the original source medium         : 4360 (0x1108)
  235. Format                                   : AC-3
  236. Format/Info                              : Audio Coding 3
  237. Commercial name                          : Dolby Digital
  238. Codec ID                                 : A_AC3
  239. Duration                                 : 2 h 37 min
  240. Bit rate mode                            : Constant
  241. Bit rate                                 : 640 kb/s
  242. Channel(s)                               : 6 channels
  243. Channel layout                           : L R C LFE Ls Rs
  244. Sampling rate                            : 48.0 kHz
  245. Frame rate                               : 31.250 FPS (1536 SPF)
  246. Compression mode                         : Lossy
  247. Stream size                              : 723 MiB (1%)
  248. Title                                    : DD 5.1
  249. Language                                 : German
  250. Service kind                             : Complete Main
  251. Default                                  : No
  252. Forced                                   : No
  253. Original source medium                   : Blu-ray

  254. Audio #11
  255. ID                                       : 12
  256. ID in the original source medium         : 4361 (0x1109)
  257. Format                                   : AC-3
  258. Format/Info                              : Audio Coding 3
  259. Commercial name                          : Dolby Digital
  260. Codec ID                                 : A_AC3
  261. Duration                                 : 2 h 37 min
  262. Bit rate mode                            : Constant
  263. Bit rate                                 : 640 kb/s
  264. Channel(s)                               : 6 channels
  265. Channel layout                           : L R C LFE Ls Rs
  266. Sampling rate                            : 48.0 kHz
  267. Frame rate                               : 31.250 FPS (1536 SPF)
  268. Compression mode                         : Lossy
  269. Stream size                              : 723 MiB (1%)
  270. Title                                    : DD 5.1
  271. Language                                 : Hindi
  272. Service kind                             : Complete Main
  273. Default                                  : No
  274. Forced                                   : No
  275. Original source medium                   : Blu-ray

  276. Audio #12
  277. ID                                       : 13
  278. ID in the original source medium         : 4362 (0x110A)
  279. Format                                   : AC-3
  280. Format/Info                              : Audio Coding 3
  281. Commercial name                          : Dolby Digital
  282. Codec ID                                 : A_AC3
  283. Duration                                 : 2 h 37 min
  284. Bit rate mode                            : Constant
  285. Bit rate                                 : 640 kb/s
  286. Channel(s)                               : 6 channels
  287. Channel layout                           : L R C LFE Ls Rs
  288. Sampling rate                            : 48.0 kHz
  289. Frame rate                               : 31.250 FPS (1536 SPF)
  290. Compression mode                         : Lossy
  291. Stream size                              : 723 MiB (1%)
  292. Title                                    : DD 5.1
  293. Language                                 : Hungarian
  294. Service kind                             : Complete Main
  295. Default                                  : No
  296. Forced                                   : No
  297. Original source medium                   : Blu-ray

  298. Audio #13
  299. ID                                       : 14
  300. ID in the original source medium         : 4363 (0x110B)
  301. Format                                   : AC-3
  302. Format/Info                              : Audio Coding 3
  303. Commercial name                          : Dolby Digital
  304. Codec ID                                 : A_AC3
  305. Duration                                 : 2 h 37 min
  306. Bit rate mode                            : Constant
  307. Bit rate                                 : 640 kb/s
  308. Channel(s)                               : 6 channels
  309. Channel layout                           : L R C LFE Ls Rs
  310. Sampling rate                            : 48.0 kHz
  311. Frame rate                               : 31.250 FPS (1536 SPF)
  312. Compression mode                         : Lossy
  313. Stream size                              : 723 MiB (1%)
  314. Title                                    : DD 5.1
  315. Language                                 : Italian
  316. Service kind                             : Complete Main
  317. Default                                  : No
  318. Forced                                   : No
  319. Original source medium                   : Blu-ray

  320. Audio #14
  321. ID                                       : 15
  322. ID in the original source medium         : 4364 (0x110C)
  323. Format                                   : AC-3
  324. Format/Info                              : Audio Coding 3
  325. Commercial name                          : Dolby Digital
  326. Codec ID                                 : A_AC3
  327. Duration                                 : 2 h 37 min
  328. Bit rate mode                            : Constant
  329. Bit rate                                 : 640 kb/s
  330. Channel(s)                               : 6 channels
  331. Channel layout                           : L R C LFE Ls Rs
  332. Sampling rate                            : 48.0 kHz
  333. Frame rate                               : 31.250 FPS (1536 SPF)
  334. Compression mode                         : Lossy
  335. Stream size                              : 723 MiB (1%)
  336. Title                                    : DD 5.1
  337. Language                                 : Japanese
  338. Service kind                             : Complete Main
  339. Default                                  : No
  340. Forced                                   : No
  341. Original source medium                   : Blu-ray

  342. Audio #15
  343. ID                                       : 16
  344. ID in the original source medium         : 4365 (0x110D)
  345. Format                                   : AC-3
  346. Format/Info                              : Audio Coding 3
  347. Commercial name                          : Dolby Digital
  348. Codec ID                                 : A_AC3
  349. Duration                                 : 2 h 37 min
  350. Bit rate mode                            : Constant
  351. Bit rate                                 : 640 kb/s
  352. Channel(s)                               : 6 channels
  353. Channel layout                           : L R C LFE Ls Rs
  354. Sampling rate                            : 48.0 kHz
  355. Frame rate                               : 31.250 FPS (1536 SPF)
  356. Compression mode                         : Lossy
  357. Stream size                              : 723 MiB (1%)
  358. Title                                    : DD 5.1
  359. Language                                 : Polish
  360. Service kind                             : Complete Main
  361. Default                                  : No
  362. Forced                                   : No
  363. Original source medium                   : Blu-ray

  364. Audio #16
  365. ID                                       : 17
  366. ID in the original source medium         : 4366 (0x110E)
  367. Format                                   : AC-3
  368. Format/Info                              : Audio Coding 3
  369. Commercial name                          : Dolby Digital
  370. Codec ID                                 : A_AC3
  371. Duration                                 : 2 h 37 min
  372. Bit rate mode                            : Constant
  373. Bit rate                                 : 640 kb/s
  374. Channel(s)                               : 6 channels
  375. Channel layout                           : L R C LFE Ls Rs
  376. Sampling rate                            : 48.0 kHz
  377. Frame rate                               : 31.250 FPS (1536 SPF)
  378. Compression mode                         : Lossy
  379. Stream size                              : 723 MiB (1%)
  380. Title                                    : DD 5.1
  381. Language                                 : Portuguese
  382. Service kind                             : Complete Main
  383. Default                                  : No
  384. Forced                                   : No
  385. Original source medium                   : Blu-ray

  386. Audio #17
  387. ID                                       : 18
  388. ID in the original source medium         : 4367 (0x110F)
  389. Format                                   : AC-3
  390. Format/Info                              : Audio Coding 3
  391. Commercial name                          : Dolby Digital
  392. Codec ID                                 : A_AC3
  393. Duration                                 : 2 h 37 min
  394. Bit rate mode                            : Constant
  395. Bit rate                                 : 640 kb/s
  396. Channel(s)                               : 6 channels
  397. Channel layout                           : L R C LFE Ls Rs
  398. Sampling rate                            : 48.0 kHz
  399. Frame rate                               : 31.250 FPS (1536 SPF)
  400. Compression mode                         : Lossy
  401. Stream size                              : 723 MiB (1%)
  402. Title                                    : DD 5.1
  403. Language                                 : Spanish
  404. Service kind                             : Complete Main
  405. Default                                  : No
  406. Forced                                   : No
  407. Original source medium                   : Blu-ray

  408. Audio #18
  409. ID                                       : 19
  410. ID in the original source medium         : 4368 (0x1110)
  411. Format                                   : AC-3
  412. Format/Info                              : Audio Coding 3
  413. Commercial name                          : Dolby Digital
  414. Codec ID                                 : A_AC3
  415. Duration                                 : 2 h 37 min
  416. Bit rate mode                            : Constant
  417. Bit rate                                 : 640 kb/s
  418. Channel(s)                               : 6 channels
  419. Channel layout                           : L R C LFE Ls Rs
  420. Sampling rate                            : 48.0 kHz
  421. Frame rate                               : 31.250 FPS (1536 SPF)
  422. Compression mode                         : Lossy
  423. Stream size                              : 723 MiB (1%)
  424. Title                                    : DD 5.1
  425. Language                                 : Spanish
  426. Service kind                             : Complete Main
  427. Default                                  : No
  428. Forced                                   : No
  429. Original source medium                   : Blu-ray

  430. Audio #19
  431. ID                                       : 20
  432. ID in the original source medium         : 4369 (0x1111)
  433. Format                                   : AC-3
  434. Format/Info                              : Audio Coding 3
  435. Commercial name                          : Dolby Digital
  436. Codec ID                                 : A_AC3
  437. Duration                                 : 2 h 37 min
  438. Bit rate mode                            : Constant
  439. Bit rate                                 : 640 kb/s
  440. Channel(s)                               : 6 channels
  441. Channel layout                           : L R C LFE Ls Rs
  442. Sampling rate                            : 48.0 kHz
  443. Frame rate                               : 31.250 FPS (1536 SPF)
  444. Compression mode                         : Lossy
  445. Stream size                              : 723 MiB (1%)
  446. Title                                    : DD 5.1
  447. Language                                 : Thai
  448. Service kind                             : Complete Main
  449. Default                                  : No
  450. Forced                                   : No
  451. Original source medium                   : Blu-ray

  452. Audio #20
  453. ID                                       : 21
  454. ID in the original source medium         : 4370 (0x1112)
  455. Format                                   : AC-3
  456. Format/Info                              : Audio Coding 3
  457. Commercial name                          : Dolby Digital
  458. Codec ID                                 : A_AC3
  459. Duration                                 : 2 h 37 min
  460. Bit rate mode                            : Constant
  461. Bit rate                                 : 640 kb/s
  462. Channel(s)                               : 6 channels
  463. Channel layout                           : L R C LFE Ls Rs
  464. Sampling rate                            : 48.0 kHz
  465. Frame rate                               : 31.250 FPS (1536 SPF)
  466. Compression mode                         : Lossy
  467. Stream size                              : 723 MiB (1%)
  468. Title                                    : DD 5.1
  469. Language                                 : Turkish
  470. Service kind                             : Complete Main
  471. Default                                  : No
  472. Forced                                   : No
  473. Original source medium                   : Blu-ray

  474. Text #1
  475. ID                                       : 22
  476. Format                                   : UTF-8
  477. Codec ID                                 : S_TEXT/UTF8
  478. Codec ID/Info                            : UTF-8 Plain Text
  479. Duration                                 : 2 h 35 min
  480. Bit rate                                 : 59 b/s
  481. Count of elements                        : 1915
  482. Stream size                              : 67.8 KiB (0%)
  483. Title                                    : English-SRT
  484. Language                                 : English
  485. Default                                  : Yes
  486. Forced                                   : No

  487. Text #2
  488. ID                                       : 23
  489. ID in the original source medium         : 4768 (0x12A0)
  490. Format                                   : PGS
  491. Muxing mode                              : zlib
  492. Codec ID                                 : S_HDMV/PGS
  493. Codec ID/Info                            : Picture based subtitle format used on BDs/HD-DVDs
  494. Duration                                 : 2 h 37 min
  495. Bit rate                                 : 37.7 kb/s
  496. Count of elements                        : 4364
  497. Stream size                              : 42.5 MiB (0%)
  498. Title                                    : English-SDH-PGS
  499. Language                                 : English
  500. Default                                  : No
  501. Forced                                   : No
  502. Original source medium                   : Blu-ray

  503. Text #3
  504. ID                                       : 24
  505. ID in the original source medium         : 4769 (0x12A1)
  506. Format                                   : PGS
  507. Muxing mode                              : zlib
  508. Codec ID                                 : S_HDMV/PGS
  509. Codec ID/Info                            : Picture based subtitle format used on BDs/HD-DVDs
  510. Duration                                 : 2 h 26 min
  511. Bit rate                                 : 34.3 kb/s
  512. Count of elements                        : 3623
  513. Stream size                              : 35.9 MiB (0%)
  514. Title                                    : English-PGS
  515. Language                                 : English
  516. Default                                  : No
  517. Forced                                   : No
  518. Original source medium                   : Blu-ray

  519. Text #4
  520. ID                                       : 25
  521. ID in the original source medium         : 4770 (0x12A2)
  522. Format                                   : PGS
  523. Muxing mode                              : zlib
  524. Codec ID                                 : S_HDMV/PGS
  525. Codec ID/Info                            : Picture based subtitle format used on BDs/HD-DVDs
  526. Duration                                 : 2 h 37 min
  527. Bit rate                                 : 37.7 kb/s
  528. Count of elements                        : 4364
  529. Stream size                              : 42.5 MiB (0%)
  530. Title                                    : English-SDH-PGS
  531. Language                                 : English
  532. Default                                  : No
  533. Forced                                   : No
  534. Original source medium                   : Blu-ray

  535. Text #5
  536. ID                                       : 26
  537. ID in the original source medium         : 4771 (0x12A3)
  538. Format                                   : PGS
  539. Muxing mode                              : zlib
  540. Codec ID                                 : S_HDMV/PGS
  541. Codec ID/Info                            : Picture based subtitle format used on BDs/HD-DVDs
  542. Duration                                 : 2 h 26 min
  543. Bit rate                                 : 34.3 kb/s
  544. Count of elements                        : 3623
  545. Stream size                              : 35.9 MiB (0%)
  546. Title                                    : English-PGS
  547. Language                                 : English
  548. Default                                  : No
  549. Forced                                   : No
  550. Original source medium                   : Blu-ray

  551. Text #6
  552. ID                                       : 27
  553. ID in the original source medium         : 4772 (0x12A4)
  554. Format                                   : PGS
  555. Muxing mode                              : zlib
  556. Codec ID                                 : S_HDMV/PGS
  557. Codec ID/Info                            : Picture based subtitle format used on BDs/HD-DVDs
  558. Duration                                 : 2 h 36 min
  559. Bit rate                                 : 16.7 kb/s
  560. Count of elements                        : 3819
  561. Stream size                              : 18.7 MiB (0%)
  562. Title                                    : Arabic-PGS
  563. Language                                 : Arabic
  564. Default                                  : No
  565. Forced                                   : No
  566. Original source medium                   : Blu-ray

  567. Text #7
  568. ID                                       : 28
  569. ID in the original source medium         : 4773 (0x12A5)
  570. Format                                   : PGS
  571. Muxing mode                              : zlib
  572. Codec ID                                 : S_HDMV/PGS
  573. Codec ID/Info                            : Picture based subtitle format used on BDs/HD-DVDs
  574. Duration                                 : 2 h 36 min
  575. Bit rate                                 : 31.0 kb/s
  576. Count of elements                        : 3833
  577. Stream size                              : 34.6 MiB (0%)
  578. Title                                    : Chinese-PGS
  579. Language                                 : Chinese
  580. Default                                  : No
  581. Forced                                   : No
  582. Original source medium                   : Blu-ray

  583. Text #8
  584. ID                                       : 29
  585. ID in the original source medium         : 4774 (0x12A6)
  586. Format                                   : PGS
  587. Muxing mode                              : zlib
  588. Codec ID                                 : S_HDMV/PGS
  589. Codec ID/Info                            : Picture based subtitle format used on BDs/HD-DVDs
  590. Duration                                 : 2 h 26 min
  591. Bit rate                                 : 30.1 kb/s
  592. Count of elements                        : 3978
  593. Stream size                              : 31.5 MiB (0%)
  594. Title                                    : Chinese-PGS
  595. Language                                 : Chinese
  596. Default                                  : No
  597. Forced                                   : No
  598. Original source medium                   : Blu-ray

  599. Text #9
  600. ID                                       : 30
  601. ID in the original source medium         : 4775 (0x12A7)
  602. Format                                   : PGS
  603. Muxing mode                              : zlib
  604. Codec ID                                 : S_HDMV/PGS
  605. Codec ID/Info                            : Picture based subtitle format used on BDs/HD-DVDs
  606. Duration                                 : 2 h 36 min
  607. Bit rate                                 : 24.9 kb/s
  608. Count of elements                        : 3635
  609. Stream size                              : 27.8 MiB (0%)
  610. Title                                    : Czech-PGS
  611. Language                                 : Czech
  612. Default                                  : No
  613. Forced                                   : No
  614. Original source medium                   : Blu-ray

  615. Text #10
  616. ID                                       : 31
  617. ID in the original source medium         : 4775 (0x12A7)
  618. Format                                   : PGS
  619. Muxing mode                              : zlib
  620. Codec ID                                 : S_HDMV/PGS
  621. Codec ID/Info                            : Picture based subtitle format used on BDs/HD-DVDs
  622. Duration                                 : 2 h 21 min
  623. Bit rate                                 : 1 577 b/s
  624. Count of elements                        : 206
  625. Stream size                              : 1.60 MiB (0%)
  626. Title                                    : Czech-FORCED-PGS
  627. Language                                 : Czech
  628. Default                                  : No
  629. Forced                                   : No
  630. Original source medium                   : Blu-ray

  631. Text #11
  632. ID                                       : 32
  633. ID in the original source medium         : 4776 (0x12A8)
  634. Format                                   : PGS
  635. Muxing mode                              : zlib
  636. Codec ID                                 : S_HDMV/PGS
  637. Codec ID/Info                            : Picture based subtitle format used on BDs/HD-DVDs
  638. Duration                                 : 2 h 36 min
  639. Bit rate                                 : 27.8 kb/s
  640. Count of elements                        : 3347
  641. Stream size                              : 31.1 MiB (0%)
  642. Title                                    : Danish-PGS
  643. Language                                 : Danish
  644. Default                                  : No
  645. Forced                                   : No
  646. Original source medium                   : Blu-ray

  647. Text #12
  648. ID                                       : 33
  649. ID in the original source medium         : 4777 (0x12A9)
  650. Format                                   : PGS
  651. Muxing mode                              : zlib
  652. Codec ID                                 : S_HDMV/PGS
  653. Codec ID/Info                            : Picture based subtitle format used on BDs/HD-DVDs
  654. Duration                                 : 2 h 26 min
  655. Bit rate                                 : 33.2 kb/s
  656. Count of elements                        : 3813
  657. Stream size                              : 34.7 MiB (0%)
  658. Title                                    : Dutch-PGS
  659. Language                                 : Dutch
  660. Default                                  : No
  661. Forced                                   : No
  662. Original source medium                   : Blu-ray

  663. Text #13
  664. ID                                       : 34
  665. ID in the original source medium         : 4778 (0x12AA)
  666. Format                                   : PGS
  667. Muxing mode                              : zlib
  668. Codec ID                                 : S_HDMV/PGS
  669. Codec ID/Info                            : Picture based subtitle format used on BDs/HD-DVDs
  670. Duration                                 : 2 h 26 min
  671. Bit rate                                 : 34.1 kb/s
  672. Count of elements                        : 3745
  673. Stream size                              : 35.6 MiB (0%)
  674. Title                                    : Estonian-PGS
  675. Language                                 : Estonian
  676. Default                                  : No
  677. Forced                                   : No
  678. Original source medium                   : Blu-ray

  679. Text #14
  680. ID                                       : 35
  681. ID in the original source medium         : 4779 (0x12AB)
  682. Format                                   : PGS
  683. Muxing mode                              : zlib
  684. Codec ID                                 : S_HDMV/PGS
  685. Codec ID/Info                            : Picture based subtitle format used on BDs/HD-DVDs
  686. Duration                                 : 2 h 26 min
  687. Bit rate                                 : 28.3 kb/s
  688. Count of elements                        : 3293
  689. Stream size                              : 29.6 MiB (0%)
  690. Title                                    : Finnish-PGS
  691. Language                                 : Finnish
  692. Default                                  : No
  693. Forced                                   : No
  694. Original source medium                   : Blu-ray

  695. Text #15
  696. ID                                       : 36
  697. ID in the original source medium         : 4780 (0x12AC)
  698. Format                                   : PGS
  699. Muxing mode                              : zlib
  700. Codec ID                                 : S_HDMV/PGS
  701. Codec ID/Info                            : Picture based subtitle format used on BDs/HD-DVDs
  702. Duration                                 : 2 h 36 min
  703. Bit rate                                 : 24.9 kb/s
  704. Count of elements                        : 3672
  705. Stream size                              : 27.8 MiB (0%)
  706. Title                                    : French-PGS
  707. Language                                 : French
  708. Default                                  : No
  709. Forced                                   : No
  710. Original source medium                   : Blu-ray

  711. Text #16
  712. ID                                       : 37
  713. ID in the original source medium         : 4780 (0x12AC)
  714. Format                                   : PGS
  715. Muxing mode                              : zlib
  716. Codec ID                                 : S_HDMV/PGS
  717. Codec ID/Info                            : Picture based subtitle format used on BDs/HD-DVDs
  718. Duration                                 : 2 h 36 min
  719. Bit rate                                 : 1 014 b/s
  720. Count of elements                        : 162
  721. Stream size                              : 1.13 MiB (0%)
  722. Title                                    : French-FORCED-PGS
  723. Language                                 : French
  724. Default                                  : No
  725. Forced                                   : No
  726. Original source medium                   : Blu-ray

  727. Text #17
  728. ID                                       : 38
  729. ID in the original source medium         : 4781 (0x12AD)
  730. Format                                   : PGS
  731. Muxing mode                              : zlib
  732. Codec ID                                 : S_HDMV/PGS
  733. Codec ID/Info                            : Picture based subtitle format used on BDs/HD-DVDs
  734. Duration                                 : 2 h 26 min
  735. Bit rate                                 : 32.6 kb/s
  736. Count of elements                        : 3477
  737. Stream size                              : 34.1 MiB (0%)
  738. Title                                    : German-PGS
  739. Language                                 : German
  740. Default                                  : No
  741. Forced                                   : No
  742. Original source medium                   : Blu-ray

  743. Text #18
  744. ID                                       : 39
  745. ID in the original source medium         : 4781 (0x12AD)
  746. Format                                   : PGS
  747. Muxing mode                              : zlib
  748. Codec ID                                 : S_HDMV/PGS
  749. Codec ID/Info                            : Picture based subtitle format used on BDs/HD-DVDs
  750. Duration                                 : 2 h 14 min
  751. Bit rate                                 : 1 778 b/s
  752. Count of elements                        : 182
  753. Stream size                              : 1.71 MiB (0%)
  754. Title                                    : German-FORCED-PGS
  755. Language                                 : German
  756. Default                                  : No
  757. Forced                                   : No
  758. Original source medium                   : Blu-ray

  759. Text #19
  760. ID                                       : 40
  761. ID in the original source medium         : 4782 (0x12AE)
  762. Format                                   : PGS
  763. Muxing mode                              : zlib
  764. Codec ID                                 : S_HDMV/PGS
  765. Codec ID/Info                            : Picture based subtitle format used on BDs/HD-DVDs
  766. Duration                                 : 2 h 27 min
  767. Bit rate                                 : 34.5 kb/s
  768. Count of elements                        : 3743
  769. Stream size                              : 36.3 MiB (0%)
  770. Title                                    : Greek-PGS
  771. Language                                 : Greek
  772. Default                                  : No
  773. Forced                                   : No
  774. Original source medium                   : Blu-ray

  775. Text #20
  776. ID                                       : 41
  777. ID in the original source medium         : 4783 (0x12AF)
  778. Format                                   : PGS
  779. Muxing mode                              : zlib
  780. Codec ID                                 : S_HDMV/PGS
  781. Codec ID/Info                            : Picture based subtitle format used on BDs/HD-DVDs
  782. Duration                                 : 2 h 36 min
  783. Bit rate                                 : 27.0 kb/s
  784. Count of elements                        : 3747
  785. Stream size                              : 30.1 MiB (0%)
  786. Title                                    : Hungarian-PGS
  787. Language                                 : Hungarian
  788. Default                                  : No
  789. Forced                                   : No
  790. Original source medium                   : Blu-ray

  791. Text #21
  792. ID                                       : 42
  793. ID in the original source medium         : 4784 (0x12B0)
  794. Format                                   : PGS
  795. Muxing mode                              : zlib
  796. Codec ID                                 : S_HDMV/PGS
  797. Codec ID/Info                            : Picture based subtitle format used on BDs/HD-DVDs
  798. Duration                                 : 2 h 36 min
  799. Bit rate                                 : 28.4 kb/s
  800. Count of elements                        : 3411
  801. Stream size                              : 31.8 MiB (0%)
  802. Title                                    : Italian-PGS
  803. Language                                 : Italian
  804. Default                                  : No
  805. Forced                                   : No
  806. Original source medium                   : Blu-ray

  807. Text #22
  808. ID                                       : 43
  809. ID in the original source medium         : 4784 (0x12B0)
  810. Format                                   : PGS
  811. Muxing mode                              : zlib
  812. Codec ID                                 : S_HDMV/PGS
  813. Codec ID/Info                            : Picture based subtitle format used on BDs/HD-DVDs
  814. Duration                                 : 2 h 36 min
  815. Bit rate                                 : 1 449 b/s
  816. Count of elements                        : 184
  817. Stream size                              : 1.62 MiB (0%)
  818. Title                                    : Italian-FORCED-PGS
  819. Language                                 : Italian
  820. Default                                  : No
  821. Forced                                   : No
  822. Original source medium                   : Blu-ray

  823. Text #23
  824. ID                                       : 44
  825. ID in the original source medium         : 4785 (0x12B1)
  826. Format                                   : PGS
  827. Muxing mode                              : zlib
  828. Codec ID                                 : S_HDMV/PGS
  829. Codec ID/Info                            : Picture based subtitle format used on BDs/HD-DVDs
  830. Duration                                 : 2 h 35 min
  831. Bit rate                                 : 25.6 kb/s
  832. Count of elements                        : 3727
  833. Stream size                              : 28.6 MiB (0%)
  834. Title                                    : Japanese-PGS
  835. Language                                 : Japanese
  836. Default                                  : No
  837. Forced                                   : No
  838. Original source medium                   : Blu-ray

  839. Text #24
  840. ID                                       : 45
  841. ID in the original source medium         : 4786 (0x12B2)
  842. Format                                   : PGS
  843. Muxing mode                              : zlib
  844. Codec ID                                 : S_HDMV/PGS
  845. Codec ID/Info                            : Picture based subtitle format used on BDs/HD-DVDs
  846. Duration                                 : 2 h 36 min
  847. Bit rate                                 : 18.7 kb/s
  848. Count of elements                        : 3653
  849. Stream size                              : 20.9 MiB (0%)
  850. Title                                    : Korean-PGS
  851. Language                                 : Korean
  852. Default                                  : No
  853. Forced                                   : No
  854. Original source medium                   : Blu-ray

  855. Text #25
  856. ID                                       : 46
  857. ID in the original source medium         : 4787 (0x12B3)
  858. Format                                   : PGS
  859. Muxing mode                              : zlib
  860. Codec ID                                 : S_HDMV/PGS
  861. Codec ID/Info                            : Picture based subtitle format used on BDs/HD-DVDs
  862. Duration                                 : 2 h 26 min
  863. Bit rate                                 : 39.1 kb/s
  864. Count of elements                        : 4146
  865. Stream size                              : 40.9 MiB (0%)
  866. Title                                    : Lithuanian-PGS
  867. Language                                 : Lithuanian
  868. Default                                  : No
  869. Forced                                   : No
  870. Original source medium                   : Blu-ray

  871. Text #26
  872. ID                                       : 47
  873. ID in the original source medium         : 4788 (0x12B4)
  874. Format                                   : PGS
  875. Muxing mode                              : zlib
  876. Codec ID                                 : S_HDMV/PGS
  877. Codec ID/Info                            : Picture based subtitle format used on BDs/HD-DVDs
  878. Duration                                 : 2 h 36 min
  879. Bit rate                                 : 25.2 kb/s
  880. Count of elements                        : 3383
  881. Stream size                              : 28.2 MiB (0%)
  882. Title                                    : Norwegian-PGS
  883. Language                                 : Norwegian
  884. Default                                  : No
  885. Forced                                   : No
  886. Original source medium                   : Blu-ray

  887. Text #27
  888. ID                                       : 48
  889. ID in the original source medium         : 4789 (0x12B5)
  890. Format                                   : PGS
  891. Muxing mode                              : zlib
  892. Codec ID                                 : S_HDMV/PGS
  893. Codec ID/Info                            : Picture based subtitle format used on BDs/HD-DVDs
  894. Duration                                 : 2 h 36 min
  895. Bit rate                                 : 29.0 kb/s
  896. Count of elements                        : 3651
  897. Stream size                              : 32.4 MiB (0%)
  898. Title                                    : Polish-PGS
  899. Language                                 : Polish
  900. Default                                  : No
  901. Forced                                   : No
  902. Original source medium                   : Blu-ray

  903. Text #28
  904. ID                                       : 49
  905. ID in the original source medium         : 4789 (0x12B5)
  906. Format                                   : PGS
  907. Muxing mode                              : zlib
  908. Codec ID                                 : S_HDMV/PGS
  909. Codec ID/Info                            : Picture based subtitle format used on BDs/HD-DVDs
  910. Duration                                 : 2 h 36 min
  911. Bit rate                                 : 162 b/s
  912. Count of elements                        : 18
  913. Stream size                              : 186 KiB (0%)
  914. Title                                    : Polish-FORCED-PGS
  915. Language                                 : Polish
  916. Default                                  : No
  917. Forced                                   : No
  918. Original source medium                   : Blu-ray

  919. Text #29
  920. ID                                       : 50
  921. ID in the original source medium         : 4790 (0x12B6)
  922. Format                                   : PGS
  923. Muxing mode                              : zlib
  924. Codec ID                                 : S_HDMV/PGS
  925. Codec ID/Info                            : Picture based subtitle format used on BDs/HD-DVDs
  926. Duration                                 : 2 h 36 min
  927. Bit rate                                 : 27.9 kb/s
  928. Count of elements                        : 3841
  929. Stream size                              : 31.2 MiB (0%)
  930. Title                                    : Portuguese-PGS
  931. Language                                 : Portuguese
  932. Default                                  : No
  933. Forced                                   : No
  934. Original source medium                   : Blu-ray

  935. Text #30
  936. ID                                       : 51
  937. ID in the original source medium         : 4790 (0x12B6)
  938. Format                                   : PGS
  939. Muxing mode                              : zlib
  940. Codec ID                                 : S_HDMV/PGS
  941. Codec ID/Info                            : Picture based subtitle format used on BDs/HD-DVDs
  942. Duration                                 : 2 h 36 min
  943. Bit rate                                 : 1 557 b/s
  944. Count of elements                        : 228
  945. Stream size                              : 1.74 MiB (0%)
  946. Title                                    : Portuguese-FORCED-PGS
  947. Language                                 : Portuguese
  948. Default                                  : No
  949. Forced                                   : No
  950. Original source medium                   : Blu-ray

  951. Text #31
  952. ID                                       : 52
  953. ID in the original source medium         : 4791 (0x12B7)
  954. Format                                   : PGS
  955. Muxing mode                              : zlib
  956. Codec ID                                 : S_HDMV/PGS
  957. Codec ID/Info                            : Picture based subtitle format used on BDs/HD-DVDs
  958. Duration                                 : 2 h 36 min
  959. Bit rate                                 : 33.2 kb/s
  960. Count of elements                        : 3877
  961. Stream size                              : 37.1 MiB (0%)
  962. Title                                    : Russian-PGS
  963. Language                                 : Russian
  964. Default                                  : No
  965. Forced                                   : No
  966. Original source medium                   : Blu-ray

  967. Text #32
  968. ID                                       : 53
  969. ID in the original source medium         : 4792 (0x12B8)
  970. Format                                   : PGS
  971. Muxing mode                              : zlib
  972. Codec ID                                 : S_HDMV/PGS
  973. Codec ID/Info                            : Picture based subtitle format used on BDs/HD-DVDs
  974. Duration                                 : 2 h 36 min
  975. Bit rate                                 : 27.9 kb/s
  976. Count of elements                        : 3921
  977. Stream size                              : 31.2 MiB (0%)
  978. Title                                    : Spanish-PGS
  979. Language                                 : Spanish
  980. Default                                  : No
  981. Forced                                   : No
  982. Original source medium                   : Blu-ray

  983. Text #33
  984. ID                                       : 54
  985. ID in the original source medium         : 4792 (0x12B8)
  986. Format                                   : PGS
  987. Muxing mode                              : zlib
  988. Codec ID                                 : S_HDMV/PGS
  989. Codec ID/Info                            : Picture based subtitle format used on BDs/HD-DVDs
  990. Duration                                 : 2 h 36 min
  991. Bit rate                                 : 1 482 b/s
  992. Count of elements                        : 236
  993. Stream size                              : 1.66 MiB (0%)
  994. Title                                    : Spanish-FORCED-PGS
  995. Language                                 : Spanish
  996. Default                                  : No
  997. Forced                                   : No
  998. Original source medium                   : Blu-ray

  999. Text #34
  1000. ID                                       : 55
  1001. ID in the original source medium         : 4793 (0x12B9)
  1002. Format                                   : PGS
  1003. Muxing mode                              : zlib
  1004. Codec ID                                 : S_HDMV/PGS
  1005. Codec ID/Info                            : Picture based subtitle format used on BDs/HD-DVDs
  1006. Duration                                 : 2 h 36 min
  1007. Bit rate                                 : 31.1 kb/s
  1008. Count of elements                        : 3801
  1009. Stream size                              : 34.8 MiB (0%)
  1010. Title                                    : Spanish-PGS
  1011. Language                                 : Spanish
  1012. Default                                  : No
  1013. Forced                                   : No
  1014. Original source medium                   : Blu-ray

  1015. Text #35
  1016. ID                                       : 56
  1017. ID in the original source medium         : 4793 (0x12B9)
  1018. Format                                   : PGS
  1019. Muxing mode                              : zlib
  1020. Codec ID                                 : S_HDMV/PGS
  1021. Codec ID/Info                            : Picture based subtitle format used on BDs/HD-DVDs
  1022. Duration                                 : 2 h 36 min
  1023. Bit rate                                 : 1 531 b/s
  1024. Count of elements                        : 198
  1025. Stream size                              : 1.71 MiB (0%)
  1026. Title                                    : Spanish-FORCED-PGS
  1027. Language                                 : Spanish
  1028. Default                                  : No
  1029. Forced                                   : No
  1030. Original source medium                   : Blu-ray

  1031. Text #36
  1032. ID                                       : 57
  1033. ID in the original source medium         : 4794 (0x12BA)
  1034. Format                                   : PGS
  1035. Muxing mode                              : zlib
  1036. Codec ID                                 : S_HDMV/PGS
  1037. Codec ID/Info                            : Picture based subtitle format used on BDs/HD-DVDs
  1038. Duration                                 : 2 h 36 min
  1039. Bit rate                                 : 27.8 kb/s
  1040. Count of elements                        : 2993
  1041. Stream size                              : 31.0 MiB (0%)
  1042. Title                                    : Swedish-PGS
  1043. Language                                 : Swedish
  1044. Default                                  : No
  1045. Forced                                   : No
  1046. Original source medium                   : Blu-ray

  1047. Text #37
  1048. ID                                       : 58
  1049. ID in the original source medium         : 4795 (0x12BB)
  1050. Format                                   : PGS
  1051. Muxing mode                              : zlib
  1052. Codec ID                                 : S_HDMV/PGS
  1053. Codec ID/Info                            : Picture based subtitle format used on BDs/HD-DVDs
  1054. Duration                                 : 2 h 36 min
  1055. Bit rate                                 : 27.7 kb/s
  1056. Count of elements                        : 3855
  1057. Stream size                              : 31.0 MiB (0%)
  1058. Title                                    : Thai-PGS
  1059. Language                                 : Thai
  1060. Default                                  : No
  1061. Forced                                   : No
  1062. Original source medium                   : Blu-ray

  1063. Text #38
  1064. ID                                       : 59
  1065. ID in the original source medium         : 4795 (0x12BB)
  1066. Format                                   : PGS
  1067. Muxing mode                              : zlib
  1068. Codec ID                                 : S_HDMV/PGS
  1069. Codec ID/Info                            : Picture based subtitle format used on BDs/HD-DVDs
  1070. Duration                                 : 2 h 36 min
  1071. Bit rate                                 : 149 b/s
  1072. Count of elements                        : 18
  1073. Stream size                              : 172 KiB (0%)
  1074. Title                                    : Thai-FORCED-PGS
  1075. Language                                 : Thai
  1076. Default                                  : No
  1077. Forced                                   : No
  1078. Original source medium                   : Blu-ray

  1079. Text #39
  1080. ID                                       : 60
  1081. ID in the original source medium         : 4796 (0x12BC)
  1082. Format                                   : PGS
  1083. Muxing mode                              : zlib
  1084. Codec ID                                 : S_HDMV/PGS
  1085. Codec ID/Info                            : Picture based subtitle format used on BDs/HD-DVDs
  1086. Duration                                 : 2 h 26 min
  1087. Bit rate                                 : 35.8 kb/s
  1088. Count of elements                        : 3823
  1089. Stream size                              : 37.5 MiB (0%)
  1090. Title                                    : Turkish-PGS
  1091. Language                                 : Turkish
  1092. Default                                  : No
  1093. Forced                                   : No
  1094. Original source medium                   : Blu-ray

  1095. Text #40
  1096. ID                                       : 61
  1097. ID in the original source medium         : 4797 (0x12BD)
  1098. Format                                   : PGS
  1099. Muxing mode                              : zlib
  1100. Codec ID                                 : S_HDMV/PGS
  1101. Codec ID/Info                            : Picture based subtitle format used on BDs/HD-DVDs
  1102. Duration                                 : 2 h 21 min
  1103. Bit rate                                 : 1 556 b/s
  1104. Count of elements                        : 212
  1105. Stream size                              : 1.58 MiB (0%)
  1106. Title                                    : Catalan-FORCED-PGS
  1107. Language                                 : Catalan
  1108. Default                                  : No
  1109. Forced                                   : No
  1110. Original source medium                   : Blu-ray

  1111. Text #41
  1112. ID                                       : 62
  1113. ID in the original source medium         : 4797 (0x12BD)
  1114. Format                                   : PGS
  1115. Muxing mode                              : zlib
  1116. Codec ID                                 : S_HDMV/PGS
  1117. Codec ID/Info                            : Picture based subtitle format used on BDs/HD-DVDs
  1118. Duration                                 : 2 h 21 min
  1119. Bit rate                                 : 1 556 b/s
  1120. Count of elements                        : 212
  1121. Stream size                              : 1.58 MiB (0%)
  1122. Title                                    : Catalan-FORCED-PGS
  1123. Language                                 : Catalan
  1124. Default                                  : No
  1125. Forced                                   : No
  1126. Original source medium                   : Blu-ray

  1127. Text #42
  1128. ID                                       : 63
  1129. ID in the original source medium         : 4798 (0x12BE)
  1130. Format                                   : PGS
  1131. Muxing mode                              : zlib
  1132. Codec ID                                 : S_HDMV/PGS
  1133. Codec ID/Info                            : Picture based subtitle format used on BDs/HD-DVDs
  1134. Duration                                 : 2 h 21 min
  1135. Bit rate                                 : 1 106 b/s
  1136. Count of elements                        : 158
  1137. Stream size                              : 1.12 MiB (0%)
  1138. Title                                    : French-FORCED-PGS
  1139. Language                                 : French
  1140. Default                                  : No
  1141. Forced                                   : No
  1142. Original source medium                   : Blu-ray

  1143. Text #43
  1144. ID                                       : 64
  1145. ID in the original source medium         : 4798 (0x12BE)
  1146. Format                                   : PGS
  1147. Muxing mode                              : zlib
  1148. Codec ID                                 : S_HDMV/PGS
  1149. Codec ID/Info                            : Picture based subtitle format used on BDs/HD-DVDs
  1150. Duration                                 : 2 h 21 min
  1151. Bit rate                                 : 1 106 b/s
  1152. Count of elements                        : 158
  1153. Stream size                              : 1.12 MiB (0%)
  1154. Title                                    : French-FORCED-PGS
  1155. Language                                 : French
  1156. Default                                  : No
  1157. Forced                                   : No
  1158. Original source medium                   : Blu-ray

  1159. Text #44
  1160. ID                                       : 65
  1161. ID in the original source medium         : 4799 (0x12BF)
  1162. Format                                   : PGS
  1163. Muxing mode                              : zlib
  1164. Codec ID                                 : S_HDMV/PGS
  1165. Codec ID/Info                            : Picture based subtitle format used on BDs/HD-DVDs
  1166. Duration                                 : 2 h 35 min
  1167. Bit rate                                 : 1 983 b/s
  1168. Count of elements                        : 262
  1169. Stream size                              : 2.21 MiB (0%)
  1170. Title                                    : Japanese-FORCED-PGS
  1171. Language                                 : Japanese
  1172. Default                                  : No
  1173. Forced                                   : No
  1174. Original source medium                   : Blu-ray

  1175. Menu
  1176. 00:00:00.000                             : en:Chapter 01
  1177. 00:11:55.631                             : en:Chapter 02
  1178. 00:21:59.192                             : en:Chapter 03
  1179. 00:28:48.560                             : en:Chapter 04
  1180. 00:34:38.993                             : en:Chapter 05
  1181. 00:44:49.103                             : en:Chapter 06
  1182. 00:55:27.615                             : en:Chapter 07
  1183. 01:05:10.364                             : en:Chapter 08
  1184. 01:16:26.248                             : en:Chapter 09
  1185. 01:25:03.473                             : en:Chapter 10
  1186. 01:36:35.998                             : en:Chapter 11
  1187. 01:46:48.026                             : en:Chapter 12
  1188. 01:56:50.378                             : en:Chapter 13
  1189. 02:04:53.819                             : en:Chapter 14
  1190. 02:16:40.734                             : en:Chapter 15
  1191. 02:23:22.969                             : en:Chapter 16
复制代码



                                       
                                       

                                       
                                       
                                       




回复

使用道具 举报

懒得打字嘛,点击右侧快捷回复 【右侧内容,后台自定义】
您需要登录后才可以回帖 登录 | 立即加入

本版积分规则

Archiver|小黑屋| 蓝光电影网 |网站地图

Copyright © 2021 Comsenz Inc. Powered by 蓝光电影网

蓝光电影网

本站内容由用户自主分享和转载自互联网,转载目的在于传递更多信息,并不代表本网赞同其观点和对其真实性负责。

如有侵权、违反国家法律政策行为,请联系我们,我们会第一时间及时清除和处理!

举报反馈邮箱:[email protected]

快速回复 返回顶部 返回列表