找回密码

蓝光电影网

查看: 174|回复: 0

[UHD.HEVC] 为所应为/不作亏心事 Do.the.Right.Thing.1989.2160p.BluRay.REMUX.HEVC.DTS-X.7.1-FGT 71.64GB

[复制链接]
蓝光币
1080
发表于 2021-2-1 15:47:37 | 显示全部楼层 |阅读模式


◎译  名 为所应为/不作亏苦衷(港)/不做错事/循规蹈矩
◎片  名 Do the Right Thing
◎年  代 1989
◎产  地 美国
◎类  别 剧情 / 笑剧
◎语  言 英语,意大利语,西班牙语
◎上映日期 1989-05-19(戛纳电影节) / 1989-06-14(法国)
◎IMDb评分  8/10 from 89395 users
◎IMDb链接  https://www.imdb.com/title/tt0097216/
◎豆瓣评分 8.1/10 from 10261 users
◎豆瓣链接 https://movie.douban.com/subject/1293958/
◎片  长 120 分钟
◎导  演 斯派克·李 Spike Lee
◎编  剧 斯派克·李 Spike Lee
◎主  演 丹尼·爱罗 Danny Aiello
       奥西·戴维斯 Ossie Davis
       露比·迪 Ruby Dee
       理查德·埃德森 Richard Edson
       吉安卡罗·埃斯波西托 Giancarlo Esposito
       斯派克·李 Spike Lee
       比尔·努恩 Bill Nunn
       约翰·特托罗 John Turturro
       保罗·本杰明 Paul Benjamin
       弗兰基·费森 Frankie Faison
       罗宾·哈里斯 Robin Harris
       茹瓦·李 Joie Lee
       米盖尔·桑多瓦尔 Miguel Sandoval
       里克·埃罗 Rick Aiello
       约翰·萨维奇 John Savage
       塞缪尔·杰克逊 Samuel L. Jackson
       罗茜·佩雷兹 Rosie Perez
       罗杰·格午埃文·史姑娘 Roger Guenveur Smith
       史蒂夫·怀特 Steve White
       马丁·劳伦斯 Martin Lawrence
       伦纳德·L·托马斯 Leonard L. Thomas
       弗兰克·文森特 Frank Vincent
       理查德·哈伯森 Richard Habersham
       斯蒂夫·朴 Steve Park
       金妮·杨 Ginny Yang
       肖恩·埃利奥特 Shawn Elliott
       埃里克·德拉姆斯 Erik Dellums
       加里·帕斯托雷 Garry Pastore
       尼古拉斯·特图罗 Nicholas Turturro
       路易斯·安东尼奥·拉莫斯 Luis Antonio Ramos
◎标  签 美国 | 种族 | 1989 | 剧情 | 黑人 | 自力电影 | 1980s | 笑剧
◎简  介


  纽约布鲁克林黑人社区生在世各个族群的人:黑人、意大利移民、韩国人.....意大利移民Sal(丹尼·爱罗 Danny Aiello 饰)和他的两个儿子在这里经营一家比萨店很久了,Mookie(斯派克·李 Spike Lee 饰)在店里负责送外卖,经常和Sal的儿子闹冲突。 Radio Raheem(Bill Nunn 饰)是一个喜好提着一个收音机高声放着音乐处处走的年轻人。酷热的一天,黑人小伙Buggin' Out(吉安卡罗·埃斯波西托 Giancarlo Esposito 饰)发现比萨店墙上挂着的名流照片里没有一个黑人,非常不满;而Radio来到比萨店,却被Sal要求关掉收音机。心胸不满的Buggin' Out和Radio决议找Sal讨个说法,三人在争论中,Sal把Radio的收音机砸烂了。Radio盛怒,便和Sal打了起来。差人赶来了,围观的人也越来越多,一场种族间的暴乱行将到来......
  
  本片被提名62届奥斯卡最好男配角、最好改编剧本,本片的成功使黑人导演斯派克李在好莱坞大放异彩。
◎获奖情况
  第62届奥斯卡金像奖 ?(1990)
  最好男配角(提名) 丹尼·爱罗
  最好原创剧本(提名) 斯派克·李
  
  第42届戛纳电影节 ?(1989)
  主比赛单元金棕榈奖(提名) 斯派克·李
  1. Video
  2. ID                                       : 1
  3. ID in the original source medium         : 4113 (0x1011)
  4. Format                                   : HEVC
  5. Format/Info                              : High Efficiency Video Coding
  6. Format profile                           : Main [email protected]@High
  7. HDR format                               : SMPTE ST 2086, HDR10 compatible
  8. Codec ID                                 : V_MPEGH/ISO/HEVC
  9. Duration                                 : 1 h 59 min
  10. Bit rate                                 : 77.7 Mb/s
  11. Width                                    : 3 840 pixels
  12. Height                                   : 2 160 pixels
  13. Display aspect ratio                     : 16:9
  14. Frame rate mode                          : Constant
  15. Frame rate                               : 23.976 (24000/1001/189150) FPS
  16. Color space                              : YUV
  17. Chroma subsampling                       : 4:2:0 (Type 2)
  18. Bit depth                                : 10 bits
  19. Bits/(Pixel*Frame)                       : 0.391
  20. Stream size                              : 65.0 GiB (91%)
  21. Language                                 : English
  22. Default                                  : No
  23. Forced                                   : No
  24. Color range                              : Limited
  25. Color primaries                          : BT.2020
  26. Transfer characteristics                 : PQ
  27. Matrix coefficients                      : BT.2020 non-constant
  28. Mastering display color primaries        : Display P3
  29. Mastering display luminance              : min: 0.0050 cd/m2, max: 1000 cd/m2
  30. Maximum Content Light Level              : 628 cd/m2
  31. Maximum Frame-Average Light Level        : 104 cd/m2
  32. Original source medium                   : Blu-ray

  33. Audio #1
  34. ID                                       : 2
  35. ID in the original source medium         : 4352 (0x1100)
  36. Format                                   : DTS XLL X
  37. Format/Info                              : Digital Theater Systems
  38. Commercial name                          : DTS-HD Master Audio
  39. Codec ID                                 : A_DTS
  40. Duration                                 : 1 h 59 min
  41. Bit rate mode                            : Variable
  42. Bit rate                                 : 5 330 kb/s
  43. Channel(s)                               : 8 channels
  44. Channel(s)_Original                      : Object Based
  45. ChannelLayout_Original                   : Object Based
  46. Sampling rate                            : 48.0 kHz
  47. Frame rate                               : 93.750 FPS (512 SPF)
  48. Bit depth                                : 24 bits
  49. Stream size                              : 4.46 GiB (6%)
  50. Title                                    : DTS-X 7.1
  51. Language                                 : English
  52. Default                                  : Yes
  53. Forced                                   : No
  54. Original source medium                   : Blu-ray

  55. Audio #2
  56. ID                                       : 3
  57. Format                                   : AC-3
  58. Format/Info                              : Audio Coding 3
  59. Commercial name                          : Dolby Digital
  60. Codec ID                                 : A_AC3
  61. Duration                                 : 1 h 59 min
  62. Bit rate mode                            : Constant
  63. Bit rate                                 : 640 kb/s
  64. Channel(s)                               : 6 channels
  65. Channel layout                           : L R C LFE Ls Rs
  66. Sampling rate                            : 48.0 kHz
  67. Frame rate                               : 31.250 FPS (1536 SPF)
  68. Compression mode                         : Lossy
  69. Stream size                              : 548 MiB (1%)
  70. Title                                    : DD 5.1
  71. Language                                 : English
  72. Service kind                             : Complete Main
  73. Default                                  : No
  74. Forced                                   : No

  75. Audio #3
  76. ID                                       : 4
  77. ID in the original source medium         : 4353 (0x1101)
  78. Format                                   : DTS
  79. Format/Info                              : Digital Theater Systems
  80. Codec ID                                 : A_DTS
  81. Duration                                 : 1 h 59 min
  82. Bit rate mode                            : Constant
  83. Bit rate                                 : 768 kb/s
  84. Channel(s)                               : 6 channels
  85. Channel layout                           : C L R Ls Rs LFE
  86. Sampling rate                            : 48.0 kHz
  87. Frame rate                               : 93.750 FPS (512 SPF)
  88. Bit depth                                : 24 bits
  89. Compression mode                         : Lossy
  90. Stream size                              : 658 MiB (1%)
  91. Title                                    : DTS 5.1
  92. Language                                 : Spanish
  93. Default                                  : No
  94. Forced                                   : No
  95. Original source medium                   : Blu-ray

  96. Audio #4
  97. ID                                       : 5
  98. ID in the original source medium         : 4354 (0x1102)
  99. Format                                   : DTS
  100. Format/Info                              : Digital Theater Systems
  101. Codec ID                                 : A_DTS
  102. Duration                                 : 1 h 59 min
  103. Bit rate mode                            : Constant
  104. Bit rate                                 : 768 kb/s
  105. Channel(s)                               : 6 channels
  106. Channel layout                           : C L R Ls Rs LFE
  107. Sampling rate                            : 48.0 kHz
  108. Frame rate                               : 93.750 FPS (512 SPF)
  109. Bit depth                                : 24 bits
  110. Compression mode                         : Lossy
  111. Stream size                              : 658 MiB (1%)
  112. Title                                    : DTS 5.1
  113. Language                                 : French
  114. Default                                  : No
  115. Forced                                   : No
  116. Original source medium                   : Blu-ray

  117. Audio #5
  118. ID                                       : 6
  119. ID in the original source medium         : 4355 (0x1103)
  120. Format                                   : AC-3
  121. Format/Info                              : Audio Coding 3
  122. Commercial name                          : Dolby Digital
  123. Codec ID                                 : A_AC3
  124. Duration                                 : 1 h 59 min
  125. Bit rate mode                            : Constant
  126. Bit rate                                 : 192 kb/s
  127. Channel(s)                               : 2 channels
  128. Channel layout                           : L R
  129. Sampling rate                            : 48.0 kHz
  130. Frame rate                               : 31.250 FPS (1536 SPF)
  131. Compression mode                         : Lossy
  132. Stream size                              : 165 MiB (0%)
  133. Title                                    : DD 2.0
  134. Language                                 : English
  135. Service kind                             : Complete Main
  136. Default                                  : No
  137. Forced                                   : No
  138. Original source medium                   : Blu-ray

  139. Audio #6
  140. ID                                       : 7
  141. ID in the original source medium         : 4356 (0x1104)
  142. Format                                   : AC-3
  143. Format/Info                              : Audio Coding 3
  144. Commercial name                          : Dolby Digital
  145. Codec ID                                 : A_AC3
  146. Duration                                 : 1 h 59 min
  147. Bit rate mode                            : Constant
  148. Bit rate                                 : 192 kb/s
  149. Channel(s)                               : 2 channels
  150. Channel layout                           : L R
  151. Sampling rate                            : 48.0 kHz
  152. Frame rate                               : 31.250 FPS (1536 SPF)
  153. Compression mode                         : Lossy
  154. Stream size                              : 165 MiB (0%)
  155. Title                                    : DD 2.0
  156. Language                                 : English
  157. Service kind                             : Complete Main
  158. Default                                  : No
  159. Forced                                   : No
  160. Original source medium                   : Blu-ray

  161. Text #1
  162. ID                                       : 8
  163. Format                                   : UTF-8
  164. Codec ID                                 : S_TEXT/UTF8
  165. Codec ID/Info                            : UTF-8 Plain Text
  166. Duration                                 : 1 h 49 min
  167. Bit rate                                 : 87 b/s
  168. Count of elements                        : 2000
  169. Stream size                              : 69.8 KiB (0%)
  170. Title                                    : English-SRT
  171. Language                                 : English
  172. Default                                  : Yes
  173. Forced                                   : No

  174. Text #2
  175. ID                                       : 9
  176. ID in the original source medium         : 4768 (0x12A0)
  177. Format                                   : PGS
  178. Muxing mode                              : zlib
  179. Codec ID                                 : S_HDMV/PGS
  180. Codec ID/Info                            : Picture based subtitle format used on BDs/HD-DVDs
  181. Duration                                 : 1 h 53 min
  182. Bit rate                                 : 59.2 kb/s
  183. Count of elements                        : 4240
  184. Stream size                              : 48.2 MiB (0%)
  185. Title                                    : English-PGS
  186. Language                                 : English
  187. Default                                  : No
  188. Forced                                   : No
  189. Original source medium                   : Blu-ray

  190. Text #3
  191. ID                                       : 10
  192. ID in the original source medium         : 4769 (0x12A1)
  193. Format                                   : PGS
  194. Muxing mode                              : zlib
  195. Codec ID                                 : S_HDMV/PGS
  196. Codec ID/Info                            : Picture based subtitle format used on BDs/HD-DVDs
  197. Duration                                 : 1 h 49 min
  198. Bit rate                                 : 48.0 kb/s
  199. Count of elements                        : 3374
  200. Stream size                              : 37.5 MiB (0%)
  201. Title                                    : Spanish-PGS
  202. Language                                 : Spanish
  203. Default                                  : No
  204. Forced                                   : No
  205. Original source medium                   : Blu-ray

  206. Text #4
  207. ID                                       : 11
  208. ID in the original source medium         : 4770 (0x12A2)
  209. Format                                   : PGS
  210. Muxing mode                              : zlib
  211. Codec ID                                 : S_HDMV/PGS
  212. Codec ID/Info                            : Picture based subtitle format used on BDs/HD-DVDs
  213. Duration                                 : 1 h 49 min
  214. Bit rate                                 : 50.5 kb/s
  215. Count of elements                        : 3346
  216. Stream size                              : 39.5 MiB (0%)
  217. Title                                    : French-PGS
  218. Language                                 : French
  219. Default                                  : No
  220. Forced                                   : No
  221. Original source medium                   : Blu-ray

  222. Text #5
  223. ID                                       : 12
  224. ID in the original source medium         : 4771 (0x12A3)
  225. Format                                   : PGS
  226. Muxing mode                              : zlib
  227. Codec ID                                 : S_HDMV/PGS
  228. Codec ID/Info                            : Picture based subtitle format used on BDs/HD-DVDs
  229. Duration                                 : 1 h 33 min
  230. Bit rate                                 : 1 291 b/s
  231. Count of elements                        : 62
  232. Stream size                              : 887 KiB (0%)
  233. Title                                    : Spanish-FORCED-PGS
  234. Language                                 : Spanish
  235. Default                                  : No
  236. Forced                                   : No
  237. Original source medium                   : Blu-ray

  238. Text #6
  239. ID                                       : 13
  240. ID in the original source medium         : 4772 (0x12A4)
  241. Format                                   : PGS
  242. Muxing mode                              : zlib
  243. Codec ID                                 : S_HDMV/PGS
  244. Codec ID/Info                            : Picture based subtitle format used on BDs/HD-DVDs
  245. Duration                                 : 1 h 33 min
  246. Bit rate                                 : 1 401 b/s
  247. Count of elements                        : 58
  248. Stream size                              : 964 KiB (0%)
  249. Title                                    : French-FORCED-PGS
  250. Language                                 : French
  251. Default                                  : No
  252. Forced                                   : No
  253. Original source medium                   : Blu-ray

  254. Menu
  255. 00:00:00.000                             : en:Chapter 01
  256. 00:04:21.928                             : en:Chapter 02
  257. 00:18:24.228                             : en:Chapter 03
  258. 00:24:51.615                             : en:Chapter 04
  259. 00:30:15.939                             : en:Chapter 05
  260. 00:36:28.102                             : en:Chapter 06
  261. 00:44:14.151                             : en:Chapter 07
  262. 00:49:56.743                             : en:Chapter 08
  263. 00:57:36.202                             : en:Chapter 09
  264. 01:05:17.663                             : en:Chapter 10
  265. 01:17:58.382                             : en:Chapter 11
  266. 01:23:32.507                             : en:Chapter 12
  267. 01:28:06.656                             : en:Chapter 13
  268. 01:36:23.360                             : en:Chapter 14
  269. 01:44:38.230                             : en:Chapter 15
  270. 01:51:59.421                             : en:Chapter 16
复制代码



                                       
                                       

                                       
                                       
                                       




回复

使用道具 举报

懒得打字嘛,点击右侧快捷回复 【右侧内容,后台自定义】
您需要登录后才可以回帖 登录 | 立即加入

本版积分规则

Archiver|小黑屋| 蓝光电影网 |网站地图

Copyright © 2021 Comsenz Inc. Powered by 蓝光电影网

蓝光电影网

本站内容由用户自主分享和转载自互联网,转载目的在于传递更多信息,并不代表本网赞同其观点和对其真实性负责。

如有侵权、违反国家法律政策行为,请联系我们,我们会第一时间及时清除和处理!

举报反馈邮箱:[email protected]

快速回复 返回顶部 返回列表