找回密码

蓝光电影网

查看: 104|回复: 0

[2160p] 斯巴达300勇士/300壮士:斯巴达的逆袭 300.2006.2160p.BluRay.x264.8bit.SDR.DTS-HD.MA.TrueHD.7.1.Atmos-SWTYBLZ 50.23GB

[复制链接]
蓝光币
1080
发表于 2020-10-5 18:13:10 | 显示全部楼层 |阅读模式


◎译  名 斯巴达300勇士/300勇士:斯巴达的逆袭(台)/300斯巴达勇士/三百勇士/战狼300(港)
◎片  名 300
◎年  代 2006
◎产  地 美国
◎类  别 行动 / 历史 / 战争
◎语  言 英语
◎上映日期 2006-12-09(BNAT电影节) / 2007-03-09(美国)
◎IMDb评分  7.6/10 from 724087 users
◎IMDb链接  https://www.imdb.com/title/tt0416449/
◎豆瓣评分 7.8/10 from 133045 users
◎豆瓣链接 https://movie.douban.com/subject/1853176/
◎片  长 117分钟
◎导  演 扎克·施奈德 Zack Snyder
◎编  剧 扎克·施奈德 Zack Snyder / 库尔特·约恩斯塔德 Kurt Johnstad / 迈克尔·高顿 Michael Gordon / 弗兰克·米勒 Frank Miller
◎主  演 杰拉德·巴特勒 Gerard Butler
       琳娜·海蒂 Lena Headey
       多米尼克·韦斯特 Dominic West
       大卫·文翰 David Wenham
       文森特·里根 Vincent Regan
       迈克尔·法斯宾德 Michael Fassbender
       汤姆·威斯多姆 Tom Wisdom
       安德鲁·普利文 Andrew Pleavin
       安德鲁·蒂曼 Andrew Tiernan
       罗德里戈·桑托罗 Rodrigo Santoro
       凯利·克雷格 Kelly Craig
       泰勒·内策尔 Tyler Neitzel
       提姆·康纳利 Tim Connolly
       玛丽·朱莉叶·里夫斯特 Marie-Julie Rivest
       彼得·门萨 Peter Mensah
       亚瑟·霍尔顿 Arthur Holden
       丹尼斯·圣约翰 Dennis St John
       尼尔·纳皮尔 Neil Napier
       戴兰·史姑娘 Dylan Smith
       毛里齐奥·泰拉扎诺 Maurizio Terrazzano
       夸西·宋桂 Kwasi Songui
       安德鲁·舍夫 Andrew Shaver
       罗宾·威尔科克 Robin Wilcock
       蒂龙·本斯金 Tyrone Benskin
       罗伯特·梅耶 Robert Maillet
       帕特里克·萨邦圭 Patrick Sabongui
       加里·A·赫克 Gary A. Hecker
       达伦·萨赫拉维 Darren Shahlavi
       马克·托蒂尔 Marc Trottier
       阿格涅丝卡·乌诺洛斯卡 Agnieshka Wnorowska
       Alex Ivanovici
       迈克尔·西奈尔尼科夫 Michael Sinelnikoff
       Amélie Sorel
       Atif Y. Siddiqi
       史蒂芬·麦克哈蒂 Stephen McHattie
       Elisabeth Etienne
◎标  签 战争 | 史诗 | 美国 | 行动 | 历史 | 暴力 | 典范 | 暴力美学
◎简  介


  这部电影描写了人类史上最残暴的战争之一:温泉关之战。公元前480年,波斯国王薛西斯一世(罗德里格?桑托罗 Rodrigo Santoro 饰)亲率30万雄师交战希腊。希腊各个城邦敏捷派出军队结成了联军,预备抵抗波斯军队的入侵。
  
  防线的最火线设在希腊的温泉关,此处由斯巴达 城的国王列奥尼达(杰拉德?巴特勒 Gerard Butler 饰)率领本城300精兵和联军4000余人镇守。由于叛徒的出售,希腊军队被波斯军队抄到了死后构成围歼之势。列奥尼达为了保存联军气力,让联军首先退却,自己率领300精兵死守温泉关断后。
  
  数以十万波斯雄师浩浩汤汤蜂拥而至,自知必死的斯巴达兵士反而士气高涨,在战役中爆发出惊人的战力。全部战争整整延续了2天,最初列奥尼达和他的300精兵全数阵亡,而波斯军队则损失了20000多兵士,薛西斯一世的两个兄弟也在此役中战死……
◎获奖情况
  第16届MTV电影奖 ?(2007)
  MTV电影奖年度电影(提名)
  MTV电影奖最好表演(提名) 杰拉德·巴特勒
  MTV电影奖冲破表演奖(提名) 琳娜·海蒂
  MTV电影奖最好打架 杰拉德·巴特勒
  MTV电影奖最好反派(提名) 罗德里戈·桑托罗
  1. Video
  2. ID                                       : 1
  3. Format                                   : AVC
  4. Format/Info                              : Advanced Video Codec
  5. Format profile                           : [email protected]
  6. Format settings                          : CABAC / 5 Ref Frames
  7. Format settings, CABAC                   : Yes
  8. Format settings, Reference frames        : 5 frames
  9. Codec ID                                 : V_MPEG4/ISO/AVC
  10. Duration                                 : 1 h 56 min
  11. Bit rate                                 : 53.1 Mb/s
  12. Width                                    : 3 840 pixels
  13. Height                                   : 1 600 pixels
  14. Display aspect ratio                     : 2.40:1
  15. Frame rate mode                          : Constant
  16. Frame rate                               : 23.976 (24000/1001/189150) FPS
  17. Color space                              : YUV
  18. Chroma subsampling                       : 4:2:0
  19. Bit depth                                : 8 bits
  20. Scan type                                : Progressive
  21. Bits/(Pixel*Frame)                       : 0.360
  22. Stream size                              : 43.3 GiB (87%)
  23. Title                                    : 300.2006.2160p.BluRay.x264.8bit.SDR.DTS-HD.MA.TrueHD.7.1.Atmos-SWTYBLZ
  24. Writing library                          : x264 core 157 r2935 545de2f
  25. Encoding settings                        : cabac=1 / ref=5 / deblock=1:-1:-1 / analyse=0x3:0x113 / me=umh / subme=10 / psy=1 / psy_rd=1.00:0.15 / mixed_ref=1 / me_range=48 / chroma_me=1 / trellis=2 / 8x8dct=1 / cqm=0 / deadzone=21,11 / fast_pskip=1 / chroma_qp_offset=-3 / threads=48 / lookahead_threads=4 / sliced_threads=0 / nr=0 / decimate=0 / interlaced=0 / bluray_compat=0 / constrained_intra=0 / bframes=3 / b_pyramid=2 / b_adapt=2 / b_bias=0 / direct=3 / weightb=1 / open_gop=0 / weightp=2 / keyint=250 / keyint_min=23 / scenecut=40 / intra_refresh=0 / rc_lookahead=50 / rc=crf / mbtree=1 / crf=20.0 / qcomp=0.60 / qpmin=0 / qpmax=69 / qpstep=4 / ip_ratio=1.40 / aq=1:1.00
  26. Default                                  : Yes
  27. Forced                                   : No
  28. Audio #1
  29. ID                                       : 2
  30. Format                                   : MLP FBA 16-ch
  31. Format/Info                              : Meridian Lossless Packing FBA with 16-channel presentation
  32. Commercial name                          : Dolby TrueHD with Dolby Atmos
  33. Codec ID                                 : A_TRUEHD
  34. Duration                                 : 1 h 56 min
  35. Bit rate mode                            : Variable
  36. Bit rate                                 : 3 343 kb/s
  37. Maximum bit rate                         : 5 451 kb/s
  38. Channel(s)                               : 8 channels
  39. Channel layout                           : L R C LFE Ls Rs Lb Rb
  40. Sampling rate                            : 48.0 kHz
  41. Frame rate                               : 1 200.000 FPS (40 SPF)
  42. Compression mode                         : Lossless
  43. Stream size                              : 2.72 GiB (5%)
  44. Title                                    : 300.2006.2160p.BluRay.x264.8bit.SDR.DTS-HD.MA.TrueHD.7.1.Atmos-SWTYBLZ
  45. Language                                 : English
  46. Default                                  : Yes
  47. Forced                                   : No
  48. Number of dynamic objects                : 11
  49. Bed channel count                        : 1 channel
  50. Bed channel configuration                : LFE
  51. Audio #2
  52. ID                                       : 3
  53. Format                                   : DTS XLL
  54. Format/Info                              : Digital Theater Systems
  55. Commercial name                          : DTS-HD Master Audio
  56. Codec ID                                 : A_DTS
  57. Duration                                 : 1 h 56 min
  58. Bit rate mode                            : Variable
  59. Bit rate                                 : 3 932 kb/s
  60. Channel(s)                               : 8 channels
  61. Channel layout                           : C L R LFE Lb Rb Lss Rss
  62. Sampling rate                            : 48.0 kHz
  63. Frame rate                               : 93.750 FPS (512 SPF)
  64. Bit depth                                : 24 bits
  65. Compression mode                         : Lossless
  66. Stream size                              : 3.20 GiB (6%)
  67. Title                                    : 300.2006.2160p.BluRay.x264.8bit.SDR.DTS-HD.MA.TrueHD.7.1.Atmos-SWTYBLZ
  68. Language                                 : English
  69. Default                                  : No
  70. Forced                                   : No
  71. Audio #3
  72. ID                                       : 4
  73. Format                                   : AC-3
  74. Format/Info                              : Audio Coding 3
  75. Commercial name                          : Dolby Digital
  76. Codec ID                                 : A_AC3
  77. Duration                                 : 1 h 56 min
  78. Bit rate mode                            : Constant
  79. Bit rate                                 : 448 kb/s
  80. Channel(s)                               : 6 channels
  81. Channel layout                           : L R C LFE Ls Rs
  82. Sampling rate                            : 48.0 kHz
  83. Frame rate                               : 31.250 FPS (1536 SPF)
  84. Compression mode                         : Lossy
  85. Stream size                              : 374 MiB (1%)
  86. Title                                    : 300.2006.2160p.BluRay.x264.8bit.SDR.DTS-HD.MA.TrueHD.7.1.Atmos-SWTYBLZ
  87. Language                                 : English
  88. Service kind                             : Complete Main
  89. Default                                  : No
  90. Forced                                   : No
  91. Text #1
  92. ID                                       : 5
  93. Format                                   : UTF-8
  94. Codec ID                                 : S_TEXT/UTF8
  95. Codec ID/Info                            : UTF-8 Plain Text
  96. Duration                                 : 1 h 47 min
  97. Bit rate                                 : 39 b/s
  98. Count of elements                        : 952
  99. Stream size                              : 31.1 KiB (0%)
  100. Title                                    : English-SRT
  101. Language                                 : English
  102. Default                                  : Yes
  103. Forced                                   : No
  104. Text #2
  105. ID                                       : 6
  106. Format                                   : PGS
  107. Muxing mode                              : zlib
  108. Codec ID                                 : S_HDMV/PGS
  109. Codec ID/Info                            : Picture based subtitle format used on BDs/HD-DVDs
  110. Duration                                 : 1 h 55 min
  111. Bit rate                                 : 20.5 kb/s
  112. Count of elements                        : 1914
  113. Stream size                              : 16.9 MiB (0%)
  114. Title                                    : English-PGS
  115. Language                                 : English
  116. Default                                  : No
  117. Forced                                   : No
  118. Text #3
  119. ID                                       : 7
  120. Format                                   : PGS
  121. Muxing mode                              : zlib
  122. Codec ID                                 : S_HDMV/PGS
  123. Codec ID/Info                            : Picture based subtitle format used on BDs/HD-DVDs
  124. Duration                                 : 1 h 48 min
  125. Bit rate                                 : 24.5 kb/s
  126. Count of elements                        : 2106
  127. Stream size                              : 19.0 MiB (0%)
  128. Title                                    : English-SDH-PGS
  129. Language                                 : English
  130. Default                                  : No
  131. Forced                                   : No
  132. Text #4
  133. ID                                       : 8
  134. Format                                   : PGS
  135. Muxing mode                              : zlib
  136. Codec ID                                 : S_HDMV/PGS
  137. Codec ID/Info                            : Picture based subtitle format used on BDs/HD-DVDs
  138. Duration                                 : 1 h 55 min
  139. Bit rate                                 : 10.7 kb/s
  140. Count of elements                        : 1652
  141. Stream size                              : 8.85 MiB (0%)
  142. Title                                    : Arabic-PGS
  143. Language                                 : Arabic
  144. Default                                  : No
  145. Forced                                   : No
  146. Text #5
  147. ID                                       : 9
  148. Format                                   : PGS
  149. Muxing mode                              : zlib
  150. Codec ID                                 : S_HDMV/PGS
  151. Codec ID/Info                            : Picture based subtitle format used on BDs/HD-DVDs
  152. Duration                                 : 1 h 55 min
  153. Bit rate                                 : 21.3 kb/s
  154. Count of elements                        : 1916
  155. Stream size                              : 17.6 MiB (0%)
  156. Title                                    : Bulgarian-PGS
  157. Language                                 : Bulgarian
  158. Default                                  : No
  159. Forced                                   : No
  160. Text #6
  161. ID                                       : 10
  162. Format                                   : PGS
  163. Muxing mode                              : zlib
  164. Codec ID                                 : S_HDMV/PGS
  165. Codec ID/Info                            : Picture based subtitle format used on BDs/HD-DVDs
  166. Duration                                 : 1 h 49 min
  167. Bit rate                                 : 20.8 kb/s
  168. Count of elements                        : 1932
  169. Stream size                              : 16.3 MiB (0%)
  170. Title                                    : Chinese-PGS
  171. Language                                 : Chinese
  172. Default                                  : No
  173. Forced                                   : No
  174. Text #7
  175. ID                                       : 11
  176. Format                                   : PGS
  177. Muxing mode                              : zlib
  178. Codec ID                                 : S_HDMV/PGS
  179. Codec ID/Info                            : Picture based subtitle format used on BDs/HD-DVDs
  180. Duration                                 : 1 h 55 min
  181. Bit rate                                 : 19.8 kb/s
  182. Count of elements                        : 1916
  183. Stream size                              : 16.4 MiB (0%)
  184. Title                                    : Croatian-PGS
  185. Language                                 : Croatian
  186. Default                                  : No
  187. Forced                                   : No
  188. Text #8
  189. ID                                       : 12
  190. Format                                   : PGS
  191. Muxing mode                              : zlib
  192. Codec ID                                 : S_HDMV/PGS
  193. Codec ID/Info                            : Picture based subtitle format used on BDs/HD-DVDs
  194. Duration                                 : 1 h 55 min
  195. Bit rate                                 : 18.9 kb/s
  196. Count of elements                        : 1924
  197. Stream size                              : 15.7 MiB (0%)
  198. Title                                    : Czech-PGS
  199. Language                                 : Czech
  200. Default                                  : No
  201. Forced                                   : No
  202. Text #9
  203. ID                                       : 13
  204. Format                                   : PGS
  205. Muxing mode                              : zlib
  206. Codec ID                                 : S_HDMV/PGS
  207. Codec ID/Info                            : Picture based subtitle format used on BDs/HD-DVDs
  208. Duration                                 : 1 h 55 min
  209. Bit rate                                 : 20.0 kb/s
  210. Count of elements                        : 1498
  211. Stream size                              : 16.5 MiB (0%)
  212. Title                                    : Danish-PGS
  213. Language                                 : Danish
  214. Default                                  : No
  215. Forced                                   : No
  216. Text #10
  217. ID                                       : 14
  218. Format                                   : PGS
  219. Muxing mode                              : zlib
  220. Codec ID                                 : S_HDMV/PGS
  221. Codec ID/Info                            : Picture based subtitle format used on BDs/HD-DVDs
  222. Duration                                 : 1 h 55 min
  223. Bit rate                                 : 20.3 kb/s
  224. Count of elements                        : 1802
  225. Stream size                              : 16.8 MiB (0%)
  226. Title                                    : Dutch-PGS
  227. Language                                 : Dutch
  228. Default                                  : No
  229. Forced                                   : No
  230. Text #11
  231. ID                                       : 15
  232. Format                                   : PGS
  233. Muxing mode                              : zlib
  234. Codec ID                                 : S_HDMV/PGS
  235. Codec ID/Info                            : Picture based subtitle format used on BDs/HD-DVDs
  236. Duration                                 : 1 h 55 min
  237. Bit rate                                 : 20.4 kb/s
  238. Count of elements                        : 1540
  239. Stream size                              : 16.8 MiB (0%)
  240. Title                                    : Estonian-PGS
  241. Language                                 : Estonian
  242. Default                                  : No
  243. Forced                                   : No
  244. Text #12
  245. ID                                       : 16
  246. Format                                   : PGS
  247. Muxing mode                              : zlib
  248. Codec ID                                 : S_HDMV/PGS
  249. Codec ID/Info                            : Picture based subtitle format used on BDs/HD-DVDs
  250. Duration                                 : 1 h 55 min
  251. Bit rate                                 : 20.6 kb/s
  252. Count of elements                        : 1496
  253. Stream size                              : 17.0 MiB (0%)
  254. Title                                    : Finnish-PGS
  255. Language                                 : Finnish
  256. Default                                  : No
  257. Forced                                   : No
  258. Text #13
  259. ID                                       : 17
  260. Format                                   : PGS
  261. Muxing mode                              : zlib
  262. Codec ID                                 : S_HDMV/PGS
  263. Codec ID/Info                            : Picture based subtitle format used on BDs/HD-DVDs
  264. Duration                                 : 1 h 55 min
  265. Bit rate                                 : 20.3 kb/s
  266. Count of elements                        : 2108
  267. Stream size                              : 16.8 MiB (0%)
  268. Title                                    : French-PGS
  269. Language                                 : French
  270. Default                                  : No
  271. Forced                                   : No
  272. Text #14
  273. ID                                       : 18
  274. Format                                   : PGS
  275. Muxing mode                              : zlib
  276. Codec ID                                 : S_HDMV/PGS
  277. Codec ID/Info                            : Picture based subtitle format used on BDs/HD-DVDs
  278. Duration                                 : 1 h 55 min
  279. Bit rate                                 : 24.0 kb/s
  280. Count of elements                        : 1936
  281. Stream size                              : 19.8 MiB (0%)
  282. Title                                    : German-PGS
  283. Language                                 : German
  284. Default                                  : No
  285. Forced                                   : No
  286. Text #15
  287. ID                                       : 19
  288. Format                                   : PGS
  289. Muxing mode                              : zlib
  290. Codec ID                                 : S_HDMV/PGS
  291. Codec ID/Info                            : Picture based subtitle format used on BDs/HD-DVDs
  292. Duration                                 : 1 h 47 min
  293. Bit rate                                 : 28.7 kb/s
  294. Count of elements                        : 2142
  295. Stream size                              : 22.2 MiB (0%)
  296. Title                                    : German-SDH-PGS
  297. Language                                 : German
  298. Default                                  : No
  299. Forced                                   : No
  300. Text #16
  301. ID                                       : 20
  302. Format                                   : PGS
  303. Muxing mode                              : zlib
  304. Codec ID                                 : S_HDMV/PGS
  305. Codec ID/Info                            : Picture based subtitle format used on BDs/HD-DVDs
  306. Duration                                 : 1 h 55 min
  307. Bit rate                                 : 20.7 kb/s
  308. Count of elements                        : 1920
  309. Stream size                              : 17.1 MiB (0%)
  310. Title                                    : Greek-PGS
  311. Language                                 : Greek
  312. Default                                  : No
  313. Forced                                   : No
  314. Text #17
  315. ID                                       : 21
  316. Format                                   : PGS
  317. Muxing mode                              : zlib
  318. Codec ID                                 : S_HDMV/PGS
  319. Codec ID/Info                            : Picture based subtitle format used on BDs/HD-DVDs
  320. Duration                                 : 1 h 55 min
  321. Bit rate                                 : 15.3 kb/s
  322. Count of elements                        : 1922
  323. Stream size                              : 12.6 MiB (0%)
  324. Title                                    : Hebrew-PGS
  325. Language                                 : Hebrew
  326. Default                                  : No
  327. Forced                                   : No
  328. Text #18
  329. ID                                       : 22
  330. Format                                   : PGS
  331. Muxing mode                              : zlib
  332. Codec ID                                 : S_HDMV/PGS
  333. Codec ID/Info                            : Picture based subtitle format used on BDs/HD-DVDs
  334. Duration                                 : 1 h 55 min
  335. Bit rate                                 : 18.7 kb/s
  336. Count of elements                        : 1760
  337. Stream size                              : 15.4 MiB (0%)
  338. Title                                    : Hungarian-PGS
  339. Language                                 : Hungarian
  340. Default                                  : No
  341. Forced                                   : No
  342. Text #19
  343. ID                                       : 23
  344. Format                                   : PGS
  345. Muxing mode                              : zlib
  346. Codec ID                                 : S_HDMV/PGS
  347. Codec ID/Info                            : Picture based subtitle format used on BDs/HD-DVDs
  348. Duration                                 : 1 h 55 min
  349. Bit rate                                 : 21.1 kb/s
  350. Count of elements                        : 1936
  351. Stream size                              : 17.4 MiB (0%)
  352. Title                                    : Icelandic-PGS
  353. Language                                 : Icelandic
  354. Default                                  : No
  355. Forced                                   : No
  356. Text #20
  357. ID                                       : 24
  358. Format                                   : PGS
  359. Muxing mode                              : zlib
  360. Codec ID                                 : S_HDMV/PGS
  361. Codec ID/Info                            : Picture based subtitle format used on BDs/HD-DVDs
  362. Duration                                 : 1 h 55 min
  363. Bit rate                                 : 25.1 kb/s
  364. Count of elements                        : 1916
  365. Stream size                              : 20.7 MiB (0%)
  366. Title                                    : Indonesian-PGS
  367. Language                                 : Indonesian
  368. Default                                  : No
  369. Forced                                   : No
  370. Text #21
  371. ID                                       : 25
  372. Format                                   : PGS
  373. Muxing mode                              : zlib
  374. Codec ID                                 : S_HDMV/PGS
  375. Codec ID/Info                            : Picture based subtitle format used on BDs/HD-DVDs
  376. Duration                                 : 1 h 55 min
  377. Bit rate                                 : 21.3 kb/s
  378. Count of elements                        : 1908
  379. Stream size                              : 17.5 MiB (0%)
  380. Title                                    : Italian-PGS
  381. Language                                 : Italian
  382. Default                                  : No
  383. Forced                                   : No
  384. Text #22
  385. ID                                       : 26
  386. Format                                   : PGS
  387. Muxing mode                              : zlib
  388. Codec ID                                 : S_HDMV/PGS
  389. Codec ID/Info                            : Picture based subtitle format used on BDs/HD-DVDs
  390. Duration                                 : 1 h 48 min
  391. Bit rate                                 : 25.8 kb/s
  392. Count of elements                        : 2116
  393. Stream size                              : 20.0 MiB (0%)
  394. Title                                    : Italian-SDH-PGS
  395. Language                                 : Italian
  396. Default                                  : No
  397. Forced                                   : No
  398. Text #23
  399. ID                                       : 27
  400. Format                                   : PGS
  401. Muxing mode                              : zlib
  402. Codec ID                                 : S_HDMV/PGS
  403. Codec ID/Info                            : Picture based subtitle format used on BDs/HD-DVDs
  404. Duration                                 : 1 h 47 min
  405. Bit rate                                 : 19.2 kb/s
  406. Count of elements                        : 1958
  407. Stream size                              : 14.8 MiB (0%)
  408. Title                                    : Japanese-PGS
  409. Language                                 : Japanese
  410. Default                                  : No
  411. Forced                                   : No
  412. Text #24
  413. ID                                       : 28
  414. Format                                   : PGS
  415. Muxing mode                              : zlib
  416. Codec ID                                 : S_HDMV/PGS
  417. Codec ID/Info                            : Picture based subtitle format used on BDs/HD-DVDs
  418. Duration                                 : 1 h 49 min
  419. Bit rate                                 : 16.5 kb/s
  420. Count of elements                        : 1894
  421. Stream size                              : 12.9 MiB (0%)
  422. Title                                    : Korean-PGS
  423. Language                                 : Korean
  424. Default                                  : No
  425. Forced                                   : No
  426. Text #25
  427. ID                                       : 29
  428. Format                                   : PGS
  429. Muxing mode                              : zlib
  430. Codec ID                                 : S_HDMV/PGS
  431. Codec ID/Info                            : Picture based subtitle format used on BDs/HD-DVDs
  432. Duration                                 : 1 h 55 min
  433. Bit rate                                 : 18.9 kb/s
  434. Count of elements                        : 1540
  435. Stream size                              : 15.6 MiB (0%)
  436. Title                                    : Latvian-PGS
  437. Language                                 : Latvian
  438. Default                                  : No
  439. Forced                                   : No
  440. Text #26
  441. ID                                       : 30
  442. Format                                   : PGS
  443. Muxing mode                              : zlib
  444. Codec ID                                 : S_HDMV/PGS
  445. Codec ID/Info                            : Picture based subtitle format used on BDs/HD-DVDs
  446. Duration                                 : 1 h 55 min
  447. Bit rate                                 : 19.4 kb/s
  448. Count of elements                        : 1860
  449. Stream size                              : 16.0 MiB (0%)
  450. Title                                    : Lithuanian-PGS
  451. Language                                 : Lithuanian
  452. Default                                  : No
  453. Forced                                   : No
  454. Text #27
  455. ID                                       : 31
  456. Format                                   : PGS
  457. Muxing mode                              : zlib
  458. Codec ID                                 : S_HDMV/PGS
  459. Codec ID/Info                            : Picture based subtitle format used on BDs/HD-DVDs
  460. Duration                                 : 1 h 55 min
  461. Bit rate                                 : 19.7 kb/s
  462. Count of elements                        : 1504
  463. Stream size                              : 16.2 MiB (0%)
  464. Title                                    : Norwegian-PGS
  465. Language                                 : Norwegian
  466. Default                                  : No
  467. Forced                                   : No
  468. Text #28
  469. ID                                       : 32
  470. Format                                   : PGS
  471. Muxing mode                              : zlib
  472. Codec ID                                 : S_HDMV/PGS
  473. Codec ID/Info                            : Picture based subtitle format used on BDs/HD-DVDs
  474. Duration                                 : 1 h 55 min
  475. Bit rate                                 : 22.2 kb/s
  476. Count of elements                        : 1916
  477. Stream size                              : 18.3 MiB (0%)
  478. Title                                    : Polish-PGS
  479. Language                                 : Polish
  480. Default                                  : No
  481. Forced                                   : No
  482. Text #29
  483. ID                                       : 33
  484. Format                                   : PGS
  485. Muxing mode                              : zlib
  486. Codec ID                                 : S_HDMV/PGS
  487. Codec ID/Info                            : Picture based subtitle format used on BDs/HD-DVDs
  488. Duration                                 : 1 h 55 min
  489. Bit rate                                 : 20.8 kb/s
  490. Count of elements                        : 1920
  491. Stream size                              : 17.2 MiB (0%)
  492. Title                                    : Portuguese-PGS
  493. Language                                 : Portuguese
  494. Default                                  : No
  495. Forced                                   : No
  496. Text #30
  497. ID                                       : 34
  498. Format                                   : PGS
  499. Muxing mode                              : zlib
  500. Codec ID                                 : S_HDMV/PGS
  501. Codec ID/Info                            : Picture based subtitle format used on BDs/HD-DVDs
  502. Duration                                 : 1 h 55 min
  503. Bit rate                                 : 21.4 kb/s
  504. Count of elements                        : 1920
  505. Stream size                              : 17.6 MiB (0%)
  506. Title                                    : Portuguese-PGS
  507. Language                                 : Portuguese
  508. Default                                  : No
  509. Forced                                   : No
  510. Text #31
  511. ID                                       : 35
  512. Format                                   : PGS
  513. Muxing mode                              : zlib
  514. Codec ID                                 : S_HDMV/PGS
  515. Codec ID/Info                            : Picture based subtitle format used on BDs/HD-DVDs
  516. Duration                                 : 1 h 55 min
  517. Bit rate                                 : 20.4 kb/s
  518. Count of elements                        : 1706
  519. Stream size                              : 16.9 MiB (0%)
  520. Title                                    : Romanian-PGS
  521. Language                                 : Romanian
  522. Default                                  : No
  523. Forced                                   : No
  524. Text #32
  525. ID                                       : 36
  526. Format                                   : PGS
  527. Muxing mode                              : zlib
  528. Codec ID                                 : S_HDMV/PGS
  529. Codec ID/Info                            : Picture based subtitle format used on BDs/HD-DVDs
  530. Duration                                 : 1 h 55 min
  531. Bit rate                                 : 22.9 kb/s
  532. Count of elements                        : 2020
  533. Stream size                              : 19.0 MiB (0%)
  534. Title                                    : Russian-PGS
  535. Language                                 : Russian
  536. Default                                  : No
  537. Forced                                   : No
  538. Text #33
  539. ID                                       : 37
  540. Format                                   : PGS
  541. Muxing mode                              : zlib
  542. Codec ID                                 : S_HDMV/PGS
  543. Codec ID/Info                            : Picture based subtitle format used on BDs/HD-DVDs
  544. Duration                                 : 1 h 55 min
  545. Bit rate                                 : 19.7 kb/s
  546. Count of elements                        : 1916
  547. Stream size                              : 16.3 MiB (0%)
  548. Title                                    : Serbian-PGS
  549. Language                                 : Serbian
  550. Default                                  : No
  551. Forced                                   : No
  552. Text #34
  553. ID                                       : 38
  554. Format                                   : PGS
  555. Muxing mode                              : zlib
  556. Codec ID                                 : S_HDMV/PGS
  557. Codec ID/Info                            : Picture based subtitle format used on BDs/HD-DVDs
  558. Duration                                 : 1 h 55 min
  559. Bit rate                                 : 17.0 kb/s
  560. Count of elements                        : 1916
  561. Stream size                              : 14.0 MiB (0%)
  562. Title                                    : Slovenian-PGS
  563. Language                                 : Slovenian
  564. Default                                  : No
  565. Forced                                   : No
  566. Text #35
  567. ID                                       : 39
  568. Format                                   : PGS
  569. Muxing mode                              : zlib
  570. Codec ID                                 : S_HDMV/PGS
  571. Codec ID/Info                            : Picture based subtitle format used on BDs/HD-DVDs
  572. Duration                                 : 1 h 55 min
  573. Bit rate                                 : 21.9 kb/s
  574. Count of elements                        : 1964
  575. Stream size                              : 18.1 MiB (0%)
  576. Title                                    : Spanish-PGS
  577. Language                                 : Spanish
  578. Default                                  : No
  579. Forced                                   : No
  580. Text #36
  581. ID                                       : 40
  582. Format                                   : PGS
  583. Muxing mode                              : zlib
  584. Codec ID                                 : S_HDMV/PGS
  585. Codec ID/Info                            : Picture based subtitle format used on BDs/HD-DVDs
  586. Duration                                 : 1 h 47 min
  587. Bit rate                                 : 24.3 kb/s
  588. Count of elements                        : 1938
  589. Stream size                              : 18.7 MiB (0%)
  590. Title                                    : Spanish-PGS
  591. Language                                 : Spanish
  592. Default                                  : No
  593. Forced                                   : No
  594. Text #37
  595. ID                                       : 41
  596. Format                                   : PGS
  597. Muxing mode                              : zlib
  598. Codec ID                                 : S_HDMV/PGS
  599. Codec ID/Info                            : Picture based subtitle format used on BDs/HD-DVDs
  600. Duration                                 : 1 h 55 min
  601. Bit rate                                 : 20.2 kb/s
  602. Count of elements                        : 1610
  603. Stream size                              : 16.7 MiB (0%)
  604. Title                                    : Swedish-PGS
  605. Language                                 : Swedish
  606. Default                                  : No
  607. Forced                                   : No
  608. Text #38
  609. ID                                       : 42
  610. Format                                   : PGS
  611. Muxing mode                              : zlib
  612. Codec ID                                 : S_HDMV/PGS
  613. Codec ID/Info                            : Picture based subtitle format used on BDs/HD-DVDs
  614. Duration                                 : 1 h 47 min
  615. Bit rate                                 : 22.6 kb/s
  616. Count of elements                        : 1908
  617. Stream size                              : 17.4 MiB (0%)
  618. Title                                    : Thai-PGS
  619. Language                                 : Thai
  620. Default                                  : No
  621. Forced                                   : No
  622. Text #39
  623. ID                                       : 43
  624. Format                                   : PGS
  625. Muxing mode                              : zlib
  626. Codec ID                                 : S_HDMV/PGS
  627. Codec ID/Info                            : Picture based subtitle format used on BDs/HD-DVDs
  628. Duration                                 : 1 h 55 min
  629. Bit rate                                 : 22.3 kb/s
  630. Count of elements                        : 1920
  631. Stream size                              : 18.4 MiB (0%)
  632. Title                                    : Turkish-PGS
  633. Language                                 : Turkish
  634. Default                                  : No
  635. Forced                                   : No
  636. Text #40
  637. ID                                       : 44
  638. Format                                   : PGS
  639. Muxing mode                              : zlib
  640. Codec ID                                 : S_HDMV/PGS
  641. Codec ID/Info                            : Picture based subtitle format used on BDs/HD-DVDs
  642. Duration                                 : 1 h 55 min
  643. Bit rate                                 : 20.7 kb/s
  644. Count of elements                        : 1930
  645. Stream size                              : 17.1 MiB (0%)
  646. Title                                    : Ukrainian-PGS
  647. Language                                 : Ukrainian
  648. Default                                  : No
  649. Forced                                   : No
  650. Menu
  651. 00:00:00.000                             : en:Spartan Education
  652. 00:05:16.608                             : en:Messenger From Persia
  653. 00:10:22.956                             : en:Sparta\'s Reply
  654. 00:13:16.421                             : en:The Ephors
  655. 00:16:51.844                             : en:The Oracle
  656. 00:19:44.016                             : en:What Should A Free Man Do?
  657. 00:22:27.972                             : en:With Or On Your Shield
  658. 00:27:03.288                             : en:More Soldiers Than You
  659. 00:29:15.921                             : en:Hunters Of Men\'s Souls
  660. 00:33:17.495                             : en:Glorious Rain
  661. 00:35:06.438                             : en:Fraction Of The Monster
  662. 00:37:49.100                             : en:Wall Of The Dead
  663. 00:40:45.943                             : en:Ephialtes\' Request
  664. 00:44:09.981                             : en:Hot Gates Battle
  665. 00:49:16.871                             : en:Today No Spartan Dies
  666. 00:52:45.996                             : en:Make Theron Your Ally
  667. 00:55:33.247                             : en:Meeting Xerxes
  668. 01:01:40.530                             : en:Immortals Put To The Test
  669. 01:05:20.416                             : en:über Immortal\'s Fall
  670. 01:08:42.618                             : en:Numbers Count For Nothing
  671. 01:12:42.858                             : en:Blood-Drunk
  672. 01:15:50.045                             : en:Betrayer\'s Bargain
  673. 01:18:38.047                             : en:Queen\'s Bargain
  674. 01:22:20.602                             : en:Prepare For Glory
  675. 01:26:43.198                             : en:Tell Them Our Story
  676. 01:29:11.179                             : en:Trickster In True Form
  677. 01:33:58.883                             : en:Victory In Surrender
  678. 01:38:54.262                             : en:Fallen Heroes
  679. 01:43:25.866                             : en:Go Tell The Spartans
  680. 01:49:03.203                             : en:End Credits
复制代码






                                       
                                       

                                       
                                       
                                       




回复

使用道具 举报

懒得打字嘛,点击右侧快捷回复 【右侧内容,后台自定义】
您需要登录后才可以回帖 登录 | 立即加入

本版积分规则

Archiver|小黑屋| 蓝光电影网 |网站地图

Copyright © 2021 Comsenz Inc. Powered by 蓝光电影网

蓝光电影网

本站内容由用户自主分享和转载自互联网,转载目的在于传递更多信息,并不代表本网赞同其观点和对其真实性负责。

如有侵权、违反国家法律政策行为,请联系我们,我们会第一时间及时清除和处理!

举报反馈邮箱:[email protected]

快速回复 返回顶部 返回列表