找回密码

蓝光电影网

查看: 99|回复: 0

[2160p] 斯巴达300勇士/300壮士:斯巴达的逆袭 300.2006.2160p.BluRay.x265.10bit.SDR.DTS-HD.MA.TrueHD.7.1.Atmos-SWTYBLZ 45.12GB

[复制链接]
蓝光币
1084
发表于 2020-10-5 18:12:52 | 显示全部楼层 |阅读模式


◎译  名 斯巴达300勇士/300勇士:斯巴达的逆袭(台)/300斯巴达勇士/三百勇士/战狼300(港)
◎片  名 300
◎年  代 2006
◎产  地 美国
◎类  别 行动 / 历史 / 战争
◎语  言 英语
◎上映日期 2006-12-09(BNAT电影节) / 2007-03-09(美国)
◎IMDb评分  7.6/10 from 724087 users
◎IMDb链接  https://www.imdb.com/title/tt0416449/
◎豆瓣评分 7.8/10 from 133045 users
◎豆瓣链接 https://movie.douban.com/subject/1853176/
◎片  长 117分钟
◎导  演 扎克·施奈德 Zack Snyder
◎编  剧 扎克·施奈德 Zack Snyder / 库尔特·约恩斯塔德 Kurt Johnstad / 迈克尔·高顿 Michael Gordon / 弗兰克·米勒 Frank Miller
◎主  演 杰拉德·巴特勒 Gerard Butler
       琳娜·海蒂 Lena Headey
       多米尼克·韦斯特 Dominic West
       大卫·文翰 David Wenham
       文森特·里根 Vincent Regan
       迈克尔·法斯宾德 Michael Fassbender
       汤姆·威斯多姆 Tom Wisdom
       安德鲁·普利文 Andrew Pleavin
       安德鲁·蒂曼 Andrew Tiernan
       罗德里戈·桑托罗 Rodrigo Santoro
       凯利·克雷格 Kelly Craig
       泰勒·内策尔 Tyler Neitzel
       提姆·康纳利 Tim Connolly
       玛丽·朱莉叶·里夫斯特 Marie-Julie Rivest
       彼得·门萨 Peter Mensah
       亚瑟·霍尔顿 Arthur Holden
       丹尼斯·圣约翰 Dennis St John
       尼尔·纳皮尔 Neil Napier
       戴兰·史姑娘 Dylan Smith
       毛里齐奥·泰拉扎诺 Maurizio Terrazzano
       夸西·宋桂 Kwasi Songui
       安德鲁·舍夫 Andrew Shaver
       罗宾·威尔科克 Robin Wilcock
       蒂龙·本斯金 Tyrone Benskin
       罗伯特·梅耶 Robert Maillet
       帕特里克·萨邦圭 Patrick Sabongui
       加里·A·赫克 Gary A. Hecker
       达伦·萨赫拉维 Darren Shahlavi
       马克·托蒂尔 Marc Trottier
       阿格涅丝卡·乌诺洛斯卡 Agnieshka Wnorowska
       Alex Ivanovici
       迈克尔·西奈尔尼科夫 Michael Sinelnikoff
       Amélie Sorel
       Atif Y. Siddiqi
       史蒂芬·麦克哈蒂 Stephen McHattie
       Elisabeth Etienne
◎标  签 战争 | 史诗 | 美国 | 行动 | 历史 | 暴力 | 典范 | 暴力美学
◎简  介


  这部电影描写了人类史上最残暴的战争之一:温泉关之战。公元前480年,波斯国王薛西斯一世(罗德里格?桑托罗 Rodrigo Santoro 饰)亲率30万雄师交战希腊。希腊各个城邦敏捷派出军队结成了联军,预备抵抗波斯军队的入侵。
  
  防线的最火线设在希腊的温泉关,此处由斯巴达 城的国王列奥尼达(杰拉德?巴特勒 Gerard Butler 饰)率领本城300精兵和联军4000余人镇守。由于叛徒的出售,希腊军队被波斯军队抄到了死后构成围歼之势。列奥尼达为了保存联军气力,让联军首先退却,自己率领300精兵死守温泉关断后。
  
  数以十万波斯雄师浩浩汤汤蜂拥而至,自知必死的斯巴达兵士反而士气高涨,在战役中爆发出惊人的战力。全部战争整整延续了2天,最初列奥尼达和他的300精兵全数阵亡,而波斯军队则损失了20000多兵士,薛西斯一世的两个兄弟也在此役中战死……
◎获奖情况
  第16届MTV电影奖 ?(2007)
  MTV电影奖年度电影(提名)
  MTV电影奖最好表演(提名) 杰拉德·巴特勒
  MTV电影奖冲破表演奖(提名) 琳娜·海蒂
  MTV电影奖最好打架 杰拉德·巴特勒
  MTV电影奖最好反派(提名) 罗德里戈·桑托罗
  1. Video
  2. ID                                       : 1
  3. Format                                   : HEVC
  4. Format/Info                              : High Efficiency Video Coding
  5. Format profile                           : Main [email protected]@High
  6. Codec ID                                 : V_MPEGH/ISO/HEVC
  7. Duration                                 : 1 h 56 min
  8. Bit rate                                 : 46.9 Mb/s
  9. Width                                    : 3 840 pixels
  10. Height                                   : 1 600 pixels
  11. Display aspect ratio                     : 2.40:1
  12. Frame rate mode                          : Constant
  13. Frame rate                               : 23.976 (24000/1001/189150) FPS
  14. Color space                              : YUV
  15. Chroma subsampling                       : 4:2:0
  16. Bit depth                                : 10 bits
  17. Bits/(Pixel*Frame)                       : 0.318
  18. Stream size                              : 38.2 GiB (85%)
  19. Title                                    : 300.2006.2160p.BluRay.x265.10bit.SDR.DTS-HD.MA.TrueHD.7.1.Atmos-SWTYBLZ
  20. Writing library                          : x265 3.0ed72af837053:[Windows][GCC 8.2.0][64 bit] 10bit
  21. Encoding settings                        : cpuid=1111039 / frame-threads=6 / numa-pools=40 / wpp / no-pmode / no-pme / no-psnr / no-ssim / log-level=2 / input-csp=1 / input-res=3840x1600 / interlace=0 / total-frames=167789 / level-idc=51 / high-tier=1 / uhd-bd=0 / ref=3 / no-allow-non-conformance / repeat-headers / annexb / aud / hrd / info / hash=0 / no-temporal-layers / no-open-gop / min-keyint=1 / keyint=24 / gop-lookahead=0 / bframes=4 / b-adapt=2 / b-pyramid / bframe-bias=0 / rc-lookahead=25 / lookahead-slices=4 / scenecut=40 / radl=0 / no-splice / no-intra-refresh / ctu=64 / min-cu-size=8 / no-rect / no-amp / max-tu-size=32 / tu-inter-depth=1 / tu-intra-depth=1 / limit-tu=0 / rdoq-level=0 / dynamic-rd=0.00 / no-ssim-rd / signhide / no-tskip / nr-intra=0 / nr-inter=0 / no-constrained-intra / strong-intra-smoothing / max-merge=2 / limit-refs=3 / no-limit-modes / me=1 / subme=2 / merange=57 / temporal-mvp / weightp / no-weightb / no-analyze-src-pics / deblock=0:0 / no-sao / no-sao-non-deblock / rd=3 / no-early-skip / rskip / no-fast-intra / no-tskip-fast / no-cu-lossless / no-b-intra / no-splitrd-skip / rdpenalty=0 / psy-rd=2.00 / psy-rdoq=0.00 / no-rd-refine / no-lossless / cbqpoffs=0 / crqpoffs=0 / rc=crf / crf=18.0 / qcomp=0.60 / qpstep=4 / stats-write=0 / stats-read=0 / vbv-maxrate=160000 / vbv-bufsize=160000 / vbv-init=0.9 / crf-max=0.0 / crf-min=0.0 / ipratio=1.40 / pbratio=1.30 / aq-mode=1 / aq-strength=1.00 / cutree / zone-count=0 / no-strict-cbr / qg-size=32 / no-rc-grain / qpmax=69 / qpmin=0 / no-const-vbv / sar=1 / overscan=0 / videoformat=5 / range=0 / colorprim=2 / transfer=2 / colormatrix=2 / chromaloc=0 / display-window=0 / max-cll=0,0 / min-luma=0 / max-luma=1023 / log2-max-poc-lsb=8 / vui-timing-info / vui-hrd-info / slices=1 / opt-qp-pps / opt-ref-list-length-pps / no-multi-pass-opt-rps / scenecut-bias=0.05 / no-opt-cu-delta-qp / no-aq-motion / no-hdr / no-hdr-opt / no-dhdr10-opt / no-idr-recovery-sei / analysis-reuse-level=5 / scale-factor=0 / refine-intra=0 / refine-inter=0 / refine-mv=0 / refine-ctu-distortion=0 / no-limit-sao / ctu-info=0 / no-lowpass-dct / refine-analysis-type=0 / copy-pic=1 / max-ausize-factor=1.0 / no-dynamic-refine / no-single-sei / no-hevc-aq / qp-adaptation-range=1.00
  22. Default                                  : Yes
  23. Forced                                   : No
  24. Audio #1
  25. ID                                       : 2
  26. Format                                   : MLP FBA 16-ch
  27. Format/Info                              : Meridian Lossless Packing FBA with 16-channel presentation
  28. Commercial name                          : Dolby TrueHD with Dolby Atmos
  29. Codec ID                                 : A_TRUEHD
  30. Duration                                 : 1 h 56 min
  31. Bit rate mode                            : Variable
  32. Bit rate                                 : 3 343 kb/s
  33. Maximum bit rate                         : 5 451 kb/s
  34. Channel(s)                               : 8 channels
  35. Channel layout                           : L R C LFE Ls Rs Lb Rb
  36. Sampling rate                            : 48.0 kHz
  37. Frame rate                               : 1 200.000 FPS (40 SPF)
  38. Compression mode                         : Lossless
  39. Stream size                              : 2.72 GiB (6%)
  40. Title                                    : 300.2006.2160p.BluRay.x265.10bit.SDR.DTS-HD.MA.TrueHD.7.1.Atmos-SWTYBLZ
  41. Language                                 : English
  42. Default                                  : Yes
  43. Forced                                   : No
  44. Number of dynamic objects                : 11
  45. Bed channel count                        : 1 channel
  46. Bed channel configuration                : LFE
  47. Audio #2
  48. ID                                       : 3
  49. Format                                   : DTS XLL
  50. Format/Info                              : Digital Theater Systems
  51. Commercial name                          : DTS-HD Master Audio
  52. Codec ID                                 : A_DTS
  53. Duration                                 : 1 h 56 min
  54. Bit rate mode                            : Variable
  55. Bit rate                                 : 3 932 kb/s
  56. Channel(s)                               : 8 channels
  57. Channel layout                           : C L R LFE Lb Rb Lss Rss
  58. Sampling rate                            : 48.0 kHz
  59. Frame rate                               : 93.750 FPS (512 SPF)
  60. Bit depth                                : 24 bits
  61. Compression mode                         : Lossless
  62. Stream size                              : 3.20 GiB (7%)
  63. Title                                    : 300.2006.2160p.BluRay.x265.10bit.SDR.DTS-HD.MA.TrueHD.7.1.Atmos-SWTYBLZ
  64. Language                                 : English
  65. Default                                  : No
  66. Forced                                   : No
  67. Audio #3
  68. ID                                       : 4
  69. Format                                   : AC-3
  70. Format/Info                              : Audio Coding 3
  71. Commercial name                          : Dolby Digital
  72. Codec ID                                 : A_AC3
  73. Duration                                 : 1 h 56 min
  74. Bit rate mode                            : Constant
  75. Bit rate                                 : 448 kb/s
  76. Channel(s)                               : 6 channels
  77. Channel layout                           : L R C LFE Ls Rs
  78. Sampling rate                            : 48.0 kHz
  79. Frame rate                               : 31.250 FPS (1536 SPF)
  80. Compression mode                         : Lossy
  81. Stream size                              : 374 MiB (1%)
  82. Title                                    : 300.2006.2160p.BluRay.x265.10bit.SDR.DTS-HD.MA.TrueHD.7.1.Atmos-SWTYBLZ
  83. Language                                 : English
  84. Service kind                             : Complete Main
  85. Default                                  : No
  86. Forced                                   : No
  87. Text #1
  88. ID                                       : 5
  89. Format                                   : UTF-8
  90. Codec ID                                 : S_TEXT/UTF8
  91. Codec ID/Info                            : UTF-8 Plain Text
  92. Duration                                 : 1 h 47 min
  93. Bit rate                                 : 39 b/s
  94. Count of elements                        : 952
  95. Stream size                              : 31.1 KiB (0%)
  96. Title                                    : English-SRT
  97. Language                                 : English
  98. Default                                  : Yes
  99. Forced                                   : No
  100. Text #2
  101. ID                                       : 6
  102. Format                                   : PGS
  103. Muxing mode                              : zlib
  104. Codec ID                                 : S_HDMV/PGS
  105. Codec ID/Info                            : Picture based subtitle format used on BDs/HD-DVDs
  106. Duration                                 : 1 h 55 min
  107. Bit rate                                 : 20.5 kb/s
  108. Count of elements                        : 1914
  109. Stream size                              : 16.9 MiB (0%)
  110. Title                                    : English-PGS
  111. Language                                 : English
  112. Default                                  : No
  113. Forced                                   : No
  114. Text #3
  115. ID                                       : 7
  116. Format                                   : PGS
  117. Muxing mode                              : zlib
  118. Codec ID                                 : S_HDMV/PGS
  119. Codec ID/Info                            : Picture based subtitle format used on BDs/HD-DVDs
  120. Duration                                 : 1 h 48 min
  121. Bit rate                                 : 24.5 kb/s
  122. Count of elements                        : 2106
  123. Stream size                              : 19.0 MiB (0%)
  124. Title                                    : English-SDH-PGS
  125. Language                                 : English
  126. Default                                  : No
  127. Forced                                   : No
  128. Text #4
  129. ID                                       : 8
  130. Format                                   : PGS
  131. Muxing mode                              : zlib
  132. Codec ID                                 : S_HDMV/PGS
  133. Codec ID/Info                            : Picture based subtitle format used on BDs/HD-DVDs
  134. Duration                                 : 1 h 55 min
  135. Bit rate                                 : 10.7 kb/s
  136. Count of elements                        : 1652
  137. Stream size                              : 8.85 MiB (0%)
  138. Title                                    : Arabic-PGS
  139. Language                                 : Arabic
  140. Default                                  : No
  141. Forced                                   : No
  142. Text #5
  143. ID                                       : 9
  144. Format                                   : PGS
  145. Muxing mode                              : zlib
  146. Codec ID                                 : S_HDMV/PGS
  147. Codec ID/Info                            : Picture based subtitle format used on BDs/HD-DVDs
  148. Duration                                 : 1 h 55 min
  149. Bit rate                                 : 21.3 kb/s
  150. Count of elements                        : 1916
  151. Stream size                              : 17.6 MiB (0%)
  152. Title                                    : Bulgarian-PGS
  153. Language                                 : Bulgarian
  154. Default                                  : No
  155. Forced                                   : No
  156. Text #6
  157. ID                                       : 10
  158. Format                                   : PGS
  159. Muxing mode                              : zlib
  160. Codec ID                                 : S_HDMV/PGS
  161. Codec ID/Info                            : Picture based subtitle format used on BDs/HD-DVDs
  162. Duration                                 : 1 h 49 min
  163. Bit rate                                 : 20.8 kb/s
  164. Count of elements                        : 1932
  165. Stream size                              : 16.3 MiB (0%)
  166. Title                                    : Chinese-PGS
  167. Language                                 : Chinese
  168. Default                                  : No
  169. Forced                                   : No
  170. Text #7
  171. ID                                       : 11
  172. Format                                   : PGS
  173. Muxing mode                              : zlib
  174. Codec ID                                 : S_HDMV/PGS
  175. Codec ID/Info                            : Picture based subtitle format used on BDs/HD-DVDs
  176. Duration                                 : 1 h 55 min
  177. Bit rate                                 : 19.8 kb/s
  178. Count of elements                        : 1916
  179. Stream size                              : 16.4 MiB (0%)
  180. Title                                    : Croatian-PGS
  181. Language                                 : Croatian
  182. Default                                  : No
  183. Forced                                   : No
  184. Text #8
  185. ID                                       : 12
  186. Format                                   : PGS
  187. Muxing mode                              : zlib
  188. Codec ID                                 : S_HDMV/PGS
  189. Codec ID/Info                            : Picture based subtitle format used on BDs/HD-DVDs
  190. Duration                                 : 1 h 55 min
  191. Bit rate                                 : 18.9 kb/s
  192. Count of elements                        : 1924
  193. Stream size                              : 15.7 MiB (0%)
  194. Title                                    : Czech-PGS
  195. Language                                 : Czech
  196. Default                                  : No
  197. Forced                                   : No
  198. Text #9
  199. ID                                       : 13
  200. Format                                   : PGS
  201. Muxing mode                              : zlib
  202. Codec ID                                 : S_HDMV/PGS
  203. Codec ID/Info                            : Picture based subtitle format used on BDs/HD-DVDs
  204. Duration                                 : 1 h 55 min
  205. Bit rate                                 : 20.0 kb/s
  206. Count of elements                        : 1498
  207. Stream size                              : 16.5 MiB (0%)
  208. Title                                    : Danish-PGS
  209. Language                                 : Danish
  210. Default                                  : No
  211. Forced                                   : No
  212. Text #10
  213. ID                                       : 14
  214. Format                                   : PGS
  215. Muxing mode                              : zlib
  216. Codec ID                                 : S_HDMV/PGS
  217. Codec ID/Info                            : Picture based subtitle format used on BDs/HD-DVDs
  218. Duration                                 : 1 h 55 min
  219. Bit rate                                 : 20.3 kb/s
  220. Count of elements                        : 1802
  221. Stream size                              : 16.8 MiB (0%)
  222. Title                                    : Dutch-PGS
  223. Language                                 : Dutch
  224. Default                                  : No
  225. Forced                                   : No
  226. Text #11
  227. ID                                       : 15
  228. Format                                   : PGS
  229. Muxing mode                              : zlib
  230. Codec ID                                 : S_HDMV/PGS
  231. Codec ID/Info                            : Picture based subtitle format used on BDs/HD-DVDs
  232. Duration                                 : 1 h 55 min
  233. Bit rate                                 : 20.4 kb/s
  234. Count of elements                        : 1540
  235. Stream size                              : 16.8 MiB (0%)
  236. Title                                    : Estonian-PGS
  237. Language                                 : Estonian
  238. Default                                  : No
  239. Forced                                   : No
  240. Text #12
  241. ID                                       : 16
  242. Format                                   : PGS
  243. Muxing mode                              : zlib
  244. Codec ID                                 : S_HDMV/PGS
  245. Codec ID/Info                            : Picture based subtitle format used on BDs/HD-DVDs
  246. Duration                                 : 1 h 55 min
  247. Bit rate                                 : 20.6 kb/s
  248. Count of elements                        : 1496
  249. Stream size                              : 17.0 MiB (0%)
  250. Title                                    : Finnish-PGS
  251. Language                                 : Finnish
  252. Default                                  : No
  253. Forced                                   : No
  254. Text #13
  255. ID                                       : 17
  256. Format                                   : PGS
  257. Muxing mode                              : zlib
  258. Codec ID                                 : S_HDMV/PGS
  259. Codec ID/Info                            : Picture based subtitle format used on BDs/HD-DVDs
  260. Duration                                 : 1 h 55 min
  261. Bit rate                                 : 20.3 kb/s
  262. Count of elements                        : 2108
  263. Stream size                              : 16.8 MiB (0%)
  264. Title                                    : French-PGS
  265. Language                                 : French
  266. Default                                  : No
  267. Forced                                   : No
  268. Text #14
  269. ID                                       : 18
  270. Format                                   : PGS
  271. Muxing mode                              : zlib
  272. Codec ID                                 : S_HDMV/PGS
  273. Codec ID/Info                            : Picture based subtitle format used on BDs/HD-DVDs
  274. Duration                                 : 1 h 55 min
  275. Bit rate                                 : 24.0 kb/s
  276. Count of elements                        : 1936
  277. Stream size                              : 19.8 MiB (0%)
  278. Title                                    : German-PGS
  279. Language                                 : German
  280. Default                                  : No
  281. Forced                                   : No
  282. Text #15
  283. ID                                       : 19
  284. Format                                   : PGS
  285. Muxing mode                              : zlib
  286. Codec ID                                 : S_HDMV/PGS
  287. Codec ID/Info                            : Picture based subtitle format used on BDs/HD-DVDs
  288. Duration                                 : 1 h 47 min
  289. Bit rate                                 : 28.7 kb/s
  290. Count of elements                        : 2142
  291. Stream size                              : 22.2 MiB (0%)
  292. Title                                    : German-SDH-PGS
  293. Language                                 : German
  294. Default                                  : No
  295. Forced                                   : No
  296. Text #16
  297. ID                                       : 20
  298. Format                                   : PGS
  299. Muxing mode                              : zlib
  300. Codec ID                                 : S_HDMV/PGS
  301. Codec ID/Info                            : Picture based subtitle format used on BDs/HD-DVDs
  302. Duration                                 : 1 h 55 min
  303. Bit rate                                 : 20.7 kb/s
  304. Count of elements                        : 1920
  305. Stream size                              : 17.1 MiB (0%)
  306. Title                                    : Greek-PGS
  307. Language                                 : Greek
  308. Default                                  : No
  309. Forced                                   : No
  310. Text #17
  311. ID                                       : 21
  312. Format                                   : PGS
  313. Muxing mode                              : zlib
  314. Codec ID                                 : S_HDMV/PGS
  315. Codec ID/Info                            : Picture based subtitle format used on BDs/HD-DVDs
  316. Duration                                 : 1 h 55 min
  317. Bit rate                                 : 15.3 kb/s
  318. Count of elements                        : 1922
  319. Stream size                              : 12.6 MiB (0%)
  320. Title                                    : Hebrew-PGS
  321. Language                                 : Hebrew
  322. Default                                  : No
  323. Forced                                   : No
  324. Text #18
  325. ID                                       : 22
  326. Format                                   : PGS
  327. Muxing mode                              : zlib
  328. Codec ID                                 : S_HDMV/PGS
  329. Codec ID/Info                            : Picture based subtitle format used on BDs/HD-DVDs
  330. Duration                                 : 1 h 55 min
  331. Bit rate                                 : 18.7 kb/s
  332. Count of elements                        : 1760
  333. Stream size                              : 15.4 MiB (0%)
  334. Title                                    : Hungarian-PGS
  335. Language                                 : Hungarian
  336. Default                                  : No
  337. Forced                                   : No
  338. Text #19
  339. ID                                       : 23
  340. Format                                   : PGS
  341. Muxing mode                              : zlib
  342. Codec ID                                 : S_HDMV/PGS
  343. Codec ID/Info                            : Picture based subtitle format used on BDs/HD-DVDs
  344. Duration                                 : 1 h 55 min
  345. Bit rate                                 : 21.1 kb/s
  346. Count of elements                        : 1936
  347. Stream size                              : 17.4 MiB (0%)
  348. Title                                    : Icelandic-PGS
  349. Language                                 : Icelandic
  350. Default                                  : No
  351. Forced                                   : No
  352. Text #20
  353. ID                                       : 24
  354. Format                                   : PGS
  355. Muxing mode                              : zlib
  356. Codec ID                                 : S_HDMV/PGS
  357. Codec ID/Info                            : Picture based subtitle format used on BDs/HD-DVDs
  358. Duration                                 : 1 h 55 min
  359. Bit rate                                 : 25.1 kb/s
  360. Count of elements                        : 1916
  361. Stream size                              : 20.7 MiB (0%)
  362. Title                                    : Indonesian-PGS
  363. Language                                 : Indonesian
  364. Default                                  : No
  365. Forced                                   : No
  366. Text #21
  367. ID                                       : 25
  368. Format                                   : PGS
  369. Muxing mode                              : zlib
  370. Codec ID                                 : S_HDMV/PGS
  371. Codec ID/Info                            : Picture based subtitle format used on BDs/HD-DVDs
  372. Duration                                 : 1 h 55 min
  373. Bit rate                                 : 21.3 kb/s
  374. Count of elements                        : 1908
  375. Stream size                              : 17.5 MiB (0%)
  376. Title                                    : Italian-PGS
  377. Language                                 : Italian
  378. Default                                  : No
  379. Forced                                   : No
  380. Text #22
  381. ID                                       : 26
  382. Format                                   : PGS
  383. Muxing mode                              : zlib
  384. Codec ID                                 : S_HDMV/PGS
  385. Codec ID/Info                            : Picture based subtitle format used on BDs/HD-DVDs
  386. Duration                                 : 1 h 48 min
  387. Bit rate                                 : 25.8 kb/s
  388. Count of elements                        : 2116
  389. Stream size                              : 20.0 MiB (0%)
  390. Title                                    : Italian-SDH-PGS
  391. Language                                 : Italian
  392. Default                                  : No
  393. Forced                                   : No
  394. Text #23
  395. ID                                       : 27
  396. Format                                   : PGS
  397. Muxing mode                              : zlib
  398. Codec ID                                 : S_HDMV/PGS
  399. Codec ID/Info                            : Picture based subtitle format used on BDs/HD-DVDs
  400. Duration                                 : 1 h 47 min
  401. Bit rate                                 : 19.2 kb/s
  402. Count of elements                        : 1958
  403. Stream size                              : 14.8 MiB (0%)
  404. Title                                    : Japanese-PGS
  405. Language                                 : Japanese
  406. Default                                  : No
  407. Forced                                   : No
  408. Text #24
  409. ID                                       : 28
  410. Format                                   : PGS
  411. Muxing mode                              : zlib
  412. Codec ID                                 : S_HDMV/PGS
  413. Codec ID/Info                            : Picture based subtitle format used on BDs/HD-DVDs
  414. Duration                                 : 1 h 49 min
  415. Bit rate                                 : 16.5 kb/s
  416. Count of elements                        : 1894
  417. Stream size                              : 12.9 MiB (0%)
  418. Title                                    : Korean-PGS
  419. Language                                 : Korean
  420. Default                                  : No
  421. Forced                                   : No
  422. Text #25
  423. ID                                       : 29
  424. Format                                   : PGS
  425. Muxing mode                              : zlib
  426. Codec ID                                 : S_HDMV/PGS
  427. Codec ID/Info                            : Picture based subtitle format used on BDs/HD-DVDs
  428. Duration                                 : 1 h 55 min
  429. Bit rate                                 : 18.9 kb/s
  430. Count of elements                        : 1540
  431. Stream size                              : 15.6 MiB (0%)
  432. Title                                    : Latvian-PGS
  433. Language                                 : Latvian
  434. Default                                  : No
  435. Forced                                   : No
  436. Text #26
  437. ID                                       : 30
  438. Format                                   : PGS
  439. Muxing mode                              : zlib
  440. Codec ID                                 : S_HDMV/PGS
  441. Codec ID/Info                            : Picture based subtitle format used on BDs/HD-DVDs
  442. Duration                                 : 1 h 55 min
  443. Bit rate                                 : 19.4 kb/s
  444. Count of elements                        : 1860
  445. Stream size                              : 16.0 MiB (0%)
  446. Title                                    : Lithuanian-PGS
  447. Language                                 : Lithuanian
  448. Default                                  : No
  449. Forced                                   : No
  450. Text #27
  451. ID                                       : 31
  452. Format                                   : PGS
  453. Muxing mode                              : zlib
  454. Codec ID                                 : S_HDMV/PGS
  455. Codec ID/Info                            : Picture based subtitle format used on BDs/HD-DVDs
  456. Duration                                 : 1 h 55 min
  457. Bit rate                                 : 19.7 kb/s
  458. Count of elements                        : 1504
  459. Stream size                              : 16.2 MiB (0%)
  460. Title                                    : Norwegian-PGS
  461. Language                                 : Norwegian
  462. Default                                  : No
  463. Forced                                   : No
  464. Text #28
  465. ID                                       : 32
  466. Format                                   : PGS
  467. Muxing mode                              : zlib
  468. Codec ID                                 : S_HDMV/PGS
  469. Codec ID/Info                            : Picture based subtitle format used on BDs/HD-DVDs
  470. Duration                                 : 1 h 55 min
  471. Bit rate                                 : 22.2 kb/s
  472. Count of elements                        : 1916
  473. Stream size                              : 18.3 MiB (0%)
  474. Title                                    : Polish-PGS
  475. Language                                 : Polish
  476. Default                                  : No
  477. Forced                                   : No
  478. Text #29
  479. ID                                       : 33
  480. Format                                   : PGS
  481. Muxing mode                              : zlib
  482. Codec ID                                 : S_HDMV/PGS
  483. Codec ID/Info                            : Picture based subtitle format used on BDs/HD-DVDs
  484. Duration                                 : 1 h 55 min
  485. Bit rate                                 : 20.8 kb/s
  486. Count of elements                        : 1920
  487. Stream size                              : 17.2 MiB (0%)
  488. Title                                    : Portuguese-PGS
  489. Language                                 : Portuguese
  490. Default                                  : No
  491. Forced                                   : No
  492. Text #30
  493. ID                                       : 34
  494. Format                                   : PGS
  495. Muxing mode                              : zlib
  496. Codec ID                                 : S_HDMV/PGS
  497. Codec ID/Info                            : Picture based subtitle format used on BDs/HD-DVDs
  498. Duration                                 : 1 h 55 min
  499. Bit rate                                 : 21.4 kb/s
  500. Count of elements                        : 1920
  501. Stream size                              : 17.6 MiB (0%)
  502. Title                                    : Portuguese-PGS
  503. Language                                 : Portuguese
  504. Default                                  : No
  505. Forced                                   : No
  506. Text #31
  507. ID                                       : 35
  508. Format                                   : PGS
  509. Muxing mode                              : zlib
  510. Codec ID                                 : S_HDMV/PGS
  511. Codec ID/Info                            : Picture based subtitle format used on BDs/HD-DVDs
  512. Duration                                 : 1 h 55 min
  513. Bit rate                                 : 20.4 kb/s
  514. Count of elements                        : 1706
  515. Stream size                              : 16.9 MiB (0%)
  516. Title                                    : Romanian-PGS
  517. Language                                 : Romanian
  518. Default                                  : No
  519. Forced                                   : No
  520. Text #32
  521. ID                                       : 36
  522. Format                                   : PGS
  523. Muxing mode                              : zlib
  524. Codec ID                                 : S_HDMV/PGS
  525. Codec ID/Info                            : Picture based subtitle format used on BDs/HD-DVDs
  526. Duration                                 : 1 h 55 min
  527. Bit rate                                 : 22.9 kb/s
  528. Count of elements                        : 2020
  529. Stream size                              : 19.0 MiB (0%)
  530. Title                                    : Russian-PGS
  531. Language                                 : Russian
  532. Default                                  : No
  533. Forced                                   : No
  534. Text #33
  535. ID                                       : 37
  536. Format                                   : PGS
  537. Muxing mode                              : zlib
  538. Codec ID                                 : S_HDMV/PGS
  539. Codec ID/Info                            : Picture based subtitle format used on BDs/HD-DVDs
  540. Duration                                 : 1 h 55 min
  541. Bit rate                                 : 19.7 kb/s
  542. Count of elements                        : 1916
  543. Stream size                              : 16.3 MiB (0%)
  544. Title                                    : Serbian-PGS
  545. Language                                 : Serbian
  546. Default                                  : No
  547. Forced                                   : No
  548. Text #34
  549. ID                                       : 38
  550. Format                                   : PGS
  551. Muxing mode                              : zlib
  552. Codec ID                                 : S_HDMV/PGS
  553. Codec ID/Info                            : Picture based subtitle format used on BDs/HD-DVDs
  554. Duration                                 : 1 h 55 min
  555. Bit rate                                 : 17.0 kb/s
  556. Count of elements                        : 1916
  557. Stream size                              : 14.0 MiB (0%)
  558. Title                                    : Slovenian-PGS
  559. Language                                 : Slovenian
  560. Default                                  : No
  561. Forced                                   : No
  562. Text #35
  563. ID                                       : 39
  564. Format                                   : PGS
  565. Muxing mode                              : zlib
  566. Codec ID                                 : S_HDMV/PGS
  567. Codec ID/Info                            : Picture based subtitle format used on BDs/HD-DVDs
  568. Duration                                 : 1 h 55 min
  569. Bit rate                                 : 21.9 kb/s
  570. Count of elements                        : 1964
  571. Stream size                              : 18.1 MiB (0%)
  572. Title                                    : Spanish-PGS
  573. Language                                 : Spanish
  574. Default                                  : No
  575. Forced                                   : No
  576. Text #36
  577. ID                                       : 40
  578. Format                                   : PGS
  579. Muxing mode                              : zlib
  580. Codec ID                                 : S_HDMV/PGS
  581. Codec ID/Info                            : Picture based subtitle format used on BDs/HD-DVDs
  582. Duration                                 : 1 h 47 min
  583. Bit rate                                 : 24.3 kb/s
  584. Count of elements                        : 1938
  585. Stream size                              : 18.7 MiB (0%)
  586. Title                                    : Spanish-PGS
  587. Language                                 : Spanish
  588. Default                                  : No
  589. Forced                                   : No
  590. Text #37
  591. ID                                       : 41
  592. Format                                   : PGS
  593. Muxing mode                              : zlib
  594. Codec ID                                 : S_HDMV/PGS
  595. Codec ID/Info                            : Picture based subtitle format used on BDs/HD-DVDs
  596. Duration                                 : 1 h 55 min
  597. Bit rate                                 : 20.2 kb/s
  598. Count of elements                        : 1610
  599. Stream size                              : 16.7 MiB (0%)
  600. Title                                    : Swedish-PGS
  601. Language                                 : Swedish
  602. Default                                  : No
  603. Forced                                   : No
  604. Text #38
  605. ID                                       : 42
  606. Format                                   : PGS
  607. Muxing mode                              : zlib
  608. Codec ID                                 : S_HDMV/PGS
  609. Codec ID/Info                            : Picture based subtitle format used on BDs/HD-DVDs
  610. Duration                                 : 1 h 47 min
  611. Bit rate                                 : 22.6 kb/s
  612. Count of elements                        : 1908
  613. Stream size                              : 17.4 MiB (0%)
  614. Title                                    : Thai-PGS
  615. Language                                 : Thai
  616. Default                                  : No
  617. Forced                                   : No
  618. Text #39
  619. ID                                       : 43
  620. Format                                   : PGS
  621. Muxing mode                              : zlib
  622. Codec ID                                 : S_HDMV/PGS
  623. Codec ID/Info                            : Picture based subtitle format used on BDs/HD-DVDs
  624. Duration                                 : 1 h 55 min
  625. Bit rate                                 : 22.3 kb/s
  626. Count of elements                        : 1920
  627. Stream size                              : 18.4 MiB (0%)
  628. Title                                    : Turkish-PGS
  629. Language                                 : Turkish
  630. Default                                  : No
  631. Forced                                   : No
  632. Text #40
  633. ID                                       : 44
  634. Format                                   : PGS
  635. Muxing mode                              : zlib
  636. Codec ID                                 : S_HDMV/PGS
  637. Codec ID/Info                            : Picture based subtitle format used on BDs/HD-DVDs
  638. Duration                                 : 1 h 55 min
  639. Bit rate                                 : 20.7 kb/s
  640. Count of elements                        : 1930
  641. Stream size                              : 17.1 MiB (0%)
  642. Title                                    : Ukrainian-PGS
  643. Language                                 : Ukrainian
  644. Default                                  : No
  645. Forced                                   : No
  646. Menu
  647. 00:00:00.000                             : en:Spartan Education
  648. 00:05:16.608                             : en:Messenger From Persia
  649. 00:10:22.956                             : en:Sparta\'s Reply
  650. 00:13:16.421                             : en:The Ephors
  651. 00:16:51.844                             : en:The Oracle
  652. 00:19:44.016                             : en:What Should A Free Man Do?
  653. 00:22:27.972                             : en:With Or On Your Shield
  654. 00:27:03.288                             : en:More Soldiers Than You
  655. 00:29:15.921                             : en:Hunters Of Men\'s Souls
  656. 00:33:17.495                             : en:Glorious Rain
  657. 00:35:06.438                             : en:Fraction Of The Monster
  658. 00:37:49.100                             : en:Wall Of The Dead
  659. 00:40:45.943                             : en:Ephialtes\' Request
  660. 00:44:09.981                             : en:Hot Gates Battle
  661. 00:49:16.871                             : en:Today No Spartan Dies
  662. 00:52:45.996                             : en:Make Theron Your Ally
  663. 00:55:33.247                             : en:Meeting Xerxes
  664. 01:01:40.530                             : en:Immortals Put To The Test
  665. 01:05:20.416                             : en:über Immortal\'s Fall
  666. 01:08:42.618                             : en:Numbers Count For Nothing
  667. 01:12:42.858                             : en:Blood-Drunk
  668. 01:15:50.045                             : en:Betrayer\'s Bargain
  669. 01:18:38.047                             : en:Queen\'s Bargain
  670. 01:22:20.602                             : en:Prepare For Glory
  671. 01:26:43.198                             : en:Tell Them Our Story
  672. 01:29:11.179                             : en:Trickster In True Form
  673. 01:33:58.883                             : en:Victory In Surrender
  674. 01:38:54.262                             : en:Fallen Heroes
  675. 01:43:25.866                             : en:Go Tell The Spartans
  676. 01:49:03.203                             : en:End Credits
复制代码






                                       
                                       

                                       
                                       
                                       




回复

使用道具 举报

懒得打字嘛,点击右侧快捷回复 【右侧内容,后台自定义】
您需要登录后才可以回帖 登录 | 立即加入

本版积分规则

Archiver|小黑屋| 蓝光电影网 |网站地图

Copyright © 2021 Comsenz Inc. Powered by 蓝光电影网

蓝光电影网

本站内容由用户自主分享和转载自互联网,转载目的在于传递更多信息,并不代表本网赞同其观点和对其真实性负责。

如有侵权、违反国家法律政策行为,请联系我们,我们会第一时间及时清除和处理!

举报反馈邮箱:[email protected]

快速回复 返回顶部 返回列表