找回密码

蓝光电影网

查看: 136|回复: 0

[2160p] 大卫·爱登堡:地球上的一段生命旅程/大卫·爱登堡:我和我们的星球 David.Attenborough.A.Life.on.Our.Planet.2020.2160p.NF.WEBRip.x265.10bit.SDR.DDP5.1.Atmos-NTb 12.75GB

[复制链接]
蓝光币
1084
发表于 2020-10-5 18:03:33 | 显示全部楼层 |阅读模式


◎译  名 大卫·爱登堡:地球上的一段生命旅程/大卫·爱登堡:我和我们的星球/大卫·艾登堡:活在我们的星球
◎片  名 David Attenborough: A Life on Our Planet
◎年  代 2020
◎产  地 英国
◎类  别 记载片 / 列传
◎语  言 英语
◎上映日期 2020-09-28(英国)
◎IMDb评分  8.9/10 from 154 users
◎IMDb链接  https://www.imdb.com/title/tt11989890/
◎豆瓣评分 9.5/10 from 57 users
◎豆瓣链接 https://movie.douban.com/subject/35200279/
◎片  长 83分钟
◎导  演 艾雷斯泰·法瑟吉尔 Alastair Fothergill / 基思·肖利 Keith Scholey
◎主  演 大卫·爱登堡 David Attenborough
◎标  签 记载片 | 自然 | Netflix | DavidAttenborough | 英国记载片 | 2020 | 英国 | NATURE
◎简  介


  在其94年的人生里,他曾到访过地球上的每块大陆,摸索我们星球上的荒原,并记录各类多样的异景。 现在,他第一次深思作为博物学家,平生中的决议性时辰以及所看到的自然界破坏性变化。 由天下自然基金会和屡获殊荣的建造团队Silverback配合建造的这部影片,既是人类对自然影响的第一手材料,也是对先人的期许。
  
  记载片由于COVID-19的大风行,而将天下范围的首映推延到今年9月28日,随后会在Netflix上播出。
  1. Video
  2. ID                                       : 1
  3. Format                                   : HEVC
  4. Format/Info                              : High Efficiency Video Coding
  5. Format profile                           : Main [email protected]@High
  6. Codec ID                                 : V_MPEGH/ISO/HEVC
  7. Duration                                 : 1 h 22 min
  8. Bit rate                                 : 21.3 Mb/s
  9. Width                                    : 3 840 pixels
  10. Height                                   : 2 160 pixels
  11. Display aspect ratio                     : 16:9
  12. Frame rate mode                          : Constant
  13. Frame rate                               : 23.976 (24000/1001/189150) FPS
  14. Color space                              : YUV
  15. Chroma subsampling                       : 4:2:0
  16. Bit depth                                : 10 bits
  17. Bits/(Pixel*Frame)                       : 0.107
  18. Stream size                              : 12.3 GiB (96%)
  19. Writing library                          : x265 3.0_Audcbec33bfb0f:[Windows][GCC 8.2.1][64 bit] 10bit
  20. Encoding settings                        : cpuid=1111039 / frame-threads=4 / numa-pools=28 / wpp / no-pmode / no-pme / no-psnr / no-ssim / log-level=2 / input-csp=1 / input-res=3840x2160 / interlace=0 / total-frames=119136 / level-idc=51 / high-tier=1 / uhd-bd=0 / ref=5 / no-allow-non-conformance / repeat-headers / annexb / aud / hrd / info / hash=0 / no-temporal-layers / open-gop / min-keyint=23 / keyint=250 / gop-lookahead=0 / bframes=8 / b-adapt=2 / b-pyramid / bframe-bias=0 / rc-lookahead=40 / lookahead-slices=8 / scenecut=40 / radl=0 / no-splice / no-intra-refresh / ctu=64 / min-cu-size=8 / no-rect / no-amp / max-tu-size=32 / tu-inter-depth=4 / tu-intra-depth=4 / limit-tu=4 / rdoq-level=0 / dynamic-rd=0.00 / no-ssim-rd / signhide / no-tskip / nr-intra=0 / nr-inter=0 / no-constrained-intra / strong-intra-smoothing / max-merge=4 / limit-refs=3 / no-limit-modes / me=1 / subme=5 / merange=57 / temporal-mvp / weightp / weightb / no-analyze-src-pics / deblock=-3:-3 / no-sao / no-sao-non-deblock / rd=4 / no-early-skip / rskip / no-fast-intra / no-tskip-fast / no-cu-lossless / b-intra / no-splitrd-skip / rdpenalty=0 / psy-rd=2.00 / psy-rdoq=0.00 / no-rd-refine / no-lossless / cbqpoffs=0 / crqpoffs=0 / rc=crf / crf=19.0 / qcomp=0.60 / qpstep=4 / stats-write=0 / stats-read=0 / vbv-maxrate=160000 / vbv-bufsize=160000 / vbv-init=0.9 / crf-max=0.0 / crf-min=0.0 / ipratio=1.30 / pbratio=1.20 / aq-mode=1 / aq-strength=0.85 / no-cutree / zone-count=0 / no-strict-cbr / qg-size=32 / no-rc-grain / qpmax=69 / qpmin=0 / no-const-vbv / sar=1 / overscan=0 / videoformat=5 / range=0 / colorprim=1 / transfer=1 / colormatrix=1 / chromaloc=0 / display-window=0 / max-cll=0,0 / min-luma=0 / max-luma=1023 / log2-max-poc-lsb=8 / vui-timing-info / vui-hrd-info / slices=1 / no-opt-qp-pps / no-opt-ref-list-length-pps / no-multi-pass-opt-rps / scenecut-bias=0.05 / no-opt-cu-delta-qp / no-aq-motion / no-hdr / no-hdr-opt / no-dhdr10-opt / no-idr-recovery-sei / analysis-reuse-level=5 / scale-factor=0 / refine-intra=0 / refine-inter=0 / refine-mv=0 / refine-ctu-distortion=0 / no-limit-sao / ctu-info=0 / no-lowpass-dct / refine-analysis-type=0 / copy-pic=1 / max-ausize-factor=1.0 / no-dynamic-refine / no-single-sei / no-hevc-aq / qp-adaptation-range=1.00
  21. Default                                  : Yes
  22. Forced                                   : No
  23. Color range                              : Limited
  24. Color primaries                          : BT.709
  25. Transfer characteristics                 : BT.709
  26. Matrix coefficients                      : BT.709
  27. Audio
  28. ID                                       : 2
  29. Format                                   : E-AC-3 JOC
  30. Format/Info                              : Enhanced AC-3 with Joint Object Coding
  31. Commercial name                          : Dolby Digital Plus with Dolby Atmos
  32. Codec ID                                 : A_EAC3
  33. Duration                                 : 1 h 22 min
  34. Bit rate mode                            : Constant
  35. Bit rate                                 : 768 kb/s
  36. Channel(s)                               : 6 channels
  37. Channel layout                           : L R C LFE Ls Rs
  38. Sampling rate                            : 48.0 kHz
  39. Frame rate                               : 31.250 FPS (1536 SPF)
  40. Compression mode                         : Lossy
  41. Stream size                              : 455 MiB (3%)
  42. Title                                    : English
  43. Language                                 : English
  44. Service kind                             : Complete Main
  45. Default                                  : Yes
  46. Forced                                   : No
  47. Complexity index                         : 16
  48. Number of dynamic objects                : 15
  49. Bed channel count                        : 1 channel
  50. Bed channel configuration                : LFE
  51. Text #1
  52. ID                                       : 3
  53. Format                                   : UTF-8
  54. Codec ID                                 : S_TEXT/UTF8
  55. Codec ID/Info                            : UTF-8 Plain Text
  56. Duration                                 : 1 h 15 min
  57. Bit rate                                 : 73 b/s
  58. Count of elements                        : 791
  59. Stream size                              : 40.6 KiB (0%)
  60. Title                                    : SDH
  61. Language                                 : English
  62. Default                                  : No
  63. Forced                                   : No
  64. Text #2
  65. ID                                       : 4
  66. Format                                   : UTF-8
  67. Codec ID                                 : S_TEXT/UTF8
  68. Codec ID/Info                            : UTF-8 Plain Text
  69. Duration                                 : 1 h 22 min
  70. Bit rate                                 : 98 b/s
  71. Count of elements                        : 911
  72. Stream size                              : 59.3 KiB (0%)
  73. Language                                 : Arabic
  74. Default                                  : No
  75. Forced                                   : No
  76. Text #3
  77. ID                                       : 5
  78. Format                                   : UTF-8
  79. Codec ID                                 : S_TEXT/UTF8
  80. Codec ID/Info                            : UTF-8 Plain Text
  81. Duration                                 : 1 h 22 min
  82. Bit rate                                 : 65 b/s
  83. Count of elements                        : 803
  84. Stream size                              : 39.7 KiB (0%)
  85. Language                                 : Czech
  86. Default                                  : No
  87. Forced                                   : No
  88. Text #4
  89. ID                                       : 6
  90. Format                                   : UTF-8
  91. Codec ID                                 : S_TEXT/UTF8
  92. Codec ID/Info                            : UTF-8 Plain Text
  93. Duration                                 : 1 h 22 min
  94. Bit rate                                 : 64 b/s
  95. Count of elements                        : 767
  96. Stream size                              : 38.8 KiB (0%)
  97. Language                                 : Danish
  98. Default                                  : No
  99. Forced                                   : No
  100. Text #5
  101. ID                                       : 7
  102. Format                                   : UTF-8
  103. Codec ID                                 : S_TEXT/UTF8
  104. Codec ID/Info                            : UTF-8 Plain Text
  105. Duration                                 : 1 h 22 min
  106. Bit rate                                 : 61 b/s
  107. Count of elements                        : 882
  108. Stream size                              : 37.0 KiB (0%)
  109. Language                                 : German
  110. Default                                  : No
  111. Forced                                   : No
  112. Text #6
  113. ID                                       : 8
  114. Format                                   : UTF-8
  115. Codec ID                                 : S_TEXT/UTF8
  116. Codec ID/Info                            : UTF-8 Plain Text
  117. Duration                                 : 1 h 22 min
  118. Bit rate                                 : 112 b/s
  119. Count of elements                        : 899
  120. Stream size                              : 67.5 KiB (0%)
  121. Language                                 : Greek
  122. Default                                  : No
  123. Forced                                   : No
  124. Text #7
  125. ID                                       : 9
  126. Format                                   : UTF-8
  127. Codec ID                                 : S_TEXT/UTF8
  128. Codec ID/Info                            : UTF-8 Plain Text
  129. Duration                                 : 1 h 22 min
  130. Bit rate                                 : 71 b/s
  131. Count of elements                        : 771
  132. Stream size                              : 43.5 KiB (0%)
  133. Language                                 : Spanish
  134. Default                                  : No
  135. Forced                                   : No
  136. Text #8
  137. ID                                       : 10
  138. Format                                   : UTF-8
  139. Codec ID                                 : S_TEXT/UTF8
  140. Codec ID/Info                            : UTF-8 Plain Text
  141. Duration                                 : 1 h 22 min
  142. Bit rate                                 : 70 b/s
  143. Count of elements                        : 768
  144. Stream size                              : 42.6 KiB (0%)
  145. Title                                    : European
  146. Language                                 : Spanish
  147. Default                                  : No
  148. Forced                                   : No
  149. Text #9
  150. ID                                       : 11
  151. Format                                   : UTF-8
  152. Codec ID                                 : S_TEXT/UTF8
  153. Codec ID/Info                            : UTF-8 Plain Text
  154. Duration                                 : 1 h 22 min
  155. Bit rate                                 : 60 b/s
  156. Count of elements                        : 769
  157. Stream size                              : 36.5 KiB (0%)
  158. Language                                 : Finnish
  159. Default                                  : No
  160. Forced                                   : No
  161. Text #10
  162. ID                                       : 12
  163. Format                                   : UTF-8
  164. Codec ID                                 : S_TEXT/UTF8
  165. Codec ID/Info                            : UTF-8 Plain Text
  166. Duration                                 : 1 h 22 min
  167. Bit rate                                 : 65 b/s
  168. Count of elements                        : 907
  169. Stream size                              : 39.6 KiB (0%)
  170. Language                                 : French
  171. Default                                  : No
  172. Forced                                   : No
  173. Text #11
  174. ID                                       : 13
  175. Format                                   : UTF-8
  176. Codec ID                                 : S_TEXT/UTF8
  177. Codec ID/Info                            : UTF-8 Plain Text
  178. Duration                                 : 1 h 22 min
  179. Bit rate                                 : 89 b/s
  180. Count of elements                        : 906
  181. Stream size                              : 53.7 KiB (0%)
  182. Language                                 : Hebrew
  183. Default                                  : No
  184. Forced                                   : No
  185. Text #12
  186. ID                                       : 14
  187. Format                                   : UTF-8
  188. Codec ID                                 : S_TEXT/UTF8
  189. Codec ID/Info                            : UTF-8 Plain Text
  190. Duration                                 : 1 h 22 min
  191. Bit rate                                 : 149 b/s
  192. Count of elements                        : 772
  193. Stream size                              : 90.1 KiB (0%)
  194. Language                                 : Hindi
  195. Default                                  : No
  196. Forced                                   : No
  197. Text #13
  198. ID                                       : 15
  199. Format                                   : UTF-8
  200. Codec ID                                 : S_TEXT/UTF8
  201. Codec ID/Info                            : UTF-8 Plain Text
  202. Duration                                 : 1 h 17 min
  203. Bit rate                                 : 58 b/s
  204. Count of elements                        : 884
  205. Stream size                              : 33.2 KiB (0%)
  206. Language                                 : Croatian
  207. Default                                  : No
  208. Forced                                   : No
  209. Text #14
  210. ID                                       : 16
  211. Format                                   : UTF-8
  212. Codec ID                                 : S_TEXT/UTF8
  213. Codec ID/Info                            : UTF-8 Plain Text
  214. Duration                                 : 1 h 22 min
  215. Bit rate                                 : 70 b/s
  216. Count of elements                        : 826
  217. Stream size                              : 42.3 KiB (0%)
  218. Language                                 : Hungarian
  219. Default                                  : No
  220. Forced                                   : No
  221. Text #15
  222. ID                                       : 17
  223. Format                                   : UTF-8
  224. Codec ID                                 : S_TEXT/UTF8
  225. Codec ID/Info                            : UTF-8 Plain Text
  226. Duration                                 : 1 h 22 min
  227. Bit rate                                 : 59 b/s
  228. Count of elements                        : 914
  229. Stream size                              : 36.1 KiB (0%)
  230. Language                                 : Indonesian
  231. Default                                  : No
  232. Forced                                   : No
  233. Text #16
  234. ID                                       : 18
  235. Format                                   : UTF-8
  236. Codec ID                                 : S_TEXT/UTF8
  237. Codec ID/Info                            : UTF-8 Plain Text
  238. Duration                                 : 1 h 22 min
  239. Bit rate                                 : 69 b/s
  240. Count of elements                        : 918
  241. Stream size                              : 42.0 KiB (0%)
  242. Language                                 : Italian
  243. Default                                  : No
  244. Forced                                   : No
  245. Text #17
  246. ID                                       : 19
  247. Format                                   : UTF-8
  248. Codec ID                                 : S_TEXT/UTF8
  249. Codec ID/Info                            : UTF-8 Plain Text
  250. Duration                                 : 1 h 22 min
  251. Bit rate                                 : 63 b/s
  252. Count of elements                        : 839
  253. Stream size                              : 38.0 KiB (0%)
  254. Language                                 : Japanese
  255. Default                                  : No
  256. Forced                                   : No
  257. Text #18
  258. ID                                       : 20
  259. Format                                   : UTF-8
  260. Codec ID                                 : S_TEXT/UTF8
  261. Codec ID/Info                            : UTF-8 Plain Text
  262. Duration                                 : 1 h 22 min
  263. Bit rate                                 : 74 b/s
  264. Count of elements                        : 921
  265. Stream size                              : 45.1 KiB (0%)
  266. Language                                 : Korean
  267. Default                                  : No
  268. Forced                                   : No
  269. Text #19
  270. ID                                       : 21
  271. Format                                   : UTF-8
  272. Codec ID                                 : S_TEXT/UTF8
  273. Codec ID/Info                            : UTF-8 Plain Text
  274. Duration                                 : 1 h 22 min
  275. Bit rate                                 : 56 b/s
  276. Count of elements                        : 892
  277. Stream size                              : 34.3 KiB (0%)
  278. Language                                 : Malay
  279. Default                                  : No
  280. Forced                                   : No
  281. Text #20
  282. ID                                       : 22
  283. Format                                   : UTF-8
  284. Codec ID                                 : S_TEXT/UTF8
  285. Codec ID/Info                            : UTF-8 Plain Text
  286. Duration                                 : 1 h 22 min
  287. Bit rate                                 : 64 b/s
  288. Count of elements                        : 767
  289. Stream size                              : 38.9 KiB (0%)
  290. Language                                 : Norwegian Bokmal
  291. Default                                  : No
  292. Forced                                   : No
  293. Text #21
  294. ID                                       : 23
  295. Format                                   : UTF-8
  296. Codec ID                                 : S_TEXT/UTF8
  297. Codec ID/Info                            : UTF-8 Plain Text
  298. Duration                                 : 1 h 22 min
  299. Bit rate                                 : 59 b/s
  300. Count of elements                        : 763
  301. Stream size                              : 35.7 KiB (0%)
  302. Language                                 : Dutch
  303. Default                                  : No
  304. Forced                                   : No
  305. Text #22
  306. ID                                       : 24
  307. Format                                   : UTF-8
  308. Codec ID                                 : S_TEXT/UTF8
  309. Codec ID/Info                            : UTF-8 Plain Text
  310. Duration                                 : 1 h 22 min
  311. Bit rate                                 : 66 b/s
  312. Count of elements                        : 827
  313. Stream size                              : 40.2 KiB (0%)
  314. Language                                 : Polish
  315. Default                                  : No
  316. Forced                                   : No
  317. Text #23
  318. ID                                       : 25
  319. Format                                   : UTF-8
  320. Codec ID                                 : S_TEXT/UTF8
  321. Codec ID/Info                            : UTF-8 Plain Text
  322. Duration                                 : 1 h 22 min
  323. Bit rate                                 : 72 b/s
  324. Count of elements                        : 935
  325. Stream size                              : 43.7 KiB (0%)
  326. Language                                 : Portuguese
  327. Default                                  : No
  328. Forced                                   : No
  329. Text #24
  330. ID                                       : 26
  331. Format                                   : UTF-8
  332. Codec ID                                 : S_TEXT/UTF8
  333. Codec ID/Info                            : UTF-8 Plain Text
  334. Duration                                 : 1 h 22 min
  335. Bit rate                                 : 60 b/s
  336. Count of elements                        : 867
  337. Stream size                              : 36.3 KiB (0%)
  338. Title                                    : Brazilian
  339. Language                                 : Portuguese
  340. Default                                  : No
  341. Forced                                   : No
  342. Text #25
  343. ID                                       : 27
  344. Format                                   : UTF-8
  345. Codec ID                                 : S_TEXT/UTF8
  346. Codec ID/Info                            : UTF-8 Plain Text
  347. Duration                                 : 1 h 22 min
  348. Bit rate                                 : 69 b/s
  349. Count of elements                        : 877
  350. Stream size                              : 41.8 KiB (0%)
  351. Language                                 : Romanian
  352. Default                                  : No
  353. Forced                                   : No
  354. Text #26
  355. ID                                       : 28
  356. Format                                   : UTF-8
  357. Codec ID                                 : S_TEXT/UTF8
  358. Codec ID/Info                            : UTF-8 Plain Text
  359. Duration                                 : 1 h 22 min
  360. Bit rate                                 : 99 b/s
  361. Count of elements                        : 909
  362. Stream size                              : 60.2 KiB (0%)
  363. Language                                 : Russian
  364. Default                                  : No
  365. Forced                                   : No
  366. Text #27
  367. ID                                       : 29
  368. Format                                   : UTF-8
  369. Codec ID                                 : S_TEXT/UTF8
  370. Codec ID/Info                            : UTF-8 Plain Text
  371. Duration                                 : 1 h 22 min
  372. Bit rate                                 : 68 b/s
  373. Count of elements                        : 764
  374. Stream size                              : 41.3 KiB (0%)
  375. Language                                 : Swedish
  376. Default                                  : No
  377. Forced                                   : No
  378. Text #28
  379. ID                                       : 30
  380. Format                                   : UTF-8
  381. Codec ID                                 : S_TEXT/UTF8
  382. Codec ID/Info                            : UTF-8 Plain Text
  383. Duration                                 : 1 h 22 min
  384. Bit rate                                 : 142 b/s
  385. Count of elements                        : 911
  386. Stream size                              : 85.8 KiB (0%)
  387. Language                                 : Thai
  388. Default                                  : No
  389. Forced                                   : No
  390. Text #29
  391. ID                                       : 31
  392. Format                                   : UTF-8
  393. Codec ID                                 : S_TEXT/UTF8
  394. Codec ID/Info                            : UTF-8 Plain Text
  395. Duration                                 : 1 h 22 min
  396. Bit rate                                 : 60 b/s
  397. Count of elements                        : 854
  398. Stream size                              : 36.2 KiB (0%)
  399. Language                                 : Turkish
  400. Default                                  : No
  401. Forced                                   : No
  402. Text #30
  403. ID                                       : 32
  404. Format                                   : UTF-8
  405. Codec ID                                 : S_TEXT/UTF8
  406. Codec ID/Info                            : UTF-8 Plain Text
  407. Duration                                 : 1 h 22 min
  408. Bit rate                                 : 80 b/s
  409. Count of elements                        : 856
  410. Stream size                              : 48.8 KiB (0%)
  411. Language                                 : Vietnamese
  412. Default                                  : No
  413. Forced                                   : No
  414. Text #31
  415. ID                                       : 33
  416. Format                                   : UTF-8
  417. Codec ID                                 : S_TEXT/UTF8
  418. Codec ID/Info                            : UTF-8 Plain Text
  419. Duration                                 : 1 h 22 min
  420. Bit rate                                 : 54 b/s
  421. Count of elements                        : 869
  422. Stream size                              : 32.9 KiB (0%)
  423. Title                                    : Simplified
  424. Language                                 : Chinese
  425. Default                                  : No
  426. Forced                                   : No
  427. Text #32
  428. ID                                       : 34
  429. Format                                   : UTF-8
  430. Codec ID                                 : S_TEXT/UTF8
  431. Codec ID/Info                            : UTF-8 Plain Text
  432. Duration                                 : 1 h 22 min
  433. Bit rate                                 : 50 b/s
  434. Count of elements                        : 773
  435. Stream size                              : 30.2 KiB (0%)
  436. Title                                    : Traditional
  437. Language                                 : Chinese
  438. Default                                  : No
  439. Forced                                   : No
复制代码



                                       
                                       

                                       
                                       
                                       




大卫·爱登堡:地球上的一段生命旅程/大卫·爱登堡:我和我们的星球 David.Attenborough.A.Life.on.Our.Planet.2020.2160p.NF.WEBRip.x265.10bit.SDR.DDP5.1.Atmos-NTb 12.75GB

David.Attenborough.A.Life.on.Our.Planet.2020.2160p.NF.WEBRip.x265.10bit.SDR.DDP5.zip

65.3 KB, 下载次数: 7, 下载积分: 蓝光币 -2

回复

使用道具 举报

懒得打字嘛,点击右侧快捷回复 【右侧内容,后台自定义】
您需要登录后才可以回帖 登录 | 立即加入

本版积分规则

Archiver|小黑屋| 蓝光电影网 |网站地图

Copyright © 2021 Comsenz Inc. Powered by 蓝光电影网

蓝光电影网

本站内容由用户自主分享和转载自互联网,转载目的在于传递更多信息,并不代表本网赞同其观点和对其真实性负责。

如有侵权、违反国家法律政策行为,请联系我们,我们会第一时间及时清除和处理!

举报反馈邮箱:[email protected]

快速回复 返回顶部 返回列表