找回密码

蓝光电影网

查看: 499|回复: 3

[UHD.HEVC] 最终幻想15:王者之剑 Kingsglaive.Final.Fantasy.XV.2016.2160p.BluRay.REMUX.HEVC.DTS-HD.MA.5.1-FGT 43.15GB

[复制链接]
蓝光币
1082
发表于 2021-5-13 15:39:52 | 显示全部楼层 |阅读模式


◎译  名 终极空想15:王者之剑/FF15/キングスグレイブ ファイナルファンタジーXV
◎片  名 Kingsglaive Final Fantasy XV
◎年  代 2016
◎产  地 日本,美国
◎类  别 剧情 / 科幻 / 动画 / 奇异 / 冒险
◎语  言 英语,日语
◎上映日期 2016-07-09(日本) / 2016-08-19(美国) / 2017-03-10(中国大陆)
◎IMDb评分  6.8/10 from 20451 users
◎IMDb链接  https://www.imdb.com/title/tt5595168/
◎豆瓣评分 7.2/10 from 33993 users
◎豆瓣链接 https://movie.douban.com/subject/26762709/
◎片  长 116分钟(中国大陆)
◎导  演 野末武志 Takeshi Nozue
◎编  剧 长谷川隆 Takashi Hasegawa / 坂口博信 Hironobu Sakaguchi
◎主  演 亚伦·保尔 Aaron Paul
       肖恩·宾 Sean Bean
       琳娜·海蒂 Lena Headey
       戴维·甘特 David Gant
       达林·德·保罗 Darin De Paul
       特雷弗·德瓦 Trevor Devall
       阿德里安·布薛特 Adrian Bouchet
       连姆·穆尔维 Liam Mulvey
       约翰·德米塔 John DeMita
       安德里亚·提瓦塔 Andrea Tivadar
       托德·哈伯空 Todd Haberkorn
       亚当·克罗斯代尔 Adam Croasdell
       克里斯托弗·L·帕森 Christopher L. Parson
       乔恩·坎普林 Jon Campling
       关智一 Tomokazu Seki
       山寺宏一 K?ichi Yamadera
       小松史法 Komatsu Fuminori
       鹿糠光亮 Kanuka Mitsuaki
       张琦 Qi Zhang
       罗比·戴蒙德 Robbie Daymond
       温迪·李 Wendee Lee
       米歇尔·拉夫 Michelle Ruff
       波利·埃克斯 Polly Eachus
       本·迪斯金 Ben Diskin
       马克斯·迈特尔曼 Max Mittelman
       扎克瑞·戈登 Zachary Gordon
       Alexa Kahn
       艾米·史尔斯 Amy Shiels
       维尔·博登 Will Bowden
       尼尔·纽伯恩 Neil Newbon
       雷·蔡斯 Ray Chase
       绫野刚 G? Ayano
       丘增 Masi Oka
◎标  签 CG | 日本 | 动画 | 科幻 | 游戏改编 | 行动 | 奇异 | 2016
◎简  介


  影片基于2016年电子脚色饰演游戏《终极空想XV》的天下观,组成新的水晶故事子系列的一部分。本片由野末武志执导,他曾是终极空想CGI电影《终极空想VII 来临之子》(2005)的结合导演。《终极空想XV》总监田畑端担任电影监制,长谷川隆任编剧,约翰·R·格雷厄姆负责作曲。
◎获奖情况
  第4届豆瓣电影年度榜单 ?(2017)
  3月最受关注电影(提名)
  1. Video
  2. ID                                       : 1
  3. ID in the original source medium         : 4113 (0x1011)
  4. Format                                   : HEVC
  5. Format/Info                              : High Efficiency Video Coding
  6. Format profile                           : Main [email protected]@High
  7. HDR format                               : SMPTE ST 2086, HDR10 compatible
  8. Codec ID                                 : V_MPEGH/ISO/HEVC
  9. Duration                                 : 1 h 55 min
  10. Bit rate                                 : 38.8 Mb/s
  11. Width                                    : 3 840 pixels
  12. Height                                   : 2 160 pixels
  13. Display aspect ratio                     : 16:9
  14. Frame rate mode                          : Constant
  15. Frame rate                               : 23.976 (24000/1001/189150) FPS
  16. Color space                              : YUV
  17. Chroma subsampling                       : 4:2:0 (Type 2)
  18. Bit depth                                : 10 bits
  19. Bits/(Pixel*Frame)                       : 0.195
  20. Stream size                              : 31.3 GiB (73%)
  21. Language                                 : English
  22. Default                                  : No
  23. Forced                                   : No
  24. Color range                              : Limited
  25. Color primaries                          : BT.2020
  26. Transfer characteristics                 : PQ
  27. Matrix coefficients                      : BT.2020 non-constant
  28. Mastering display color primaries        : Display P3
  29. Mastering display luminance              : min: 0.0050 cd/m2, max: 4000 cd/m2
  30. Maximum Content Light Level              : 2387 cd/m2
  31. Maximum Frame-Average Light Level        : 345 cd/m2
  32. Original source medium                   : Blu-ray

  33. Audio #1
  34. ID                                       : 2
  35. ID in the original source medium         : 4352 (0x1100)
  36. Format                                   : DTS XLL
  37. Format/Info                              : Digital Theater Systems
  38. Commercial name                          : DTS-HD Master Audio
  39. Codec ID                                 : A_DTS
  40. Duration                                 : 1 h 55 min
  41. Bit rate mode                            : Variable
  42. Bit rate                                 : 2 319 kb/s
  43. Channel(s)                               : 6 channels
  44. Channel layout                           : C L R Ls Rs LFE
  45. Sampling rate                            : 48.0 kHz
  46. Frame rate                               : 93.750 FPS (512 SPF)
  47. Bit depth                                : 16 bits
  48. Compression mode                         : Lossless
  49. Stream size                              : 1.87 GiB (4%)
  50. Title                                    : DTS-HD MA 5.1
  51. Language                                 : English
  52. Default                                  : Yes
  53. Forced                                   : No
  54. Original source medium                   : Blu-ray

  55. Audio #2
  56. ID                                       : 3
  57. Format                                   : AC-3
  58. Format/Info                              : Audio Coding 3
  59. Commercial name                          : Dolby Digital
  60. Codec ID                                 : A_AC3
  61. Duration                                 : 1 h 55 min
  62. Bit rate mode                            : Constant
  63. Bit rate                                 : 640 kb/s
  64. Channel(s)                               : 6 channels
  65. Channel layout                           : L R C LFE Ls Rs
  66. Sampling rate                            : 48.0 kHz
  67. Frame rate                               : 31.250 FPS (1536 SPF)
  68. Compression mode                         : Lossy
  69. Stream size                              : 528 MiB (1%)
  70. Title                                    : DD 5.1
  71. Language                                 : English
  72. Service kind                             : Complete Main
  73. Default                                  : No
  74. Forced                                   : No

  75. Audio #3
  76. ID                                       : 4
  77. ID in the original source medium         : 4353 (0x1101)
  78. Format                                   : DTS XLL
  79. Format/Info                              : Digital Theater Systems
  80. Commercial name                          : DTS-HD Master Audio
  81. Codec ID                                 : A_DTS
  82. Duration                                 : 1 h 55 min
  83. Bit rate mode                            : Variable
  84. Bit rate                                 : 2 254 kb/s
  85. Channel(s)                               : 6 channels
  86. Channel layout                           : C L R Ls Rs LFE
  87. Sampling rate                            : 48.0 kHz
  88. Frame rate                               : 93.750 FPS (512 SPF)
  89. Bit depth                                : 16 bits
  90. Compression mode                         : Lossless
  91. Stream size                              : 1.82 GiB (4%)
  92. Title                                    : DTS-HD MA 5.1
  93. Language                                 : French
  94. Default                                  : No
  95. Forced                                   : No
  96. Original source medium                   : Blu-ray

  97. Audio #4
  98. ID                                       : 5
  99. ID in the original source medium         : 4354 (0x1102)
  100. Format                                   : DTS XLL
  101. Format/Info                              : Digital Theater Systems
  102. Commercial name                          : DTS-HD Master Audio
  103. Codec ID                                 : A_DTS
  104. Duration                                 : 1 h 55 min
  105. Bit rate mode                            : Variable
  106. Bit rate                                 : 2 351 kb/s
  107. Channel(s)                               : 6 channels
  108. Channel layout                           : C L R Ls Rs LFE
  109. Sampling rate                            : 48.0 kHz
  110. Frame rate                               : 93.750 FPS (512 SPF)
  111. Bit depth                                : 16 bits
  112. Compression mode                         : Lossless
  113. Stream size                              : 1.89 GiB (4%)
  114. Title                                    : DTS-HD MA 5.1
  115. Language                                 : German
  116. Default                                  : No
  117. Forced                                   : No
  118. Original source medium                   : Blu-ray

  119. Audio #5
  120. ID                                       : 6
  121. ID in the original source medium         : 4355 (0x1103)
  122. Format                                   : AC-3
  123. Format/Info                              : Audio Coding 3
  124. Commercial name                          : Dolby Digital
  125. Codec ID                                 : A_AC3
  126. Duration                                 : 1 h 55 min
  127. Bit rate mode                            : Constant
  128. Bit rate                                 : 640 kb/s
  129. Channel(s)                               : 6 channels
  130. Channel layout                           : L R C LFE Ls Rs
  131. Sampling rate                            : 48.0 kHz
  132. Frame rate                               : 31.250 FPS (1536 SPF)
  133. Compression mode                         : Lossy
  134. Stream size                              : 528 MiB (1%)
  135. Title                                    : DD  5.1
  136. Language                                 : Hungarian
  137. Service kind                             : Complete Main
  138. Default                                  : No
  139. Forced                                   : No
  140. Original source medium                   : Blu-ray

  141. Audio #6
  142. ID                                       : 7
  143. ID in the original source medium         : 4356 (0x1104)
  144. Format                                   : AC-3
  145. Format/Info                              : Audio Coding 3
  146. Commercial name                          : Dolby Digital
  147. Codec ID                                 : A_AC3
  148. Duration                                 : 1 h 55 min
  149. Bit rate mode                            : Constant
  150. Bit rate                                 : 640 kb/s
  151. Channel(s)                               : 6 channels
  152. Channel layout                           : L R C LFE Ls Rs
  153. Sampling rate                            : 48.0 kHz
  154. Frame rate                               : 31.250 FPS (1536 SPF)
  155. Compression mode                         : Lossy
  156. Stream size                              : 528 MiB (1%)
  157. Title                                    : DD  5.1
  158. Language                                 : Italian
  159. Service kind                             : Complete Main
  160. Default                                  : No
  161. Forced                                   : No
  162. Original source medium                   : Blu-ray

  163. Audio #7
  164. ID                                       : 8
  165. ID in the original source medium         : 4357 (0x1105)
  166. Format                                   : DTS XLL
  167. Format/Info                              : Digital Theater Systems
  168. Commercial name                          : DTS-HD Master Audio
  169. Codec ID                                 : A_DTS
  170. Duration                                 : 1 h 55 min
  171. Bit rate mode                            : Variable
  172. Bit rate                                 : 2 311 kb/s
  173. Channel(s)                               : 6 channels
  174. Channel layout                           : C L R Ls Rs LFE
  175. Sampling rate                            : 48.0 kHz
  176. Frame rate                               : 93.750 FPS (512 SPF)
  177. Bit depth                                : 16 bits
  178. Compression mode                         : Lossless
  179. Stream size                              : 1.86 GiB (4%)
  180. Title                                    : DTS-HD MA 5.1
  181. Language                                 : Japanese
  182. Default                                  : No
  183. Forced                                   : No
  184. Original source medium                   : Blu-ray

  185. Audio #8
  186. ID                                       : 9
  187. ID in the original source medium         : 4358 (0x1106)
  188. Format                                   : AC-3
  189. Format/Info                              : Audio Coding 3
  190. Commercial name                          : Dolby Digital
  191. Codec ID                                 : A_AC3
  192. Duration                                 : 1 h 55 min
  193. Bit rate mode                            : Constant
  194. Bit rate                                 : 640 kb/s
  195. Channel(s)                               : 6 channels
  196. Channel layout                           : L R C LFE Ls Rs
  197. Sampling rate                            : 48.0 kHz
  198. Frame rate                               : 31.250 FPS (1536 SPF)
  199. Compression mode                         : Lossy
  200. Stream size                              : 528 MiB (1%)
  201. Title                                    : DD  5.1
  202. Language                                 : Polish
  203. Service kind                             : Complete Main
  204. Default                                  : No
  205. Forced                                   : No
  206. Original source medium                   : Blu-ray

  207. Audio #9
  208. ID                                       : 10
  209. ID in the original source medium         : 4359 (0x1107)
  210. Format                                   : AC-3
  211. Format/Info                              : Audio Coding 3
  212. Commercial name                          : Dolby Digital
  213. Codec ID                                 : A_AC3
  214. Duration                                 : 1 h 55 min
  215. Bit rate mode                            : Constant
  216. Bit rate                                 : 640 kb/s
  217. Channel(s)                               : 6 channels
  218. Channel layout                           : L R C LFE Ls Rs
  219. Sampling rate                            : 48.0 kHz
  220. Frame rate                               : 31.250 FPS (1536 SPF)
  221. Compression mode                         : Lossy
  222. Stream size                              : 528 MiB (1%)
  223. Title                                    : DD  5.1
  224. Language                                 : Portuguese
  225. Service kind                             : Complete Main
  226. Default                                  : No
  227. Forced                                   : No
  228. Original source medium                   : Blu-ray

  229. Audio #10
  230. ID                                       : 11
  231. ID in the original source medium         : 4360 (0x1108)
  232. Format                                   : AC-3
  233. Format/Info                              : Audio Coding 3
  234. Commercial name                          : Dolby Digital
  235. Codec ID                                 : A_AC3
  236. Duration                                 : 1 h 55 min
  237. Bit rate mode                            : Constant
  238. Bit rate                                 : 640 kb/s
  239. Channel(s)                               : 6 channels
  240. Channel layout                           : L R C LFE Ls Rs
  241. Sampling rate                            : 48.0 kHz
  242. Frame rate                               : 31.250 FPS (1536 SPF)
  243. Compression mode                         : Lossy
  244. Stream size                              : 528 MiB (1%)
  245. Title                                    : DD  5.1
  246. Language                                 : Spanish
  247. Service kind                             : Complete Main
  248. Default                                  : No
  249. Forced                                   : No
  250. Original source medium                   : Blu-ray

  251. Audio #11
  252. ID                                       : 12
  253. ID in the original source medium         : 4361 (0x1109)
  254. Format                                   : AC-3
  255. Format/Info                              : Audio Coding 3
  256. Commercial name                          : Dolby Digital
  257. Codec ID                                 : A_AC3
  258. Duration                                 : 1 h 55 min
  259. Bit rate mode                            : Constant
  260. Bit rate                                 : 640 kb/s
  261. Channel(s)                               : 6 channels
  262. Channel layout                           : L R C LFE Ls Rs
  263. Sampling rate                            : 48.0 kHz
  264. Frame rate                               : 31.250 FPS (1536 SPF)
  265. Compression mode                         : Lossy
  266. Stream size                              : 528 MiB (1%)
  267. Title                                    : DD  5.1
  268. Language                                 : Spanish
  269. Service kind                             : Complete Main
  270. Default                                  : No
  271. Forced                                   : No
  272. Original source medium                   : Blu-ray

  273. Audio #12
  274. ID                                       : 13
  275. ID in the original source medium         : 4362 (0x110A)
  276. Format                                   : AC-3
  277. Format/Info                              : Audio Coding 3
  278. Commercial name                          : Dolby Digital
  279. Codec ID                                 : A_AC3
  280. Duration                                 : 1 h 55 min
  281. Bit rate mode                            : Constant
  282. Bit rate                                 : 640 kb/s
  283. Channel(s)                               : 6 channels
  284. Channel layout                           : L R C LFE Ls Rs
  285. Sampling rate                            : 48.0 kHz
  286. Frame rate                               : 31.250 FPS (1536 SPF)
  287. Compression mode                         : Lossy
  288. Stream size                              : 528 MiB (1%)
  289. Title                                    : DD  5.1
  290. Language                                 : Thai
  291. Service kind                             : Complete Main
  292. Default                                  : No
  293. Forced                                   : No
  294. Original source medium                   : Blu-ray

  295. Text #1
  296. ID                                       : 14
  297. Format                                   : UTF-8
  298. Codec ID                                 : S_TEXT/UTF8
  299. Codec ID/Info                            : UTF-8 Plain Text
  300. Duration                                 : 1 h 55 min
  301. Bit rate                                 : 42 b/s
  302. Count of elements                        : 1075
  303. Stream size                              : 35.5 KiB (0%)
  304. Title                                    : English-SRT
  305. Language                                 : English
  306. Default                                  : Yes
  307. Forced                                   : No

  308. Text #2
  309. ID                                       : 15
  310. ID in the original source medium         : 4768 (0x12A0)
  311. Format                                   : PGS
  312. Muxing mode                              : zlib
  313. Codec ID                                 : S_HDMV/PGS
  314. Codec ID/Info                            : Picture based subtitle format used on BDs/HD-DVDs
  315. Duration                                 : 1 h 55 min
  316. Bit rate                                 : 27.6 kb/s
  317. Count of elements                        : 2493
  318. Stream size                              : 22.7 MiB (0%)
  319. Title                                    : English-SDH-PGS
  320. Language                                 : English
  321. Default                                  : No
  322. Forced                                   : No
  323. Original source medium                   : Blu-ray

  324. Text #3
  325. ID                                       : 16
  326. ID in the original source medium         : 4769 (0x12A1)
  327. Format                                   : PGS
  328. Muxing mode                              : zlib
  329. Codec ID                                 : S_HDMV/PGS
  330. Codec ID/Info                            : Picture based subtitle format used on BDs/HD-DVDs
  331. Duration                                 : 1 h 55 min
  332. Bit rate                                 : 24.9 kb/s
  333. Count of elements                        : 2154
  334. Stream size                              : 20.5 MiB (0%)
  335. Title                                    : English-PGS
  336. Language                                 : English
  337. Default                                  : No
  338. Forced                                   : No
  339. Original source medium                   : Blu-ray

  340. Text #4
  341. ID                                       : 17
  342. ID in the original source medium         : 4770 (0x12A2)
  343. Format                                   : PGS
  344. Muxing mode                              : zlib
  345. Codec ID                                 : S_HDMV/PGS
  346. Codec ID/Info                            : Picture based subtitle format used on BDs/HD-DVDs
  347. Duration                                 : 1 h 55 min
  348. Bit rate                                 : 27.6 kb/s
  349. Count of elements                        : 2491
  350. Stream size                              : 22.8 MiB (0%)
  351. Title                                    : English-SDH-PGS
  352. Language                                 : English
  353. Default                                  : No
  354. Forced                                   : No
  355. Original source medium                   : Blu-ray

  356. Text #5
  357. ID                                       : 18
  358. ID in the original source medium         : 4771 (0x12A3)
  359. Format                                   : PGS
  360. Muxing mode                              : zlib
  361. Codec ID                                 : S_HDMV/PGS
  362. Codec ID/Info                            : Picture based subtitle format used on BDs/HD-DVDs
  363. Duration                                 : 1 h 55 min
  364. Bit rate                                 : 24.9 kb/s
  365. Count of elements                        : 2154
  366. Stream size                              : 20.5 MiB (0%)
  367. Title                                    : English-PGS
  368. Language                                 : English
  369. Default                                  : No
  370. Forced                                   : No
  371. Original source medium                   : Blu-ray

  372. Text #6
  373. ID                                       : 19
  374. ID in the original source medium         : 4772 (0x12A4)
  375. Format                                   : PGS
  376. Muxing mode                              : zlib
  377. Codec ID                                 : S_HDMV/PGS
  378. Codec ID/Info                            : Picture based subtitle format used on BDs/HD-DVDs
  379. Duration                                 : 1 h 55 min
  380. Bit rate                                 : 13.7 kb/s
  381. Count of elements                        : 2166
  382. Stream size                              : 11.3 MiB (0%)
  383. Title                                    : Arabic-PGS
  384. Language                                 : Arabic
  385. Default                                  : No
  386. Forced                                   : No
  387. Original source medium                   : Blu-ray

  388. Text #7
  389. ID                                       : 20
  390. ID in the original source medium         : 4773 (0x12A5)
  391. Format                                   : PGS
  392. Muxing mode                              : zlib
  393. Codec ID                                 : S_HDMV/PGS
  394. Codec ID/Info                            : Picture based subtitle format used on BDs/HD-DVDs
  395. Duration                                 : 1 h 55 min
  396. Bit rate                                 : 22.5 kb/s
  397. Count of elements                        : 2168
  398. Stream size                              : 18.5 MiB (0%)
  399. Title                                    : Chinese-PGS
  400. Language                                 : Chinese
  401. Default                                  : No
  402. Forced                                   : No
  403. Original source medium                   : Blu-ray

  404. Text #8
  405. ID                                       : 21
  406. ID in the original source medium         : 4774 (0x12A6)
  407. Format                                   : PGS
  408. Muxing mode                              : zlib
  409. Codec ID                                 : S_HDMV/PGS
  410. Codec ID/Info                            : Picture based subtitle format used on BDs/HD-DVDs
  411. Duration                                 : 1 h 55 min
  412. Bit rate                                 : 24.2 kb/s
  413. Count of elements                        : 2168
  414. Stream size                              : 20.0 MiB (0%)
  415. Title                                    : Chinese-PGS
  416. Language                                 : Chinese
  417. Default                                  : No
  418. Forced                                   : No
  419. Original source medium                   : Blu-ray

  420. Text #9
  421. ID                                       : 22
  422. ID in the original source medium         : 4775 (0x12A7)
  423. Format                                   : PGS
  424. Muxing mode                              : zlib
  425. Codec ID                                 : S_HDMV/PGS
  426. Codec ID/Info                            : Picture based subtitle format used on BDs/HD-DVDs
  427. Duration                                 : 1 h 55 min
  428. Bit rate                                 : 22.7 kb/s
  429. Count of elements                        : 2168
  430. Stream size                              : 18.7 MiB (0%)
  431. Title                                    : Chinese-PGS
  432. Language                                 : Chinese
  433. Default                                  : No
  434. Forced                                   : No
  435. Original source medium                   : Blu-ray

  436. Text #10
  437. ID                                       : 23
  438. ID in the original source medium         : 4776 (0x12A8)
  439. Format                                   : PGS
  440. Muxing mode                              : zlib
  441. Codec ID                                 : S_HDMV/PGS
  442. Codec ID/Info                            : Picture based subtitle format used on BDs/HD-DVDs
  443. Duration                                 : 1 h 55 min
  444. Bit rate                                 : 23.4 kb/s
  445. Count of elements                        : 2168
  446. Stream size                              : 19.3 MiB (0%)
  447. Title                                    : Czech-PGS
  448. Language                                 : Czech
  449. Default                                  : No
  450. Forced                                   : No
  451. Original source medium                   : Blu-ray

  452. Text #11
  453. ID                                       : 24
  454. ID in the original source medium         : 4777 (0x12A9)
  455. Format                                   : PGS
  456. Muxing mode                              : zlib
  457. Codec ID                                 : S_HDMV/PGS
  458. Codec ID/Info                            : Picture based subtitle format used on BDs/HD-DVDs
  459. Duration                                 : 1 h 55 min
  460. Bit rate                                 : 21.8 kb/s
  461. Count of elements                        : 2162
  462. Stream size                              : 18.0 MiB (0%)
  463. Title                                    : Danish-PGS
  464. Language                                 : Danish
  465. Default                                  : No
  466. Forced                                   : No
  467. Original source medium                   : Blu-ray

  468. Text #12
  469. ID                                       : 25
  470. ID in the original source medium         : 4778 (0x12AA)
  471. Format                                   : PGS
  472. Muxing mode                              : zlib
  473. Codec ID                                 : S_HDMV/PGS
  474. Codec ID/Info                            : Picture based subtitle format used on BDs/HD-DVDs
  475. Duration                                 : 1 h 55 min
  476. Bit rate                                 : 24.8 kb/s
  477. Count of elements                        : 2058
  478. Stream size                              : 20.4 MiB (0%)
  479. Title                                    : Dutch-PGS
  480. Language                                 : Dutch
  481. Default                                  : No
  482. Forced                                   : No
  483. Original source medium                   : Blu-ray

  484. Text #13
  485. ID                                       : 26
  486. ID in the original source medium         : 4779 (0x12AB)
  487. Format                                   : PGS
  488. Muxing mode                              : zlib
  489. Codec ID                                 : S_HDMV/PGS
  490. Codec ID/Info                            : Picture based subtitle format used on BDs/HD-DVDs
  491. Duration                                 : 1 h 55 min
  492. Bit rate                                 : 25.5 kb/s
  493. Count of elements                        : 2172
  494. Stream size                              : 21.0 MiB (0%)
  495. Title                                    : Estonian-PGS
  496. Language                                 : Estonian
  497. Default                                  : No
  498. Forced                                   : No
  499. Original source medium                   : Blu-ray

  500. Text #14
  501. ID                                       : 27
  502. ID in the original source medium         : 4780 (0x12AC)
  503. Format                                   : PGS
  504. Muxing mode                              : zlib
  505. Codec ID                                 : S_HDMV/PGS
  506. Codec ID/Info                            : Picture based subtitle format used on BDs/HD-DVDs
  507. Duration                                 : 1 h 55 min
  508. Bit rate                                 : 25.9 kb/s
  509. Count of elements                        : 2090
  510. Stream size                              : 21.3 MiB (0%)
  511. Title                                    : Finnish-PGS
  512. Language                                 : Finnish
  513. Default                                  : No
  514. Forced                                   : No
  515. Original source medium                   : Blu-ray

  516. Text #15
  517. ID                                       : 28
  518. ID in the original source medium         : 4781 (0x12AD)
  519. Format                                   : PGS
  520. Muxing mode                              : zlib
  521. Codec ID                                 : S_HDMV/PGS
  522. Codec ID/Info                            : Picture based subtitle format used on BDs/HD-DVDs
  523. Duration                                 : 1 h 55 min
  524. Bit rate                                 : 20.7 kb/s
  525. Count of elements                        : 2170
  526. Stream size                              : 17.1 MiB (0%)
  527. Title                                    : French-PGS
  528. Language                                 : French
  529. Default                                  : No
  530. Forced                                   : No
  531. Original source medium                   : Blu-ray

  532. Text #16
  533. ID                                       : 29
  534. ID in the original source medium         : 4781 (0x12AD)
  535. Format                                   : PGS
  536. Muxing mode                              : zlib
  537. Codec ID                                 : S_HDMV/PGS
  538. Codec ID/Info                            : Picture based subtitle format used on BDs/HD-DVDs
  539. Duration                                 : 42 min 55 s
  540. Bit rate                                 : 532 b/s
  541. Count of elements                        : 18
  542. Stream size                              : 167 KiB (0%)
  543. Title                                    : French-FORCED-PGS
  544. Language                                 : French
  545. Default                                  : No
  546. Forced                                   : No
  547. Original source medium                   : Blu-ray

  548. Text #17
  549. ID                                       : 30
  550. ID in the original source medium         : 4782 (0x12AE)
  551. Format                                   : PGS
  552. Muxing mode                              : zlib
  553. Codec ID                                 : S_HDMV/PGS
  554. Codec ID/Info                            : Picture based subtitle format used on BDs/HD-DVDs
  555. Duration                                 : 1 h 55 min
  556. Bit rate                                 : 29.8 kb/s
  557. Count of elements                        : 2242
  558. Stream size                              : 24.6 MiB (0%)
  559. Title                                    : German-PGS
  560. Language                                 : German
  561. Default                                  : No
  562. Forced                                   : No
  563. Original source medium                   : Blu-ray

  564. Text #18
  565. ID                                       : 31
  566. ID in the original source medium         : 4782 (0x12AE)
  567. Format                                   : PGS
  568. Muxing mode                              : zlib
  569. Codec ID                                 : S_HDMV/PGS
  570. Codec ID/Info                            : Picture based subtitle format used on BDs/HD-DVDs
  571. Duration                                 : 42 min 55 s
  572. Bit rate                                 : 612 b/s
  573. Count of elements                        : 16
  574. Stream size                              : 193 KiB (0%)
  575. Title                                    : German-FORCED-PGS
  576. Language                                 : German
  577. Default                                  : No
  578. Forced                                   : No
  579. Original source medium                   : Blu-ray

  580. Text #19
  581. ID                                       : 32
  582. ID in the original source medium         : 4783 (0x12AF)
  583. Format                                   : PGS
  584. Muxing mode                              : zlib
  585. Codec ID                                 : S_HDMV/PGS
  586. Codec ID/Info                            : Picture based subtitle format used on BDs/HD-DVDs
  587. Duration                                 : 1 h 55 min
  588. Bit rate                                 : 26.1 kb/s
  589. Count of elements                        : 2168
  590. Stream size                              : 21.5 MiB (0%)
  591. Title                                    : Greek-PGS
  592. Language                                 : Greek
  593. Default                                  : No
  594. Forced                                   : No
  595. Original source medium                   : Blu-ray

  596. Text #20
  597. ID                                       : 33
  598. ID in the original source medium         : 4784 (0x12B0)
  599. Format                                   : PGS
  600. Muxing mode                              : zlib
  601. Codec ID                                 : S_HDMV/PGS
  602. Codec ID/Info                            : Picture based subtitle format used on BDs/HD-DVDs
  603. Duration                                 : 1 h 55 min
  604. Bit rate                                 : 24.2 kb/s
  605. Count of elements                        : 2168
  606. Stream size                              : 19.9 MiB (0%)
  607. Title                                    : Hungarian-PGS
  608. Language                                 : Hungarian
  609. Default                                  : No
  610. Forced                                   : No
  611. Original source medium                   : Blu-ray

  612. Text #21
  613. ID                                       : 34
  614. ID in the original source medium         : 4784 (0x12B0)
  615. Format                                   : PGS
  616. Muxing mode                              : zlib
  617. Codec ID                                 : S_HDMV/PGS
  618. Codec ID/Info                            : Picture based subtitle format used on BDs/HD-DVDs
  619. Duration                                 : 42 min 55 s
  620. Bit rate                                 : 548 b/s
  621. Count of elements                        : 16
  622. Stream size                              : 172 KiB (0%)
  623. Title                                    : Hungarian-FORCED-PGS
  624. Language                                 : Hungarian
  625. Default                                  : No
  626. Forced                                   : No
  627. Original source medium                   : Blu-ray

  628. Text #22
  629. ID                                       : 35
  630. ID in the original source medium         : 4785 (0x12B1)
  631. Format                                   : PGS
  632. Muxing mode                              : zlib
  633. Codec ID                                 : S_HDMV/PGS
  634. Codec ID/Info                            : Picture based subtitle format used on BDs/HD-DVDs
  635. Duration                                 : 1 h 55 min
  636. Bit rate                                 : 26.2 kb/s
  637. Count of elements                        : 2176
  638. Stream size                              : 21.6 MiB (0%)
  639. Title                                    : Italian-PGS
  640. Language                                 : Italian
  641. Default                                  : No
  642. Forced                                   : No
  643. Original source medium                   : Blu-ray

  644. Text #23
  645. ID                                       : 36
  646. ID in the original source medium         : 4785 (0x12B1)
  647. Format                                   : PGS
  648. Muxing mode                              : zlib
  649. Codec ID                                 : S_HDMV/PGS
  650. Codec ID/Info                            : Picture based subtitle format used on BDs/HD-DVDs
  651. Duration                                 : 42 min 55 s
  652. Bit rate                                 : 473 b/s
  653. Count of elements                        : 16
  654. Stream size                              : 149 KiB (0%)
  655. Title                                    : Italian-FORCED-PGS
  656. Language                                 : Italian
  657. Default                                  : No
  658. Forced                                   : No
  659. Original source medium                   : Blu-ray

  660. Text #24
  661. ID                                       : 37
  662. ID in the original source medium         : 4786 (0x12B2)
  663. Format                                   : PGS
  664. Muxing mode                              : zlib
  665. Codec ID                                 : S_HDMV/PGS
  666. Codec ID/Info                            : Picture based subtitle format used on BDs/HD-DVDs
  667. Duration                                 : 1 h 55 min
  668. Bit rate                                 : 19.8 kb/s
  669. Count of elements                        : 2170
  670. Stream size                              : 16.3 MiB (0%)
  671. Title                                    : Korean-PGS
  672. Language                                 : Korean
  673. Default                                  : No
  674. Forced                                   : No
  675. Original source medium                   : Blu-ray

  676. Text #25
  677. ID                                       : 38
  678. ID in the original source medium         : 4787 (0x12B3)
  679. Format                                   : PGS
  680. Muxing mode                              : zlib
  681. Codec ID                                 : S_HDMV/PGS
  682. Codec ID/Info                            : Picture based subtitle format used on BDs/HD-DVDs
  683. Duration                                 : 1 h 55 min
  684. Bit rate                                 : 23.0 kb/s
  685. Count of elements                        : 2168
  686. Stream size                              : 19.0 MiB (0%)
  687. Title                                    : Latvian-PGS
  688. Language                                 : Latvian
  689. Default                                  : No
  690. Forced                                   : No
  691. Original source medium                   : Blu-ray

  692. Text #26
  693. ID                                       : 39
  694. ID in the original source medium         : 4788 (0x12B4)
  695. Format                                   : PGS
  696. Muxing mode                              : zlib
  697. Codec ID                                 : S_HDMV/PGS
  698. Codec ID/Info                            : Picture based subtitle format used on BDs/HD-DVDs
  699. Duration                                 : 1 h 55 min
  700. Bit rate                                 : 22.2 kb/s
  701. Count of elements                        : 2162
  702. Stream size                              : 18.3 MiB (0%)
  703. Title                                    : Lithuanian-PGS
  704. Language                                 : Lithuanian
  705. Default                                  : No
  706. Forced                                   : No
  707. Original source medium                   : Blu-ray

  708. Text #27
  709. ID                                       : 40
  710. ID in the original source medium         : 4789 (0x12B5)
  711. Format                                   : PGS
  712. Muxing mode                              : zlib
  713. Codec ID                                 : S_HDMV/PGS
  714. Codec ID/Info                            : Picture based subtitle format used on BDs/HD-DVDs
  715. Duration                                 : 1 h 55 min
  716. Bit rate                                 : 24.0 kb/s
  717. Count of elements                        : 2080
  718. Stream size                              : 19.8 MiB (0%)
  719. Title                                    : Norwegian-PGS
  720. Language                                 : Norwegian
  721. Default                                  : No
  722. Forced                                   : No
  723. Original source medium                   : Blu-ray

  724. Text #28
  725. ID                                       : 41
  726. ID in the original source medium         : 4790 (0x12B6)
  727. Format                                   : PGS
  728. Muxing mode                              : zlib
  729. Codec ID                                 : S_HDMV/PGS
  730. Codec ID/Info                            : Picture based subtitle format used on BDs/HD-DVDs
  731. Duration                                 : 1 h 55 min
  732. Bit rate                                 : 25.5 kb/s
  733. Count of elements                        : 2168
  734. Stream size                              : 21.0 MiB (0%)
  735. Title                                    : Polish-PGS
  736. Language                                 : Polish
  737. Default                                  : No
  738. Forced                                   : No
  739. Original source medium                   : Blu-ray

  740. Text #29
  741. ID                                       : 42
  742. ID in the original source medium         : 4790 (0x12B6)
  743. Format                                   : PGS
  744. Muxing mode                              : zlib
  745. Codec ID                                 : S_HDMV/PGS
  746. Codec ID/Info                            : Picture based subtitle format used on BDs/HD-DVDs
  747. Duration                                 : 1 s 63 ms
  748. Bit rate                                 : 102 kb/s
  749. Count of elements                        : 2
  750. Stream size                              : 13.3 KiB (0%)
  751. Title                                    : Polish-FORCED-PGS
  752. Language                                 : Polish
  753. Default                                  : No
  754. Forced                                   : No
  755. Original source medium                   : Blu-ray

  756. Text #30
  757. ID                                       : 43
  758. ID in the original source medium         : 4791 (0x12B7)
  759. Format                                   : PGS
  760. Muxing mode                              : zlib
  761. Codec ID                                 : S_HDMV/PGS
  762. Codec ID/Info                            : Picture based subtitle format used on BDs/HD-DVDs
  763. Duration                                 : 1 h 55 min
  764. Bit rate                                 : 25.7 kb/s
  765. Count of elements                        : 2166
  766. Stream size                              : 21.2 MiB (0%)
  767. Title                                    : Portuguese-PGS
  768. Language                                 : Portuguese
  769. Default                                  : No
  770. Forced                                   : No
  771. Original source medium                   : Blu-ray

  772. Text #31
  773. ID                                       : 44
  774. ID in the original source medium         : 4791 (0x12B7)
  775. Format                                   : PGS
  776. Muxing mode                              : zlib
  777. Codec ID                                 : S_HDMV/PGS
  778. Codec ID/Info                            : Picture based subtitle format used on BDs/HD-DVDs
  779. Duration                                 : 1 s 63 ms
  780. Bit rate                                 : 65.3 kb/s
  781. Count of elements                        : 2
  782. Stream size                              : 8.48 KiB (0%)
  783. Title                                    : Portuguese-FORCED-PGS
  784. Language                                 : Portuguese
  785. Default                                  : No
  786. Forced                                   : No
  787. Original source medium                   : Blu-ray

  788. Text #32
  789. ID                                       : 45
  790. ID in the original source medium         : 4792 (0x12B8)
  791. Format                                   : PGS
  792. Muxing mode                              : zlib
  793. Codec ID                                 : S_HDMV/PGS
  794. Codec ID/Info                            : Picture based subtitle format used on BDs/HD-DVDs
  795. Duration                                 : 1 h 55 min
  796. Bit rate                                 : 23.9 kb/s
  797. Count of elements                        : 2144
  798. Stream size                              : 19.7 MiB (0%)
  799. Title                                    : Romanian-PGS
  800. Language                                 : Romanian
  801. Default                                  : No
  802. Forced                                   : No
  803. Original source medium                   : Blu-ray

  804. Text #33
  805. ID                                       : 46
  806. ID in the original source medium         : 4793 (0x12B9)
  807. Format                                   : PGS
  808. Muxing mode                              : zlib
  809. Codec ID                                 : S_HDMV/PGS
  810. Codec ID/Info                            : Picture based subtitle format used on BDs/HD-DVDs
  811. Duration                                 : 1 h 55 min
  812. Bit rate                                 : 25.6 kb/s
  813. Count of elements                        : 2184
  814. Stream size                              : 21.1 MiB (0%)
  815. Title                                    : Russian-PGS
  816. Language                                 : Russian
  817. Default                                  : No
  818. Forced                                   : No
  819. Original source medium                   : Blu-ray

  820. Text #34
  821. ID                                       : 47
  822. ID in the original source medium         : 4794 (0x12BA)
  823. Format                                   : PGS
  824. Muxing mode                              : zlib
  825. Codec ID                                 : S_HDMV/PGS
  826. Codec ID/Info                            : Picture based subtitle format used on BDs/HD-DVDs
  827. Duration                                 : 1 h 55 min
  828. Bit rate                                 : 25.0 kb/s
  829. Count of elements                        : 2178
  830. Stream size                              : 20.6 MiB (0%)
  831. Title                                    : Spanish-PGS
  832. Language                                 : Spanish
  833. Default                                  : No
  834. Forced                                   : No
  835. Original source medium                   : Blu-ray

  836. Text #35
  837. ID                                       : 48
  838. ID in the original source medium         : 4794 (0x12BA)
  839. Format                                   : PGS
  840. Muxing mode                              : zlib
  841. Codec ID                                 : S_HDMV/PGS
  842. Codec ID/Info                            : Picture based subtitle format used on BDs/HD-DVDs
  843. Duration                                 : 42 min 55 s
  844. Bit rate                                 : 537 b/s
  845. Count of elements                        : 18
  846. Stream size                              : 169 KiB (0%)
  847. Title                                    : Spanish-FORCED-PGS
  848. Language                                 : Spanish
  849. Default                                  : No
  850. Forced                                   : No
  851. Original source medium                   : Blu-ray

  852. Text #36
  853. ID                                       : 49
  854. ID in the original source medium         : 4795 (0x12BB)
  855. Format                                   : PGS
  856. Muxing mode                              : zlib
  857. Codec ID                                 : S_HDMV/PGS
  858. Codec ID/Info                            : Picture based subtitle format used on BDs/HD-DVDs
  859. Duration                                 : 1 h 55 min
  860. Bit rate                                 : 25.1 kb/s
  861. Count of elements                        : 2184
  862. Stream size                              : 20.7 MiB (0%)
  863. Title                                    : Spanish-PGS
  864. Language                                 : Spanish
  865. Default                                  : No
  866. Forced                                   : No
  867. Original source medium                   : Blu-ray

  868. Text #37
  869. ID                                       : 50
  870. ID in the original source medium         : 4795 (0x12BB)
  871. Format                                   : PGS
  872. Muxing mode                              : zlib
  873. Codec ID                                 : S_HDMV/PGS
  874. Codec ID/Info                            : Picture based subtitle format used on BDs/HD-DVDs
  875. Duration                                 : 3 s 233 ms
  876. Bit rate                                 : 48.8 kb/s
  877. Count of elements                        : 2
  878. Stream size                              : 19.2 KiB (0%)
  879. Title                                    : Spanish-FORCED-PGS
  880. Language                                 : Spanish
  881. Default                                  : No
  882. Forced                                   : No
  883. Original source medium                   : Blu-ray

  884. Text #38
  885. ID                                       : 51
  886. ID in the original source medium         : 4796 (0x12BC)
  887. Format                                   : PGS
  888. Muxing mode                              : zlib
  889. Codec ID                                 : S_HDMV/PGS
  890. Codec ID/Info                            : Picture based subtitle format used on BDs/HD-DVDs
  891. Duration                                 : 1 h 55 min
  892. Bit rate                                 : 25.3 kb/s
  893. Count of elements                        : 2170
  894. Stream size                              : 20.8 MiB (0%)
  895. Title                                    : Swedish-PGS
  896. Language                                 : Swedish
  897. Default                                  : No
  898. Forced                                   : No
  899. Original source medium                   : Blu-ray

  900. Text #39
  901. ID                                       : 52
  902. ID in the original source medium         : 4797 (0x12BD)
  903. Format                                   : PGS
  904. Muxing mode                              : zlib
  905. Codec ID                                 : S_HDMV/PGS
  906. Codec ID/Info                            : Picture based subtitle format used on BDs/HD-DVDs
  907. Duration                                 : 1 h 55 min
  908. Bit rate                                 : 23.3 kb/s
  909. Count of elements                        : 2168
  910. Stream size                              : 19.2 MiB (0%)
  911. Title                                    : Thai-PGS
  912. Language                                 : Thai
  913. Default                                  : No
  914. Forced                                   : No
  915. Original source medium                   : Blu-ray

  916. Text #40
  917. ID                                       : 53
  918. ID in the original source medium         : 4798 (0x12BE)
  919. Format                                   : PGS
  920. Muxing mode                              : zlib
  921. Codec ID                                 : S_HDMV/PGS
  922. Codec ID/Info                            : Picture based subtitle format used on BDs/HD-DVDs
  923. Duration                                 : 1 h 55 min
  924. Bit rate                                 : 23.7 kb/s
  925. Count of elements                        : 2172
  926. Stream size                              : 19.5 MiB (0%)
  927. Title                                    : Turkish-PGS
  928. Language                                 : Turkish
  929. Default                                  : No
  930. Forced                                   : No
  931. Original source medium                   : Blu-ray

  932. Text #41
  933. ID                                       : 54
  934. ID in the original source medium         : 4799 (0x12BF)
  935. Format                                   : PGS
  936. Muxing mode                              : zlib
  937. Codec ID                                 : S_HDMV/PGS
  938. Codec ID/Info                            : Picture based subtitle format used on BDs/HD-DVDs
  939. Duration                                 : 40 min 15 s
  940. Bit rate                                 : 364 b/s
  941. Count of elements                        : 14
  942. Stream size                              : 107 KiB (0%)
  943. Title                                    : Japanese-FORCED-PGS
  944. Language                                 : Japanese
  945. Default                                  : No
  946. Forced                                   : No
  947. Original source medium                   : Blu-ray

  948. Menu
  949. 00:00:00.000                             : en:Chapter 01
  950. 00:11:54.714                             : en:Chapter 02
  951. 00:15:36.644                             : en:Chapter 03
  952. 00:20:12.294                             : en:Chapter 04
  953. 00:25:29.903                             : en:Chapter 05
  954. 00:32:02.795                             : en:Chapter 06
  955. 00:38:50.119                             : en:Chapter 07
  956. 00:43:33.152                             : en:Chapter 08
  957. 00:49:54.032                             : en:Chapter 09
  958. 00:54:47.158                             : en:Chapter 10
  959. 01:02:01.509                             : en:Chapter 11
  960. 01:12:43.567                             : en:Chapter 12
  961. 01:20:48.301                             : en:Chapter 13
  962. 01:26:12.876                             : en:Chapter 14
  963. 01:37:06.445                             : en:Chapter 15
  964. 01:41:45.140                             : en:Chapter 16
复制代码




                                       
                                       

                                       
                                       
                                       




回复

使用道具 举报

蓝光币
523
发表于 2021-8-30 08:19:54 | 显示全部楼层
感谢楼主分享
回复 支持 反对

使用道具 举报

蓝光币
16
发表于 2021-11-10 19:19:31 | 显示全部楼层
楼主发贴辛苦了,谢谢楼主分享!我觉得蓝光电影网是注册对了!
回复 支持 反对

使用道具 举报

蓝光币
2
发表于 2022-4-24 14:13:37 | 显示全部楼层

感谢楼主分享
回复 支持 反对

使用道具 举报

懒得打字嘛,点击右侧快捷回复 【右侧内容,后台自定义】
您需要登录后才可以回帖 登录 | 立即加入

本版积分规则

Archiver|小黑屋| 蓝光电影网 |网站地图

Copyright © 2021 Comsenz Inc. Powered by 蓝光电影网

蓝光电影网

本站内容由用户自主分享和转载自互联网,转载目的在于传递更多信息,并不代表本网赞同其观点和对其真实性负责。

如有侵权、违反国家法律政策行为,请联系我们,我们会第一时间及时清除和处理!

举报反馈邮箱:[email protected]

快速回复 返回顶部 返回列表