找回密码

蓝光电影网

查看: 129|回复: 0

[2160p] 罗伯特·布鲁斯/苏格兰之王 布鲁斯一世 Robert.the.Bruce.2019.2160p.BluRay.x264.8bit.SDR.DTS-HD.MA.5.1-SWTYBLZ 46.20GB

[复制链接]
蓝光币
1082
发表于 2020-10-4 10:43:38 | 显示全部楼层 |阅读模式


◎译  名 罗伯特·布鲁斯/苏格兰之王 布鲁斯一世
◎片  名 Robert the Bruce
◎年  代 2019
◎产  地 美国
◎类  别 历史
◎语  言 英语
◎上映日期 2019-06-28(英国)
◎IMDb评分  5.4/10 from 1786 users
◎IMDb链接  https://www.imdb.com/title/tt8000908/
◎豆瓣评分 /10 from 0 users
◎豆瓣链接 https://movie.douban.com/subject/30199661/
◎片  长 124分钟
◎导  演 理查德·格雷 Richard Gray
◎编  剧 安古斯·麦克菲登 Angus Macfadyen
◎主  演 艾玛·肯尼 Emma Kenney
       扎克·麦克格温 Zach McGowan
       杰瑞德·哈里斯 Jared Harris
       派屈克·福吉特 Patrick Fugit
       凯文·麦克纳利 Kevin McNally
       安娜·哈彻森 Anna Hutchison
       梅洛拉·沃尔特斯 Melora Walters
       特丽莎·贝特曼 Talitha Bateman
       安古斯·麦克菲登 Angus Macfadyen
       Mhairi Calvey
       加布里埃尔·贝特曼 Gabriel Bateman
       迪尔梅德·默塔 Diarmaid Murtagh
       沙恩·科费 Shane Coffey
◎标  签 战争 | 历史 | [歐美] | 2019 | BDMV
◎简  介


  The story of nobleman-turned-outlaw hero who was crowned king of Scots in the 14th century.
  1. Video
  2. ID                                       : 1
  3. Format                                   : AVC
  4. Format/Info                              : Advanced Video Codec
  5. Format profile                           : [email protected]
  6. Format settings                          : CABAC / 5 Ref Frames
  7. Format settings, CABAC                   : Yes
  8. Format settings, Reference frames        : 5 frames
  9. Codec ID                                 : V_MPEG4/ISO/AVC
  10. Duration                                 : 2 h 3 min
  11. Bit rate                                 : 50.3 Mb/s
  12. Width                                    : 3 840 pixels
  13. Height                                   : 1 600 pixels
  14. Display aspect ratio                     : 2.40:1
  15. Frame rate mode                          : Constant
  16. Frame rate                               : 23.976 (24000/1001/189150) FPS
  17. Color space                              : YUV
  18. Chroma subsampling                       : 4:2:0
  19. Bit depth                                : 8 bits
  20. Scan type                                : Progressive
  21. Bits/(Pixel*Frame)                       : 0.342
  22. Stream size                              : 43.5 GiB (94%)
  23. Title                                    : Robert.the.Bruce.2019.2160p.BluRay.x264.8bit.SDR.DTS-HD.MA.5.1-SWTYBLZ
  24. Writing library                          : x264 core 157 r2935 545de2f
  25. Encoding settings                        : cabac=1 / ref=5 / deblock=1:-1:-1 / analyse=0x3:0x113 / me=umh / subme=10 / psy=1 / psy_rd=1.00:0.15 / mixed_ref=1 / me_range=48 / chroma_me=1 / trellis=2 / 8x8dct=1 / cqm=0 / deadzone=21,11 / fast_pskip=1 / chroma_qp_offset=-3 / threads=48 / lookahead_threads=4 / sliced_threads=0 / nr=0 / decimate=0 / interlaced=0 / bluray_compat=0 / constrained_intra=0 / bframes=3 / b_pyramid=2 / b_adapt=2 / b_bias=0 / direct=3 / weightb=1 / open_gop=0 / weightp=2 / keyint=250 / keyint_min=23 / scenecut=40 / intra_refresh=0 / rc_lookahead=50 / rc=crf / mbtree=1 / crf=22.0 / qcomp=0.60 / qpmin=0 / qpmax=69 / qpstep=4 / ip_ratio=1.40 / aq=1:1.00
  26. Default                                  : Yes
  27. Forced                                   : No
  28. Audio #1
  29. ID                                       : 2
  30. ID in the original source medium         : 4353 (0x1101)
  31. Format                                   : DTS XLL
  32. Format/Info                              : Digital Theater Systems
  33. Commercial name                          : DTS-HD Master Audio
  34. Codec ID                                 : A_DTS
  35. Duration                                 : 2 h 3 min
  36. Bit rate mode                            : Variable
  37. Bit rate                                 : 2 353 kb/s
  38. Channel(s)                               : 6 channels
  39. Channel layout                           : C L R Ls Rs LFE
  40. Sampling rate                            : 48.0 kHz
  41. Frame rate                               : 93.750 FPS (512 SPF)
  42. Bit depth                                : 16 bits
  43. Compression mode                         : Lossless
  44. Stream size                              : 2.03 GiB (4%)
  45. Title                                    : Robert.the.Bruce.2019.2160p.BluRay.x264.8bit.SDR.DTS-HD.MA.5.1-SWTYBLZ
  46. Language                                 : English
  47. Default                                  : Yes
  48. Forced                                   : No
  49. Original source medium                   : Blu-ray
  50. Audio #2
  51. ID                                       : 3
  52. Format                                   : AC-3
  53. Format/Info                              : Audio Coding 3
  54. Commercial name                          : Dolby Digital
  55. Codec ID                                 : A_AC3
  56. Duration                                 : 2 h 3 min
  57. Bit rate mode                            : Constant
  58. Bit rate                                 : 640 kb/s
  59. Channel(s)                               : 6 channels
  60. Channel layout                           : L R C LFE Ls Rs
  61. Sampling rate                            : 48.0 kHz
  62. Frame rate                               : 31.250 FPS (1536 SPF)
  63. Compression mode                         : Lossy
  64. Stream size                              : 566 MiB (1%)
  65. Title                                    : Robert.the.Bruce.2019.2160p.BluRay.x265.10bit.SDR.DTS-HD.MA.5.1-SWTYBLZ
  66. Language                                 : English
  67. Service kind                             : Complete Main
  68. Default                                  : No
  69. Forced                                   : No
  70. Text #1
  71. ID                                       : 4
  72. Format                                   : UTF-8
  73. Codec ID                                 : S_TEXT/UTF8
  74. Codec ID/Info                            : UTF-8 Plain Text
  75. Duration                                 : 1 h 54 min
  76. Bit rate                                 : 37 b/s
  77. Count of elements                        : 1279
  78. Stream size                              : 31.6 KiB (0%)
  79. Title                                    : English-SRT
  80. Language                                 : English
  81. Default                                  : Yes
  82. Forced                                   : No
  83. Text #2
  84. ID                                       : 5
  85. ID in the original source medium         : 4768 (0x12A0)
  86. Format                                   : PGS
  87. Muxing mode                              : zlib
  88. Codec ID                                 : S_HDMV/PGS
  89. Codec ID/Info                            : Picture based subtitle format used on BDs/HD-DVDs
  90. Duration                                 : 1 h 54 min
  91. Bit rate                                 : 29.1 kb/s
  92. Count of elements                        : 2046
  93. Stream size                              : 23.8 MiB (0%)
  94. Title                                    : German-PGS
  95. Language                                 : German
  96. Default                                  : No
  97. Forced                                   : No
  98. Original source medium                   : Blu-ray
  99. Menu
  100. 00:00:00.000                             : en:Chapter 01
  101. 00:10:30.171                             : en:Chapter 02
  102. 00:19:11.984                             : en:Chapter 03
  103. 00:31:11.411                             : en:Chapter 04
  104. 00:39:13.184                             : en:Chapter 05
  105. 00:49:06.693                             : en:Chapter 06
  106. 00:59:19.180                             : en:Chapter 07
  107. 01:08:44.703                             : en:Chapter 08
  108. 01:19:05.407                             : en:Chapter 09
  109. 01:28:37.312                             : en:Chapter 10
  110. 01:38:22.897                             : en:Chapter 11
  111. 01:48:25.832                             : en:Chapter 12
复制代码



                                       
                                       

                                       
                                       
                                       




回复

使用道具 举报

懒得打字嘛,点击右侧快捷回复 【右侧内容,后台自定义】
您需要登录后才可以回帖 登录 | 立即加入

本版积分规则

Archiver|小黑屋| 蓝光电影网 |网站地图

Copyright © 2021 Comsenz Inc. Powered by 蓝光电影网

蓝光电影网

本站内容由用户自主分享和转载自互联网,转载目的在于传递更多信息,并不代表本网赞同其观点和对其真实性负责。

如有侵权、违反国家法律政策行为,请联系我们,我们会第一时间及时清除和处理!

举报反馈邮箱:[email protected]

快速回复 返回顶部 返回列表