找回密码

蓝光电影网

查看: 240|回复: 0

[UHD.HEVC] 前哨/72小时前哨救援 The.Outpost.2019.2160p.BluRay.REMUX.HEVC.DTS-HD.MA.5.1-FGT 69.71GB

[复制链接]
蓝光币
1084
发表于 2021-5-13 15:34:20 | 显示全部楼层 |阅读模式


◎译  名 前哨/72小时前哨救济(台)/前哨基地
◎片  名 The Outpost
◎年  代 2020
◎产  地 保加利亚,美国
◎类  别 剧情 / 历史 / 战争
◎语  言 英语
◎上映日期 2020-07-03(美国)
◎IMDb评分  6.8/10 from 22860 users
◎IMDb链接  https://www.imdb.com/title/tt3833480/
◎豆瓣评分 7.1/10 from 16856 users
◎豆瓣链接 https://movie.douban.com/subject/30212622/
◎片  长 123分钟
◎导  演 罗德·拉里 Rod Lurie
◎编  剧 埃瑞克·约翰逊 Eric Johnson / 保罗·塔马西 Paul Tamasy / 杰克·塔伯 Jake Tapper
◎主  演 斯科特·伊斯特伍德 Scott Eastwood
       奥兰多·布鲁姆 Orlando Bloom
       卡赖伯·兰德里·琼斯 Caleb Landry Jones
       雅各布·西皮奥 Jacob Scipio
       杰克·凯西 Jack Kesy
       米洛·吉布森 Milo Gibson
       阿历克斯·阿诺 Alexander Arnold
       塞莱娜·辛顿 Celina Sinden
       泰勒·约翰·史姑娘 Taylor John Smith
       科里·哈德里克 Cory Hardrict
       巴比·洛克伍德 Bobby Lockwood
       威尔·阿滕伯勒 Will Attenborough
       法希姆·法兹利 Fahim Fazli
       詹姆斯·贾格尔 James Jagger
       科瓦米·帕特森 Kwame Patterson
       阿尔菲·斯图尔特 Alfie Stewart
       Daniel Rodriguez
       特里·塔克 Trey Tucker
◎标  签 战争 | 阿富汗战争 | 实在事务改编 | 美国 | 2020 | 美国电影 | 剧情 | 电影
◎简  介


  斯科特·伊斯特伍德、卡赖伯·兰德里·琼斯、奥兰多·布鲁姆将主演Millennium Media打造的阿富汗战争题材影片[前哨](The Outpost,暂译)。罗德·拉里执导影片,影片则按照CNN记者Jake Tapper著作改编。影片故事将围绕53名美国兵士的实在故事展开,这些兵士与阿富汗东北部约400名敌方武装份子拉开持久的作战。他们所建造的前哨基职位于巴基斯坦边境仅14英里处的三处峻峭山脉底部。基地则面临塔利班可骇份子的攻击。而驻扎在那边的兵士则面临着庞大威胁。片中斯科特·伊斯特伍德饰演克林特·罗马沙军士,卡赖伯·兰德里·琼斯饰演专业军士Ty Michael Carter,布鲁姆饰演的Benjamin D. Keating在阿富汗战争中不幸丧生。该片估计将在今年8月展开拍摄,影片也将在戛纳电影节寻觅买家。
◎获奖情况
  第92届美国国家批评协会奖 ?(2020)
  十佳自力电影
  
  第26届美国批评家挑选电影奖 ?(2021)
  最好歌曲(提名)
  
  第25届金卫星奖 ?(2021)
  电影部分最好原创歌曲(提名)
  1. Video
  2. ID                                       : 1
  3. ID in the original source medium         : 4113 (0x1011)
  4. Format                                   : HEVC
  5. Format/Info                              : High Efficiency Video Coding
  6. Format profile                           : Main [email protected]@High
  7. HDR format                               : SMPTE ST 2094 App 4, Version 1, HDR10+ Profile B compatible
  8. Codec ID                                 : V_MPEGH/ISO/HEVC
  9. Duration                                 : 2 h 3 min
  10. Bit rate                                 : 76.1 Mb/s
  11. Width                                    : 3 840 pixels
  12. Height                                   : 2 160 pixels
  13. Display aspect ratio                     : 16:9
  14. Frame rate mode                          : Constant
  15. Frame rate                               : 23.976 (24000/1001/189150) FPS
  16. Color space                              : YUV
  17. Chroma subsampling                       : 4:2:0 (Type 2)
  18. Bit depth                                : 10 bits
  19. Bits/(Pixel*Frame)                       : 0.383
  20. Stream size                              : 65.7 GiB (94%)
  21. Language                                 : English
  22. Default                                  : No
  23. Forced                                   : No
  24. Color range                              : Limited
  25. Color primaries                          : BT.2020
  26. Transfer characteristics                 : PQ
  27. Matrix coefficients                      : BT.2020 non-constant
  28. Mastering display color primaries        : Display P3
  29. Mastering display luminance              : min: 0.0001 cd/m2, max: 1000 cd/m2
  30. Maximum Content Light Level              : 5566 cd/m2
  31. Maximum Frame-Average Light Level        : 400 cd/m2
  32. Original source medium                   : Blu-ray

  33. Audio #1
  34. ID                                       : 2
  35. ID in the original source medium         : 4353 (0x1101)
  36. Format                                   : DTS XLL
  37. Format/Info                              : Digital Theater Systems
  38. Commercial name                          : DTS-HD Master Audio
  39. Codec ID                                 : A_DTS
  40. Duration                                 : 2 h 3 min
  41. Bit rate mode                            : Variable
  42. Bit rate                                 : 2 032 kb/s
  43. Channel(s)                               : 6 channels
  44. Channel layout                           : C L R Ls Rs LFE
  45. Sampling rate                            : 48.0 kHz
  46. Frame rate                               : 93.750 FPS (512 SPF)
  47. Bit depth                                : 16 bits
  48. Compression mode                         : Lossless
  49. Stream size                              : 1.75 GiB (3%)
  50. Title                                    : DTS-HD MA 5.1
  51. Language                                 : English
  52. Default                                  : Yes
  53. Forced                                   : No
  54. Original source medium                   : Blu-ray

  55. Audio #2
  56. ID                                       : 3
  57. Format                                   : AC-3
  58. Format/Info                              : Audio Coding 3
  59. Commercial name                          : Dolby Digital
  60. Codec ID                                 : A_AC3
  61. Duration                                 : 2 h 3 min
  62. Bit rate mode                            : Constant
  63. Bit rate                                 : 640 kb/s
  64. Channel(s)                               : 6 channels
  65. Channel layout                           : L R C LFE Ls Rs
  66. Sampling rate                            : 48.0 kHz
  67. Frame rate                               : 31.250 FPS (1536 SPF)
  68. Compression mode                         : Lossy
  69. Stream size                              : 565 MiB (1%)
  70. Title                                    : DD 5.1
  71. Language                                 : English
  72. Service kind                             : Complete Main
  73. Default                                  : No
  74. Forced                                   : No

  75. Audio #3
  76. ID                                       : 4
  77. ID in the original source medium         : 4352 (0x1100)
  78. Format                                   : DTS XLL
  79. Format/Info                              : Digital Theater Systems
  80. Commercial name                          : DTS-HD Master Audio
  81. Codec ID                                 : A_DTS
  82. Duration                                 : 2 h 3 min
  83. Bit rate mode                            : Variable
  84. Bit rate                                 : 1 987 kb/s
  85. Channel(s)                               : 6 channels
  86. Channel layout                           : C L R Ls Rs LFE
  87. Sampling rate                            : 48.0 kHz
  88. Frame rate                               : 93.750 FPS (512 SPF)
  89. Bit depth                                : 16 bits
  90. Compression mode                         : Lossless
  91. Stream size                              : 1.71 GiB (2%)
  92. Title                                    : DTS-HD MA 5.1
  93. Language                                 : German
  94. Default                                  : No
  95. Forced                                   : No
  96. Original source medium                   : Blu-ray

  97. Text #1
  98. ID                                       : 5
  99. Format                                   : UTF-8
  100. Codec ID                                 : S_TEXT/UTF8
  101. Codec ID/Info                            : UTF-8 Plain Text
  102. Duration                                 : 2 h 1 min
  103. Bit rate                                 : 78 b/s
  104. Count of elements                        : 2805
  105. Stream size                              : 69.8 KiB (0%)
  106. Title                                    : English-SRT
  107. Language                                 : English
  108. Default                                  : Yes
  109. Forced                                   : No

  110. Text #2
  111. ID                                       : 6
  112. ID in the original source medium         : 4768 (0x12A0)
  113. Format                                   : PGS
  114. Muxing mode                              : zlib
  115. Codec ID                                 : S_HDMV/PGS
  116. Codec ID/Info                            : Picture based subtitle format used on BDs/HD-DVDs
  117. Duration                                 : 2 h 0 min
  118. Bit rate                                 : 50.1 kb/s
  119. Count of elements                        : 3596
  120. Stream size                              : 43.3 MiB (0%)
  121. Title                                    : German-PGS
  122. Language                                 : German
  123. Default                                  : No
  124. Forced                                   : No
  125. Original source medium                   : Blu-ray

  126. Text #3
  127. ID                                       : 7
  128. ID in the original source medium         : 4769 (0x12A1)
  129. Format                                   : PGS
  130. Muxing mode                              : zlib
  131. Codec ID                                 : S_HDMV/PGS
  132. Codec ID/Info                            : Picture based subtitle format used on BDs/HD-DVDs
  133. Duration                                 : 27 min 42 s
  134. Bit rate                                 : 284 b/s
  135. Count of elements                        : 4
  136. Stream size                              : 57.8 KiB (0%)
  137. Title                                    : German-FORCED-PGS
  138. Language                                 : German
  139. Default                                  : No
  140. Forced                                   : No
  141. Original source medium                   : Blu-ray

  142. Menu
  143. 00:00:00.000                             : Chapter 01
  144. 00:10:28.753                             : Chapter 02
  145. 00:18:13.801                             : Chapter 03
  146. 00:30:15.313                             : Chapter 04
  147. 00:41:48.005                             : Chapter 05
  148. 00:50:08.630                             : Chapter 06
  149. 00:59:56.009                             : Chapter 07
  150. 01:10:07.077                             : Chapter 08
  151. 01:19:43.695                             : Chapter 09
  152. 01:29:06.883                             : Chapter 10
  153. 01:39:44.728                             : Chapter 11
  154. 01:50:41.509                             : Chapter 12
复制代码




                                       
                                       

                                       
                                       
                                       




回复

使用道具 举报

懒得打字嘛,点击右侧快捷回复 【右侧内容,后台自定义】
您需要登录后才可以回帖 登录 | 立即加入

本版积分规则

Archiver|小黑屋| 蓝光电影网 |网站地图

Copyright © 2021 Comsenz Inc. Powered by 蓝光电影网

蓝光电影网

本站内容由用户自主分享和转载自互联网,转载目的在于传递更多信息,并不代表本网赞同其观点和对其真实性负责。

如有侵权、违反国家法律政策行为,请联系我们,我们会第一时间及时清除和处理!

举报反馈邮箱:[email protected]

快速回复 返回顶部 返回列表