找回密码

蓝光电影网

查看: 285|回复: 0

[UHD.HEVC] 黄金三镖客 The.Good.the.Bad.and.the.Ugly.1966.2160p.BluRay.REMUX.SDR.HEVC.DTS-HD.MA.5.1-FGT 73.91GB

[复制链接]
蓝光币
1084
发表于 2021-5-13 15:23:40 | 显示全部楼层 |阅读模式


◎译  名 黄金三镖客/The Good, the Bad and the Ugly/善恶丑/好·坏·丑/好家伙,坏家伙,丑家伙/独行侠决战天堂门(港)/傍晚三镖客(台)
◎片  名 Il buono, il brutto, il cattivo.
◎年  代 1966
◎产  地 意大利,西班牙,西德
◎类  别 西部 / 冒险
◎语  言 意大利语,英语
◎上映日期 1966-12-23(意大利)
◎IMDb评分  8.8/10 from 699302 users
◎IMDb链接  https://www.imdb.com/title/tt0060196/
◎豆瓣评分 9.2/10 from 96326 users
◎豆瓣链接 https://movie.douban.com/subject/1401118/
◎片  长 161 分钟
◎导  演 赛尔乔·莱昂内 Sergio Leone
◎编  剧 阿杰诺雷·因克罗奇 Agenore Incrocci / 富里奥·斯卡佩利 Furio Scarpelli / 卢恰诺·温琴佐尼 Luciano Vincenzoni / 赛尔乔·莱昂内 Sergio Leone
◎主  演 克林特·伊斯特伍德 Clint Eastwood
       埃里·瓦拉赫 Eli Wallach
       李·范·克里夫 Lee Van Cleef
       阿尔多·久弗瑞 Aldo Giuffrè
       路易吉·皮斯蒂利 Luigi Pistilli
       拉达·拉西莫夫 Rada Rassimov
       马里奥·布雷加 Mario Brega
◎标  签 西部片 | 西部 | 典范 | 克林特·伊斯特伍德 | 意大利 | 黄金三镖客 | 美国 | 1966
◎简  介


  故事发生在美国南北战争期间。图科(埃里?瓦拉赫 Eli Wallach 饰)是一个图财害命的江洋大盗,是以他被镇上悬赏通缉。布兰迪(克林特?伊斯特伍德 Clint Eastwood  饰)是一个吊民伐罪的牛仔,他无意中捉住了图科,但嫌赏金不够又掳走了他。在荒凉中,布兰迪赏罚图科让其自生自灭。可是诡诈的图科居然逃过了一劫,并鸠集一些爪牙在堆栈捉住了布兰迪。正当图科以眼还眼熬煎布兰迪的时辰,他劫持了一个名叫卡森的兵士。后者临死前留下了宝藏的奥秘,图科和布兰迪别离获得了一半信息。与此同时,一个狡猾的杀手桑坦萨(李?范?克里夫 Lee Van Cleef 饰)也经过其他渠道发现了宝藏的奥秘。因而,在寻宝的门路上,三小我使出满身解数,上演了一场场对决的好戏……
  1. Video
  2. ID                                       : 1
  3. ID in the original source medium         : 4113 (0x1011)
  4. Format                                   : HEVC
  5. Format/Info                              : High Efficiency Video Coding
  6. Format profile                           : Main [email protected]@High
  7. Codec ID                                 : V_MPEGH/ISO/HEVC
  8. Duration                                 : 2 h 41 min
  9. Bit rate                                 : 59.8 Mb/s
  10. Width                                    : 3 840 pixels
  11. Height                                   : 2 160 pixels
  12. Display aspect ratio                     : 16:9
  13. Frame rate mode                          : Constant
  14. Frame rate                               : 23.976 (23976/1000/189150) FPS
  15. Color space                              : YUV
  16. Chroma subsampling                       : 4:2:0 (Type 2)
  17. Bit depth                                : 10 bits
  18. Bits/(Pixel*Frame)                       : 0.301
  19. Stream size                              : 67.6 GiB (91%)
  20. Writing library                          : x265 3.473ca1d7be377:[Windows][GCC 6.3.0][64 bit] 10bit
  21. Encoding settings                        : cpuid=1111039 / frame-threads=6 / numa-pools=32,32 / wpp / no-pmode / no-pme / no-psnr / no-ssim / log-level=2 / input-csp=1 / input-res=3840x2160 / interlace=0 / total-frames=232820 / level-idc=51 / high-tier=1 / uhd-bd=1 / ref=4 / no-allow-non-conformance / repeat-headers / annexb / aud / hrd / info / hash=0 / no-temporal-layers / no-open-gop / min-keyint=1 / keyint=24 / gop-lookahead=0 / bframes=3 / b-adapt=2 / b-pyramid / bframe-bias=0 / rc-lookahead=24 / lookahead-slices=4 / scenecut=40 / hist-scenecut=0 / radl=0 / no-splice / no-intra-refresh / ctu=64 / min-cu-size=8 / rect / no-amp / max-tu-size=32 / tu-inter-depth=1 / tu-intra-depth=1 / limit-tu=0 / rdoq-level=2 / dynamic-rd=0.00 / no-ssim-rd / signhide / no-tskip / nr-intra=0 / nr-inter=0 / no-constrained-intra / strong-intra-smoothing / max-merge=3 / limit-refs=3 / limit-modes / me=3 / subme=3 / merange=57 / temporal-mvp / no-frame-dup / no-hme / weightp / no-weightb / no-analyze-src-pics / deblock=0:0 / no-sao / no-sao-non-deblock / rd=4 / selective-sao=0 / no-early-skip / no-rskip / no-fast-intra / no-tskip-fast / no-cu-lossless / no-b-intra / no-splitrd-skip / rdpenalty=0 / psy-rd=5.00 / psy-rdoq=10.00 / no-rd-refine / no-lossless / cbqpoffs=0 / crqpoffs=0 / rc=abr / bitrate=60000 / qcomp=0.60 / qpstep=1 / stats-write=0 / stats-read=2 / cplxblur=20.0 / qblur=0.5 / vbv-maxrate=65000 / vbv-bufsize=75000 / vbv-init=0.9 / ipratio=1.10 / pbratio=1.00 / aq-mode=0 / aq-strength=0.00 / no-cutree / zone-count=0 / no-strict-cbr / qg-size=32 / rc-grain / qpmax=69 / qpmin=0 / const-vbv / sar=1 / overscan=0 / videoformat=5 / range=0 / colorprim=1 / transfer=1 / colormatrix=1 / chromaloc=1 / chromaloc-top=2 / chromaloc-bottom=2 / display-window=0 / cll=0,0 / min-luma=0 / max-luma=1023 / log2-max-poc-lsb=8 / vui-timing-info / vui-hrd-info / slices=1 / no-opt-qp-pps / no-opt-ref-list-length-pps / no-multi-pass-opt-rps / scenecut-bias=0.05 / hist-threshold=0.01 / no-opt-cu-delta-qp / no-aq-motion / no-hdr10 / no-hdr10-opt / no-dhdr10-opt / no-idr-recovery-sei / analysis-reuse-level=0 / analysis-save-reuse-level=0 / analysis-load-reuse-level=0 / scale-factor=0 / refine-intra=0 / refine-inter=0 / refine-mv=1 / refine-ctu-distortion=0 / no-limit-sao / ctu-info=0 / no-lowpass-dct / refine-analysis-type=0 / copy-pic=1 / max-ausize-factor=1.0 / no-dynamic-refine / no-single-sei / no-hevc-aq / no-svt / no-field / qp-adaptation-range=1.00 / no-scenecut-aware-qpconformance-window-offsets / right=0 / bottom=0 / decoder-max-rate=0
  22. Language                                 : English
  23. Default                                  : No
  24. Forced                                   : No
  25. Color range                              : Limited
  26. Color primaries                          : BT.709
  27. Transfer characteristics                 : BT.709
  28. Matrix coefficients                      : BT.709
  29. Original source medium                   : Blu-ray

  30. Audio #1
  31. ID                                       : 2
  32. ID in the original source medium         : 4352 (0x1100)
  33. Format                                   : DTS XLL
  34. Format/Info                              : Digital Theater Systems
  35. Commercial name                          : DTS-HD Master Audio
  36. Codec ID                                 : A_DTS
  37. Duration                                 : 2 h 41 min
  38. Bit rate mode                            : Variable
  39. Bit rate                                 : 1 807 kb/s
  40. Channel(s)                               : 6 channels
  41. Channel layout                           : C L R Ls Rs LFE
  42. Sampling rate                            : 48.0 kHz
  43. Frame rate                               : 93.750 FPS (512 SPF)
  44. Bit depth                                : 16 bits
  45. Compression mode                         : Lossless
  46. Stream size                              : 2.04 GiB (3%)
  47. Title                                    : DTS-HD MA 5.1
  48. Language                                 : English
  49. Default                                  : Yes
  50. Forced                                   : No
  51. Original source medium                   : Blu-ray

  52. Audio #2
  53. ID                                       : 3
  54. Format                                   : AC-3
  55. Format/Info                              : Audio Coding 3
  56. Commercial name                          : Dolby Digital
  57. Codec ID                                 : A_AC3
  58. Duration                                 : 2 h 41 min
  59. Bit rate mode                            : Constant
  60. Bit rate                                 : 640 kb/s
  61. Channel(s)                               : 6 channels
  62. Channel layout                           : L R C LFE Ls Rs
  63. Sampling rate                            : 48.0 kHz
  64. Frame rate                               : 31.250 FPS (1536 SPF)
  65. Compression mode                         : Lossy
  66. Stream size                              : 741 MiB (1%)
  67. Title                                    : DD 5.1
  68. Language                                 : English
  69. Service kind                             : Complete Main
  70. Default                                  : No
  71. Forced                                   : No

  72. Audio #3
  73. ID                                       : 4
  74. ID in the original source medium         : 4353 (0x1101)
  75. Format                                   : DTS XLL
  76. Format/Info                              : Digital Theater Systems
  77. Commercial name                          : DTS-HD Master Audio
  78. Codec ID                                 : A_DTS
  79. Duration                                 : 2 h 41 min
  80. Bit rate mode                            : Variable
  81. Bit rate                                 : 1 561 kb/s
  82. Channel(s)                               : 2 channels
  83. Channel layout                           : L R
  84. Sampling rate                            : 48.0 kHz
  85. Frame rate                               : 93.750 FPS (512 SPF)
  86. Bit depth                                : 16 bits
  87. Compression mode                         : Lossless
  88. Stream size                              : 1.76 GiB (2%)
  89. Title                                    : DTS-HD MA 2.0
  90. Language                                 : English
  91. Default                                  : No
  92. Forced                                   : No
  93. Original source medium                   : Blu-ray

  94. Audio #4
  95. ID                                       : 5
  96. ID in the original source medium         : 4354 (0x1102)
  97. Format                                   : DTS XLL
  98. Format/Info                              : Digital Theater Systems
  99. Commercial name                          : DTS-HD Master Audio
  100. Codec ID                                 : A_DTS
  101. Duration                                 : 2 h 41 min
  102. Bit rate mode                            : Variable
  103. Bit rate                                 : 1 557 kb/s
  104. Channel(s)                               : 2 channels
  105. Channel layout                           : L R
  106. Sampling rate                            : 48.0 kHz
  107. Frame rate                               : 93.750 FPS (512 SPF)
  108. Bit depth                                : 16 bits
  109. Compression mode                         : Lossless
  110. Stream size                              : 1.76 GiB (2%)
  111. Title                                    : DTS-HD MA 2.0
  112. Language                                 : English
  113. Default                                  : No
  114. Forced                                   : No
  115. Original source medium                   : Blu-ray

  116. Text #1
  117. ID                                       : 6
  118. Format                                   : UTF-8
  119. Codec ID                                 : S_TEXT/UTF8
  120. Codec ID/Info                            : UTF-8 Plain Text
  121. Duration                                 : 2 h 29 min
  122. Bit rate                                 : 25 b/s
  123. Count of elements                        : 922
  124. Stream size                              : 28.1 KiB (0%)
  125. Title                                    : English-SRT
  126. Language                                 : English
  127. Default                                  : Yes
  128. Forced                                   : No

  129. Text #2
  130. ID                                       : 7
  131. ID in the original source medium         : 4608 (0x1200)
  132. Format                                   : PGS
  133. Muxing mode                              : zlib
  134. Codec ID                                 : S_HDMV/PGS
  135. Codec ID/Info                            : Picture based subtitle format used on BDs/HD-DVDs
  136. Duration                                 : 2 h 29 min
  137. Bit rate                                 : 14.3 kb/s
  138. Count of elements                        : 1848
  139. Stream size                              : 15.4 MiB (0%)
  140. Title                                    : English-PGS
  141. Language                                 : English
  142. Default                                  : No
  143. Forced                                   : No
  144. Original source medium                   : Blu-ray

  145. Menu
  146. 00:00:00.000                             : Chapter 01
  147. 00:07:22.567                             : Chapter 02
  148. 00:16:51.678                             : Chapter 03
  149. 00:29:06.621                             : Chapter 04
  150. 00:39:26.324                             : Chapter 05
  151. 00:50:58.850                             : Chapter 06
  152. 01:02:37.882                             : Chapter 07
  153. 01:14:40.355                             : Chapter 08
  154. 01:23:48.361                             : Chapter 09
  155. 01:35:36.111                             : Chapter 10
  156. 01:45:09.309                             : Chapter 11
  157. 01:55:50.325                             : Chapter 12
  158. 02:06:39.683                             : Chapter 13
  159. 02:14:29.110                             : Chapter 14
  160. 02:26:30.665                             : Chapter 15
  161. 02:41:49.459                             : Chapter 16
复制代码




                                       
                                       

                                       
                                       
                                       




回复

使用道具 举报

懒得打字嘛,点击右侧快捷回复 【右侧内容,后台自定义】
您需要登录后才可以回帖 登录 | 立即加入

本版积分规则

Archiver|小黑屋| 蓝光电影网 |网站地图

Copyright © 2021 Comsenz Inc. Powered by 蓝光电影网

蓝光电影网

本站内容由用户自主分享和转载自互联网,转载目的在于传递更多信息,并不代表本网赞同其观点和对其真实性负责。

如有侵权、违反国家法律政策行为,请联系我们,我们会第一时间及时清除和处理!

举报反馈邮箱:[email protected]

快速回复 返回顶部 返回列表