找回密码

蓝光电影网

查看: 166|回复: 0

[UHD.HEVC] 云中阴影/云中的阴影 Shadow.in.the.Cloud.2020.2160p.BluRay.REMUX.HEVC.DTS-HD.MA.5.1-FGT 52.21GB

[复制链接]
蓝光币
1171
发表于 2021-5-13 15:19:42 | 显示全部楼层 |阅读模式


◎译  名 云中阴影/云中的阴影/致命天涯线(台)
◎片  名 Shadow In The Cloud
◎年  代 2020
◎产  地 新西兰,美国
◎类  别 行动 / 可骇
◎语  言 英语
◎上映日期 2020-09-12(多伦多电影节) / 2021-01-01(美国)
◎IMDb评分  4.8/10 from 15566 users
◎IMDb链接  https://www.imdb.com/title/tt9691136/
◎豆瓣评分 5.2/10 from 2619 users
◎豆瓣链接 https://movie.douban.com/subject/30449238/
◎片  长 83分钟
◎导  演 罗丝安妮·梁 Roseanne Liang
◎编  剧 马克斯·兰迪斯   Max Landis / 罗丝安妮·梁 Roseanne Liang
◎主  演 科洛·莫瑞兹 Chlo? Grace Moretz
       尼克·罗宾森 Nick Robinson
       比尤拉·寇尔 Beulah Koale
       泰勒·约翰·史姑娘 Taylor John Smith
       卡兰·马尔韦 Callan Mulvey
       拜伦·科尔 Byron Coll
◎标  签 行动 | 美国 | 惊悚 | 可骇 | 2020 | 新西兰 | 战争 | 二战
◎简  介


  科洛·莫瑞兹将出演行动可骇新片[云中阴影](Shadow In The Cloud,暂译)。本片由罗丝安妮·梁执导,马克斯·兰迪斯([超能失控])撰写剧本。莫瑞兹饰演一位照顾绝密文件的上尉,她登上B-17轰炸机与劈面而来的日本伏击以及全男性的机组职员作斗争。
◎获奖情况
  第45届多伦多国际电影节 ?(2020)
  观众挑选奖半夜疯狂单元
  1. Video
  2. ID                                       : 1
  3. ID in the original source medium         : 4113 (0x1011)
  4. Format                                   : HEVC
  5. Format/Info                              : High Efficiency Video Coding
  6. Format profile                           : Main [email protected]@High
  7. HDR format                               : SMPTE ST 2094 App 4, Version 1, HDR10+ Profile B compatible
  8. Codec ID                                 : V_MPEGH/ISO/HEVC
  9. Duration                                 : 1 h 23 min
  10. Bit rate                                 : 85.0 Mb/s
  11. Width                                    : 3 840 pixels
  12. Height                                   : 2 160 pixels
  13. Display aspect ratio                     : 16:9
  14. Frame rate mode                          : Constant
  15. Frame rate                               : 23.976 (24000/1001/189150) FPS
  16. Color space                              : YUV
  17. Chroma subsampling                       : 4:2:0 (Type 2)
  18. Bit depth                                : 10 bits
  19. Bits/(Pixel*Frame)                       : 0.428
  20. Stream size                              : 49.5 GiB (95%)
  21. Language                                 : English
  22. Default                                  : No
  23. Forced                                   : No
  24. Color range                              : Limited
  25. Color primaries                          : BT.2020
  26. Transfer characteristics                 : PQ
  27. Matrix coefficients                      : BT.2020 non-constant
  28. Mastering display color primaries        : Display P3
  29. Mastering display luminance              : min: 0.0001 cd/m2, max: 1000 cd/m2
  30. Maximum Content Light Level              : 2340 cd/m2
  31. Maximum Frame-Average Light Level        : 400 cd/m2
  32. Original source medium                   : Blu-ray

  33. Audio #1
  34. ID                                       : 2
  35. ID in the original source medium         : 4353 (0x1101)
  36. Format                                   : DTS XLL
  37. Format/Info                              : Digital Theater Systems
  38. Commercial name                          : DTS-HD Master Audio
  39. Codec ID                                 : A_DTS
  40. Duration                                 : 1 h 23 min
  41. Bit rate mode                            : Variable
  42. Bit rate                                 : 2 033 kb/s
  43. Channel(s)                               : 6 channels
  44. Channel layout                           : C L R Ls Rs LFE
  45. Sampling rate                            : 48.0 kHz
  46. Frame rate                               : 93.750 FPS (512 SPF)
  47. Bit depth                                : 16 bits
  48. Compression mode                         : Lossless
  49. Stream size                              : 1.18 GiB (2%)
  50. Title                                    : DTS-HD MA 5.1
  51. Language                                 : English
  52. Default                                  : Yes
  53. Forced                                   : No
  54. Original source medium                   : Blu-ray

  55. Audio #2
  56. ID                                       : 3
  57. Format                                   : AC-3
  58. Format/Info                              : Audio Coding 3
  59. Commercial name                          : Dolby Digital
  60. Codec ID                                 : A_AC3
  61. Duration                                 : 1 h 23 min
  62. Bit rate mode                            : Constant
  63. Bit rate                                 : 640 kb/s
  64. Channel(s)                               : 6 channels
  65. Channel layout                           : L R C LFE Ls Rs
  66. Sampling rate                            : 48.0 kHz
  67. Frame rate                               : 31.250 FPS (1536 SPF)
  68. Compression mode                         : Lossy
  69. Stream size                              : 381 MiB (1%)
  70. Title                                    : DD 5.1
  71. Language                                 : English
  72. Service kind                             : Complete Main
  73. Default                                  : No
  74. Forced                                   : No

  75. Audio #3
  76. ID                                       : 4
  77. ID in the original source medium         : 4352 (0x1100)
  78. Format                                   : DTS XLL
  79. Format/Info                              : Digital Theater Systems
  80. Commercial name                          : DTS-HD Master Audio
  81. Codec ID                                 : A_DTS
  82. Duration                                 : 1 h 23 min
  83. Bit rate mode                            : Variable
  84. Bit rate                                 : 2 049 kb/s
  85. Channel(s)                               : 6 channels
  86. Channel layout                           : C L R Ls Rs LFE
  87. Sampling rate                            : 48.0 kHz
  88. Frame rate                               : 93.750 FPS (512 SPF)
  89. Bit depth                                : 16 bits
  90. Compression mode                         : Lossless
  91. Stream size                              : 1.19 GiB (2%)
  92. Title                                    : DTS-HD MA 5.1
  93. Language                                 : German
  94. Default                                  : No
  95. Forced                                   : No
  96. Original source medium                   : Blu-ray

  97. Text #1
  98. ID                                       : 5
  99. Format                                   : UTF-8
  100. Codec ID                                 : S_TEXT/UTF8
  101. Codec ID/Info                            : UTF-8 Plain Text
  102. Duration                                 : 1 h 16 min
  103. Bit rate                                 : 71 b/s
  104. Count of elements                        : 1097
  105. Stream size                              : 40.0 KiB (0%)
  106. Title                                    : English-SRT
  107. Language                                 : English
  108. Default                                  : Yes
  109. Forced                                   : No

  110. Text #2
  111. ID                                       : 6
  112. ID in the original source medium         : 4768 (0x12A0)
  113. Format                                   : PGS
  114. Muxing mode                              : zlib
  115. Codec ID                                 : S_HDMV/PGS
  116. Codec ID/Info                            : Picture based subtitle format used on BDs/HD-DVDs
  117. Duration                                 : 1 h 15 min
  118. Bit rate                                 : 44.7 kb/s
  119. Count of elements                        : 1860
  120. Stream size                              : 24.2 MiB (0%)
  121. Title                                    : German-PGS
  122. Language                                 : German
  123. Default                                  : No
  124. Forced                                   : No
  125. Original source medium                   : Blu-ray

  126. Text #3
  127. ID                                       : 7
  128. ID in the original source medium         : 4769 (0x12A1)
  129. Format                                   : PGS
  130. Muxing mode                              : zlib
  131. Codec ID                                 : S_HDMV/PGS
  132. Codec ID/Info                            : Picture based subtitle format used on BDs/HD-DVDs
  133. Duration                                 : 1 h 13 min
  134. Bit rate                                 : 169 b/s
  135. Count of elements                        : 8
  136. Stream size                              : 90.7 KiB (0%)
  137. Title                                    : German-FORCED-PGS
  138. Language                                 : German
  139. Default                                  : No
  140. Forced                                   : No
  141. Original source medium                   : Blu-ray

  142. Menu
  143. 00:00:00.000                             : Chapter 01
  144. 00:05:02.302                             : Chapter 02
  145. 00:13:46.826                             : Chapter 03
  146. 00:21:53.312                             : Chapter 04
  147. 00:27:02.621                             : Chapter 05
  148. 00:33:59.037                             : Chapter 06
  149. 00:40:49.447                             : Chapter 07
  150. 00:47:54.872                             : Chapter 08
  151. 00:56:19.376                             : Chapter 09
  152. 01:01:34.691                             : Chapter 10
  153. 01:07:53.069                             : Chapter 11
  154. 01:14:39.475                             : Chapter 12
  155. 01:23:04.980                             : Chapter 13
复制代码




                                       
                                       

                                       
                                       
                                       




回复

使用道具 举报

懒得打字嘛,点击右侧快捷回复 【右侧内容,后台自定义】
您需要登录后才可以回帖 登录 | 立即加入

本版积分规则

Archiver|小黑屋| 蓝光电影网 |网站地图

Copyright © 2021 Comsenz Inc. Powered by 蓝光电影网

蓝光电影网

本站内容由用户自主分享和转载自互联网,转载目的在于传递更多信息,并不代表本网赞同其观点和对其真实性负责。

如有侵权、违反国家法律政策行为,请联系我们,我们会第一时间及时清除和处理!

举报反馈邮箱:[email protected]

快速回复 返回顶部 返回列表