找回密码

蓝光电影网

查看: 73|回复: 0

[2160p] 奥林匹斯的陷落 Olympus.Has.Fallen.2013.2160p.BluRay.x264.8bit.SDR.DTS-HD.MA.5.1-SWTYBLZ 21.47GB

[复制链接]
蓝光币
1084
发表于 2020-9-28 09:43:37 | 显示全部楼层 |阅读模式


◎译  名 奥林匹斯的沦陷/End of White House/周全攻占:倒数救济(台)/奥林匹斯沦陷/白宫沦亡(港)/白宫沦陷
◎片  名 Olympus Has Fallen
◎年  代 2013
◎产  地 美国
◎类  别 行动 / 犯罪
◎语  言 英语,韩语
◎上映日期 2013-03-22(美国) / 2013-12-29(中国大陆)
◎IMDb评分  6.5/10 from 253337 users
◎IMDb链接  https://www.imdb.com/title/tt2302755/
◎豆瓣评分 6.4/10 from 63317 users
◎豆瓣链接 https://movie.douban.com/subject/10743974/
◎片  长 114分钟(中国大陆)
◎导  演 安东尼·福奎阿 Antoine Fuqua
◎编  剧 克赖顿·罗森博格 Creighton Rothenberger / 凯特琳·贝内迪克特 Katrin Benedikt
◎主  演 杰拉德·巴特勒 Gerard Butler
       艾伦·艾克哈特 Aaron Eckhart
       芬利·雅克布森 Finley Jacobsen
       迪伦·麦克德莫特 Dylan McDermott
       尹成植 Rick Yune
       摩根·弗里曼 Morgan Freeman
       安吉拉·贝塞特 Angela Bassett
       梅丽莎·里奥 Melissa Leo
       拉达·米切尔 Radha Mitchell
       科尔·豪瑟 Cole Hauser
       艾什莉·贾德 Ashley Judd
       弗莱迪·博什 Freddy Bosche
       凯文·穆 Kevin Moon
       山姆·麦地那 Sam Medina
       乔凡尼·席尔瓦 Giovanni Silva
       赵雅顿 Arden Cho
       马拉纳·李 Malana Lea
       泰伦·伍德利 Tyron Woodley
       伊恩·卡塞尔伯里 Ian Casselberry
       莎娜·福斯塔尔 Shanna Forrestall
       菲尔·奥斯汀 Phil Austin
       詹姆斯·英格索尔 James Ingersoll
       罗伯特·福斯特 Robert Forster
       Lance Broadway
◎标  签 美国 | 行动 | 豪杰主义 | 奸细 | 2013 | 政治 | 暴力 | 电影
◎简  介


  白宫,特情局奥秘代号为“奥林匹斯”,今朝正处在危机当中,一伙可骇份子先用重型的飞机和机枪攻击了这里,随后便派入了一群敢死队进入,他们完全占据了美国总统府,劫持了美国总统,并以此为威胁,企图控制天下格式。
  
  坐在文员办公室的迈克·班宁(杰拉德·巴特勒 Gerard Butler 饰)今后次攻击中活了下来。班宁本来是一个特种兵,负责第一夫人和美国总统(艾伦·艾克哈特 Aaron Eckhart 饰)的安危。可是在一个圣诞节的例利用命中,他的工作出了错,形成了第一夫人的灭亡。后来,班宁就被调剂到了文职工作上。
  
  姑且政府敏捷派遣美国突击队登陆白宫,诡计救援总统,却被可骇份子控制的白宫防御系统击退,救援计划几度失利。眼看可骇份子的诡计行将得逞。由于意外,班宁活了下来,他与姑且政府获得联系,并孤身一人救援总统,班宁成为了全部美国的最初一丝希望。这位前奸细依靠自己过硬的身手,在危机密布的白宫单身力挽狂澜,率先拯救了总统的儿子,让总统摆脱后顾之忧,可骇份子获得天堂犬密码的诡计被提早。经过艰辛的酣战和剧烈的厮杀,班宁拯救了被劫持的总统,并破坏了可骇份子诡计操纵核弹扑灭美国的诡计……
◎获奖情况
  第12届华盛顿影评人协会奖 ?(2013)
  华盛顿特区最好写照(提名)
  1. Video
  2. ID                                       : 1
  3. Format                                   : AVC
  4. Format/Info                              : Advanced Video Codec
  5. Format profile                           : [email protected]
  6. Format settings                          : CABAC / 5 Ref Frames
  7. Format settings, CABAC                   : Yes
  8. Format settings, Reference frames        : 5 frames
  9. Codec ID                                 : V_MPEG4/ISO/AVC
  10. Duration                                 : 1 h 59 min
  11. Bit rate                                 : 21.0 Mb/s
  12. Width                                    : 3 840 pixels
  13. Height                                   : 1 608 pixels
  14. Display aspect ratio                     : 2.40:1
  15. Frame rate mode                          : Constant
  16. Frame rate                               : 24.000 FPS
  17. Color space                              : YUV
  18. Chroma subsampling                       : 4:2:0
  19. Bit depth                                : 8 bits
  20. Scan type                                : Progressive
  21. Bits/(Pixel*Frame)                       : 0.142
  22. Stream size                              : 17.6 GiB (82%)
  23. Writing library                          : x264 core 157 r2935 545de2f
  24. Encoding settings                        : cabac=1 / ref=5 / deblock=1:-1:-1 / analyse=0x3:0x113 / me=umh / subme=10 / psy=1 / psy_rd=1.00:0.15 / mixed_ref=1 / me_range=48 / chroma_me=1 / trellis=2 / 8x8dct=1 / cqm=0 / deadzone=21,11 / fast_pskip=1 / chroma_qp_offset=-3 / threads=48 / lookahead_threads=4 / sliced_threads=0 / nr=0 / decimate=0 / interlaced=0 / bluray_compat=0 / constrained_intra=0 / bframes=3 / b_pyramid=2 / b_adapt=2 / b_bias=0 / direct=3 / weightb=1 / open_gop=0 / weightp=2 / keyint=250 / keyint_min=23 / scenecut=40 / intra_refresh=0 / rc_lookahead=50 / rc=crf / mbtree=1 / crf=18.0 / qcomp=0.60 / qpmin=0 / qpmax=69 / qpstep=4 / ip_ratio=1.40 / aq=1:1.00
  25. Language                                 : English
  26. Default                                  : Yes
  27. Forced                                   : No
  28. Audio #1
  29. ID                                       : 2
  30. ID in the original source medium         : 4353 (0x1101)
  31. Format                                   : DTS XLL
  32. Format/Info                              : Digital Theater Systems
  33. Commercial name                          : DTS-HD Master Audio
  34. Codec ID                                 : A_DTS
  35. Duration                                 : 1 h 59 min
  36. Bit rate mode                            : Variable
  37. Bit rate                                 : 3 833 kb/s
  38. Channel(s)                               : 6 channels
  39. Channel layout                           : C L R Ls Rs LFE
  40. Sampling rate                            : 48.0 kHz
  41. Frame rate                               : 93.750 FPS (512 SPF)
  42. Bit depth                                : 24 bits
  43. Compression mode                         : Lossless
  44. Stream size                              : 3.21 GiB (15%)
  45. Title                                    : Olympus.Has.Fallen.2013.2160p.BluRay.x265.10bit.SDR.DTS-HD.MA.5.1-SWTYBLZ
  46. Language                                 : English
  47. Default                                  : Yes
  48. Forced                                   : No
  49. Original source medium                   : Blu-ray
  50. Audio #2
  51. ID                                       : 3
  52. Format                                   : AC-3
  53. Format/Info                              : Audio Coding 3
  54. Commercial name                          : Dolby Digital
  55. Codec ID                                 : A_AC3
  56. Duration                                 : 1 h 59 min
  57. Bit rate mode                            : Constant
  58. Bit rate                                 : 640 kb/s
  59. Channel(s)                               : 6 channels
  60. Channel layout                           : L R C LFE Ls Rs
  61. Sampling rate                            : 48.0 kHz
  62. Frame rate                               : 31.250 FPS (1536 SPF)
  63. Compression mode                         : Lossy
  64. Stream size                              : 548 MiB (3%)
  65. Title                                    : Olympus.Has.Fallen.2013.2160p.BluRay.x265.10bit.SDR.DTS-HD.MA.5.1-SWTYBLZ
  66. Language                                 : English
  67. Service kind                             : Complete Main
  68. Default                                  : No
  69. Forced                                   : No
  70. Text #1
  71. ID                                       : 4
  72. Format                                   : UTF-8
  73. Codec ID                                 : S_TEXT/UTF8
  74. Codec ID/Info                            : UTF-8 Plain Text
  75. Duration                                 : 1 h 41 min
  76. Bit rate                                 : 1 b/s
  77. Count of elements                        : 57
  78. Stream size                              : 1.36 KiB (0%)
  79. Title                                    : English-FORCED-SRT
  80. Language                                 : English
  81. Default                                  : Yes
  82. Forced                                   : Yes
  83. Text #2
  84. ID                                       : 5
  85. Format                                   : UTF-8
  86. Codec ID                                 : S_TEXT/UTF8
  87. Codec ID/Info                            : UTF-8 Plain Text
  88. Duration                                 : 1 h 48 min
  89. Bit rate                                 : 47 b/s
  90. Count of elements                        : 1243
  91. Stream size                              : 38.2 KiB (0%)
  92. Title                                    : English-SRT
  93. Language                                 : English
  94. Default                                  : No
  95. Forced                                   : No
  96. Text #3
  97. ID                                       : 6
  98. ID in the original source medium         : 4768 (0x12A0)
  99. Format                                   : PGS
  100. Muxing mode                              : zlib
  101. Codec ID                                 : S_HDMV/PGS
  102. Codec ID/Info                            : Picture based subtitle format used on BDs/HD-DVDs
  103. Duration                                 : 1 h 58 min
  104. Bit rate                                 : 25.1 kb/s
  105. Count of elements                        : 2532
  106. Stream size                              : 21.3 MiB (0%)
  107. Title                                    : German-PGS
  108. Language                                 : German
  109. Default                                  : No
  110. Forced                                   : No
  111. Original source medium                   : Blu-ray
  112. Text #4
  113. ID                                       : 7
  114. ID in the original source medium         : 4769 (0x12A1)
  115. Format                                   : PGS
  116. Muxing mode                              : zlib
  117. Codec ID                                 : S_HDMV/PGS
  118. Codec ID/Info                            : Picture based subtitle format used on BDs/HD-DVDs
  119. Duration                                 : 1 h 58 min
  120. Bit rate                                 : 681 b/s
  121. Count of elements                        : 86
  122. Stream size                              : 593 KiB (0%)
  123. Title                                    : German-FORCED-PGS
  124. Language                                 : German
  125. Default                                  : No
  126. Forced                                   : No
  127. Original source medium                   : Blu-ray
  128. Text #5
  129. ID                                       : 8
  130. ID in the original source medium         : 4770 (0x12A2)
  131. Format                                   : PGS
  132. Muxing mode                              : zlib
  133. Codec ID                                 : S_HDMV/PGS
  134. Codec ID/Info                            : Picture based subtitle format used on BDs/HD-DVDs
  135. Duration                                 : 1 h 41 min
  136. Bit rate                                 : 974 b/s
  137. Count of elements                        : 114
  138. Stream size                              : 726 KiB (0%)
  139. Title                                    : English-FORCED-PGS
  140. Language                                 : English
  141. Default                                  : No
  142. Forced                                   : No
  143. Original source medium                   : Blu-ray
  144. Menu
  145. 00:00:00.000                             : en:Chapter 01
  146. 00:09:39.958                             : en:Chapter 02
  147. 00:19:28.166                             : en:Chapter 03
  148. 00:30:43.208                             : en:Chapter 04
  149. 00:40:30.666                             : en:Chapter 05
  150. 00:51:07.916                             : en:Chapter 06
  151. 01:02:58.541                             : en:Chapter 07
  152. 01:12:34.750                             : en:Chapter 08
  153. 01:20:12.541                             : en:Chapter 09
  154. 01:32:18.250                             : en:Chapter 10
  155. 01:40:31.125                             : en:Chapter 11
  156. 01:50:38.916                             : en:Chapter 12
复制代码










                                       
                                       

                                       
                                       
                                       




回复

使用道具 举报

懒得打字嘛,点击右侧快捷回复 【右侧内容,后台自定义】
您需要登录后才可以回帖 登录 | 立即加入

本版积分规则

Archiver|小黑屋| 蓝光电影网 |网站地图

Copyright © 2021 Comsenz Inc. Powered by 蓝光电影网

蓝光电影网

本站内容由用户自主分享和转载自互联网,转载目的在于传递更多信息,并不代表本网赞同其观点和对其真实性负责。

如有侵权、违反国家法律政策行为,请联系我们,我们会第一时间及时清除和处理!

举报反馈邮箱:[email protected]

快速回复 返回顶部 返回列表