找回密码

蓝光电影网

查看: 91|回复: 0

[2160p] 奥林匹斯的陷落 Olympus.Has.Fallen.2013.2160p.BluRay.x265.10bit.SDR.DTS-HD.MA.5.1-SWTYBLZ 20.43GB

[复制链接]
蓝光币
1171
发表于 2020-9-28 09:42:25 | 显示全部楼层 |阅读模式


◎译  名 奥林匹斯的沦陷/End of White House/周全攻占:倒数救济(台)/奥林匹斯沦陷/白宫沦亡(港)/白宫沦陷
◎片  名 Olympus Has Fallen
◎年  代 2013
◎产  地 美国
◎类  别 行动 / 犯罪
◎语  言 英语,韩语
◎上映日期 2013-03-22(美国) / 2013-12-29(中国大陆)
◎IMDb评分  6.5/10 from 253337 users
◎IMDb链接  https://www.imdb.com/title/tt2302755/
◎豆瓣评分 6.4/10 from 63317 users
◎豆瓣链接 https://movie.douban.com/subject/10743974/
◎片  长 114分钟(中国大陆)
◎导  演 安东尼·福奎阿 Antoine Fuqua
◎编  剧 克赖顿·罗森博格 Creighton Rothenberger / 凯特琳·贝内迪克特 Katrin Benedikt
◎主  演 杰拉德·巴特勒 Gerard Butler
       艾伦·艾克哈特 Aaron Eckhart
       芬利·雅克布森 Finley Jacobsen
       迪伦·麦克德莫特 Dylan McDermott
       尹成植 Rick Yune
       摩根·弗里曼 Morgan Freeman
       安吉拉·贝塞特 Angela Bassett
       梅丽莎·里奥 Melissa Leo
       拉达·米切尔 Radha Mitchell
       科尔·豪瑟 Cole Hauser
       艾什莉·贾德 Ashley Judd
       弗莱迪·博什 Freddy Bosche
       凯文·穆 Kevin Moon
       山姆·麦地那 Sam Medina
       乔凡尼·席尔瓦 Giovanni Silva
       赵雅顿 Arden Cho
       马拉纳·李 Malana Lea
       泰伦·伍德利 Tyron Woodley
       伊恩·卡塞尔伯里 Ian Casselberry
       莎娜·福斯塔尔 Shanna Forrestall
       菲尔·奥斯汀 Phil Austin
       詹姆斯·英格索尔 James Ingersoll
       罗伯特·福斯特 Robert Forster
       Lance Broadway
◎标  签 美国 | 行动 | 豪杰主义 | 奸细 | 2013 | 政治 | 暴力 | 电影
◎简  介


  白宫,特情局奥秘代号为“奥林匹斯”,今朝正处在危机当中,一伙可骇份子先用重型的飞机和机枪攻击了这里,随后便派入了一群敢死队进入,他们完全占据了美国总统府,劫持了美国总统,并以此为威胁,企图控制天下格式。
  
  坐在文员办公室的迈克·班宁(杰拉德·巴特勒 Gerard Butler 饰)今后次攻击中活了下来。班宁本来是一个特种兵,负责第一夫人和美国总统(艾伦·艾克哈特 Aaron Eckhart 饰)的安危。可是在一个圣诞节的例利用命中,他的工作出了错,形成了第一夫人的灭亡。后来,班宁就被调剂到了文职工作上。
  
  姑且政府敏捷派遣美国突击队登陆白宫,诡计救援总统,却被可骇份子控制的白宫防御系统击退,救援计划几度失利。眼看可骇份子的诡计行将得逞。由于意外,班宁活了下来,他与姑且政府获得联系,并孤身一人救援总统,班宁成为了全部美国的最初一丝希望。这位前奸细依靠自己过硬的身手,在危机密布的白宫单身力挽狂澜,率先拯救了总统的儿子,让总统摆脱后顾之忧,可骇份子获得天堂犬密码的诡计被提早。经过艰辛的酣战和剧烈的厮杀,班宁拯救了被劫持的总统,并破坏了可骇份子诡计操纵核弹扑灭美国的诡计……
◎获奖情况
  第12届华盛顿影评人协会奖 ?(2013)
  华盛顿特区最好写照(提名)
  1. Video
  2. ID                                       : 1
  3. Format                                   : HEVC
  4. Format/Info                              : High Efficiency Video Coding
  5. Format profile                           : Main [email protected]@High
  6. Codec ID                                 : V_MPEGH/ISO/HEVC
  7. Duration                                 : 1 h 59 min
  8. Bit rate                                 : 19.8 Mb/s
  9. Width                                    : 3 840 pixels
  10. Height                                   : 1 608 pixels
  11. Display aspect ratio                     : 2.40:1
  12. Frame rate mode                          : Constant
  13. Frame rate                               : 24.000 FPS
  14. Color space                              : YUV
  15. Chroma subsampling                       : 4:2:0
  16. Bit depth                                : 10 bits
  17. Bits/(Pixel*Frame)                       : 0.134
  18. Stream size                              : 16.6 GiB (82%)
  19. Title                                    : Olympus.Has.Fallen.2013.2160p.BluRay.x265.10bit.SDR.DTS-HD.MA.5.1-SWTYBLZ
  20. Writing library                          : x265 3.0ed72af837053:[Windows][GCC 8.2.0][64 bit] 10bit
  21. Encoding settings                        : cpuid=1111039 / frame-threads=6 / numa-pools=40 / wpp / no-pmode / no-pme / no-psnr / no-ssim / log-level=2 / input-csp=1 / input-res=3840x1608 / interlace=0 / total-frames=172540 / level-idc=51 / high-tier=1 / uhd-bd=0 / ref=3 / no-allow-non-conformance / repeat-headers / annexb / aud / hrd / info / hash=0 / no-temporal-layers / no-open-gop / min-keyint=1 / keyint=24 / gop-lookahead=0 / bframes=4 / b-adapt=2 / b-pyramid / bframe-bias=0 / rc-lookahead=25 / lookahead-slices=4 / scenecut=40 / radl=0 / no-splice / no-intra-refresh / ctu=64 / min-cu-size=8 / no-rect / no-amp / max-tu-size=32 / tu-inter-depth=1 / tu-intra-depth=1 / limit-tu=0 / rdoq-level=0 / dynamic-rd=0.00 / no-ssim-rd / signhide / no-tskip / nr-intra=0 / nr-inter=0 / no-constrained-intra / strong-intra-smoothing / max-merge=2 / limit-refs=3 / no-limit-modes / me=1 / subme=2 / merange=57 / temporal-mvp / weightp / no-weightb / no-analyze-src-pics / deblock=0:0 / no-sao / no-sao-non-deblock / rd=3 / no-early-skip / rskip / no-fast-intra / no-tskip-fast / no-cu-lossless / no-b-intra / no-splitrd-skip / rdpenalty=0 / psy-rd=2.00 / psy-rdoq=0.00 / no-rd-refine / no-lossless / cbqpoffs=0 / crqpoffs=0 / rc=crf / crf=16.0 / qcomp=0.60 / qpstep=4 / stats-write=0 / stats-read=0 / vbv-maxrate=160000 / vbv-bufsize=160000 / vbv-init=0.9 / crf-max=0.0 / crf-min=0.0 / ipratio=1.40 / pbratio=1.30 / aq-mode=1 / aq-strength=1.00 / cutree / zone-count=0 / no-strict-cbr / qg-size=32 / no-rc-grain / qpmax=69 / qpmin=0 / no-const-vbv / sar=1 / overscan=0 / videoformat=5 / range=0 / colorprim=2 / transfer=2 / colormatrix=2 / chromaloc=0 / display-window=0 / max-cll=0,0 / min-luma=0 / max-luma=1023 / log2-max-poc-lsb=8 / vui-timing-info / vui-hrd-info / slices=1 / opt-qp-pps / opt-ref-list-length-pps / no-multi-pass-opt-rps / scenecut-bias=0.05 / no-opt-cu-delta-qp / no-aq-motion / no-hdr / no-hdr-opt / no-dhdr10-opt / no-idr-recovery-sei / analysis-reuse-level=5 / scale-factor=0 / refine-intra=0 / refine-inter=0 / refine-mv=0 / refine-ctu-distortion=0 / no-limit-sao / ctu-info=0 / no-lowpass-dct / refine-analysis-type=0 / copy-pic=1 / max-ausize-factor=1.0 / no-dynamic-refine / no-single-sei / no-hevc-aq / qp-adaptation-range=1.00
  22. Language                                 : English
  23. Default                                  : Yes
  24. Forced                                   : No
  25. Audio #1
  26. ID                                       : 2
  27. ID in the original source medium         : 4353 (0x1101)
  28. Format                                   : DTS XLL
  29. Format/Info                              : Digital Theater Systems
  30. Commercial name                          : DTS-HD Master Audio
  31. Codec ID                                 : A_DTS
  32. Duration                                 : 1 h 59 min
  33. Bit rate mode                            : Variable
  34. Bit rate                                 : 3 833 kb/s
  35. Channel(s)                               : 6 channels
  36. Channel layout                           : C L R Ls Rs LFE
  37. Sampling rate                            : 48.0 kHz
  38. Frame rate                               : 93.750 FPS (512 SPF)
  39. Bit depth                                : 24 bits
  40. Compression mode                         : Lossless
  41. Stream size                              : 3.21 GiB (16%)
  42. Title                                    : Olympus.Has.Fallen.2013.2160p.BluRay.x265.10bit.SDR.DTS-HD.MA.5.1-SWTYBLZ
  43. Language                                 : English
  44. Default                                  : Yes
  45. Forced                                   : No
  46. Original source medium                   : Blu-ray
  47. Audio #2
  48. ID                                       : 3
  49. Format                                   : AC-3
  50. Format/Info                              : Audio Coding 3
  51. Commercial name                          : Dolby Digital
  52. Codec ID                                 : A_AC3
  53. Duration                                 : 1 h 59 min
  54. Bit rate mode                            : Constant
  55. Bit rate                                 : 640 kb/s
  56. Channel(s)                               : 6 channels
  57. Channel layout                           : L R C LFE Ls Rs
  58. Sampling rate                            : 48.0 kHz
  59. Frame rate                               : 31.250 FPS (1536 SPF)
  60. Compression mode                         : Lossy
  61. Stream size                              : 548 MiB (3%)
  62. Title                                    : Olympus.Has.Fallen.2013.2160p.BluRay.x265.10bit.SDR.DTS-HD.MA.5.1-SWTYBLZ
  63. Language                                 : English
  64. Service kind                             : Complete Main
  65. Default                                  : No
  66. Forced                                   : No
  67. Text #1
  68. ID                                       : 4
  69. Format                                   : UTF-8
  70. Codec ID                                 : S_TEXT/UTF8
  71. Codec ID/Info                            : UTF-8 Plain Text
  72. Duration                                 : 1 h 41 min
  73. Bit rate                                 : 1 b/s
  74. Count of elements                        : 57
  75. Stream size                              : 1.36 KiB (0%)
  76. Title                                    : English-FORCED-SRT
  77. Language                                 : English
  78. Default                                  : Yes
  79. Forced                                   : Yes
  80. Text #2
  81. ID                                       : 5
  82. Format                                   : UTF-8
  83. Codec ID                                 : S_TEXT/UTF8
  84. Codec ID/Info                            : UTF-8 Plain Text
  85. Duration                                 : 1 h 48 min
  86. Bit rate                                 : 47 b/s
  87. Count of elements                        : 1243
  88. Stream size                              : 38.2 KiB (0%)
  89. Title                                    : English-SRT
  90. Language                                 : English
  91. Default                                  : No
  92. Forced                                   : No
  93. Text #3
  94. ID                                       : 6
  95. ID in the original source medium         : 4768 (0x12A0)
  96. Format                                   : PGS
  97. Muxing mode                              : zlib
  98. Codec ID                                 : S_HDMV/PGS
  99. Codec ID/Info                            : Picture based subtitle format used on BDs/HD-DVDs
  100. Duration                                 : 1 h 58 min
  101. Bit rate                                 : 25.1 kb/s
  102. Count of elements                        : 2532
  103. Stream size                              : 21.3 MiB (0%)
  104. Title                                    : German-PGS
  105. Language                                 : German
  106. Default                                  : No
  107. Forced                                   : No
  108. Original source medium                   : Blu-ray
  109. Text #4
  110. ID                                       : 7
  111. ID in the original source medium         : 4769 (0x12A1)
  112. Format                                   : PGS
  113. Muxing mode                              : zlib
  114. Codec ID                                 : S_HDMV/PGS
  115. Codec ID/Info                            : Picture based subtitle format used on BDs/HD-DVDs
  116. Duration                                 : 1 h 58 min
  117. Bit rate                                 : 681 b/s
  118. Count of elements                        : 86
  119. Stream size                              : 593 KiB (0%)
  120. Title                                    : German-FORCED-PGS
  121. Language                                 : German
  122. Default                                  : No
  123. Forced                                   : No
  124. Original source medium                   : Blu-ray
  125. Text #5
  126. ID                                       : 8
  127. ID in the original source medium         : 4770 (0x12A2)
  128. Format                                   : PGS
  129. Muxing mode                              : zlib
  130. Codec ID                                 : S_HDMV/PGS
  131. Codec ID/Info                            : Picture based subtitle format used on BDs/HD-DVDs
  132. Duration                                 : 1 h 41 min
  133. Bit rate                                 : 974 b/s
  134. Count of elements                        : 114
  135. Stream size                              : 726 KiB (0%)
  136. Title                                    : English-FORCED-PGS
  137. Language                                 : English
  138. Default                                  : No
  139. Forced                                   : No
  140. Original source medium                   : Blu-ray
  141. Menu
  142. 00:00:00.000                             : en:Chapter 01
  143. 00:09:39.958                             : en:Chapter 02
  144. 00:19:28.166                             : en:Chapter 03
  145. 00:30:43.208                             : en:Chapter 04
  146. 00:40:30.666                             : en:Chapter 05
  147. 00:51:07.916                             : en:Chapter 06
  148. 01:02:58.541                             : en:Chapter 07
  149. 01:12:34.750                             : en:Chapter 08
  150. 01:20:12.541                             : en:Chapter 09
  151. 01:32:18.250                             : en:Chapter 10
  152. 01:40:31.125                             : en:Chapter 11
  153. 01:50:38.916                             : en:Chapter 12
复制代码










                                       
                                       

                                       
                                       
                                       




回复

使用道具 举报

懒得打字嘛,点击右侧快捷回复 【右侧内容,后台自定义】
您需要登录后才可以回帖 登录 | 立即加入

本版积分规则

Archiver|小黑屋| 蓝光电影网 |网站地图

Copyright © 2021 Comsenz Inc. Powered by 蓝光电影网

蓝光电影网

本站内容由用户自主分享和转载自互联网,转载目的在于传递更多信息,并不代表本网赞同其观点和对其真实性负责。

如有侵权、违反国家法律政策行为,请联系我们,我们会第一时间及时清除和处理!

举报反馈邮箱:[email protected]

快速回复 返回顶部 返回列表