找回密码

蓝光电影网

查看: 108|回复: 0

[2160p] 伦敦陷落/全面攻占2:伦敦救援 London.Has.Fallen.2016.2160p.BluRay.x265.10bit.SDR.DTS-HD.MA.5.1-SWTYBLZ 15.74GB

[复制链接]
蓝光币
1082
发表于 2020-9-28 09:38:13 | 显示全部楼层 |阅读模式


◎译  名 伦敦沦陷/周全攻占2:伦敦救济(台)/白宫沦亡2:伦敦沦亡(港)
◎片  名 London Has Fallen
◎年  代 2016
◎产  地 英国,美国,保加利亚
◎类  别 行动 / 惊悚 / 犯罪
◎语  言 英语,意大利语,法语,日语
◎上映日期 2016-03-04(美国/英国) / 2016-04-08(中国大陆)
◎IMDb评分  5.9/10 from 141986 users
◎IMDb链接  https://www.imdb.com/title/tt3300542/
◎豆瓣评分 6.3/10 from 89852 users
◎豆瓣链接 https://movie.douban.com/subject/25757186/
◎片  长 98分钟(中国大陆)
◎导  演 巴巴克·纳加非 Babak Najafi
◎编  剧 克赖顿·罗森博格 Creighton Rothenberger / 凯特琳·贝内迪克特 Katrin Benedikt / 克里斯蒂安·古德加斯特 Christian Gudegast / 查德·圣·约翰 Chad St. John
◎主  演 杰拉德·巴特勒 Gerard Butler
       艾伦·艾克哈特 Aaron Eckhart
       摩根·弗里曼 Morgan Freeman
       阿隆·阿布布尔 Alon Aboutboul
       安吉拉·贝塞特 Angela Bassett
       罗伯特·福斯特 Robert Forster
       梅丽莎·里奥 Melissa Leo
       拉达·米切尔 Radha Mitchell
       肖恩·奥布赖恩 Sean O'Bryan
       瓦利德·祖伊特 Waleed Zuaiter
       夏洛特·莱利 Charlotte Riley
       杰基·厄尔·哈利 Jackie Earle Haley
       科林·萨蒙 Colin Salmon
       帕特里克·肯尼迪 Patrick Kennedy
       麦赫迪·德比 Mehdi Dehbi
       朱利安·科斯托夫 Julian Kostov
       安东·波利亚佐夫 Anton Poriazov
       什瓦妮·盖伊 Shivani Ghai
       迈克尔·怀德曼 Michael Wildman
       佩妮·唐尼 Penny Downie
       Deborah Grant
       特伦斯·比斯利 Terence Beesley
       蒂姆·伍德沃德 Tim Woodward
       艾尔莎·莫利安 Elsa Mollien
       张欣 Xin Zhang
       豪尔赫·莱昂·马丁内斯 Jorge Leon Martinez
       安德鲁·普利文 Andrew Pleavin
◎标  签 行动 | 美国 | 犯罪 | 2016 | 英国 | 伦敦 | 暴力 | 反恐
◎简  介


  班宁(杰拉德·巴特勒 Gerard Butler 饰)是美国特勤局的奸细,比来,他接到了一个重要的使命,那就是联手局长琳(安吉拉·贝塞特 Angela Bassett 饰),护送总统本杰明(艾伦·艾克哈特 Aaron Eckhart 饰)前往伦敦圣保罗教堂,加入英国辅弼的葬礼。
  
  英国辅弼死得蹊跷,班宁和琳晓得,他们的路程一定遭到了犯警份子的亲近关注,与此同时,在葬礼上,列国领袖均有列席,伦敦这座富贵靓丽的城市霎时候成为了天下关注的焦点。果不其然,刺客们潜伏在暗处期待着机会,国家带领人频频遭到伏击,伦敦地标修建亦不能幸免于难,整座城市堕入了紊乱和瘫痪当中。而对于班宁来说,最要紧的使命,即是护送总统,回到国内。
◎获奖情况
  第37届金酸莓奖 ?(2017)
  最差男配角(提名) 杰拉德·巴特勒
  
  第3届豆瓣电影年度榜单 ?(2016)
  4月最受关注电影(提名)
  1. Video
  2. ID                                       : 1
  3. Format                                   : HEVC
  4. Format/Info                              : High Efficiency Video Coding
  5. Format profile                           : Main [email protected]@High
  6. Codec ID                                 : V_MPEGH/ISO/HEVC
  7. Duration                                 : 1 h 39 min
  8. Bit rate                                 : 18.3 Mb/s
  9. Width                                    : 3 840 pixels
  10. Height                                   : 1 608 pixels
  11. Display aspect ratio                     : 2.40:1
  12. Frame rate mode                          : Constant
  13. Frame rate                               : 24.000 FPS
  14. Color space                              : YUV
  15. Chroma subsampling                       : 4:2:0
  16. Bit depth                                : 10 bits
  17. Bits/(Pixel*Frame)                       : 0.123
  18. Stream size                              : 12.7 GiB (81%)
  19. Title                                    : London.Has.Fallen.2016.2160p.BluRay.x265.10bit.SDR.DTS-HD.MA.5.1-SWTYBLZ
  20. Writing library                          : x265 3.0ed72af837053:[Windows][GCC 8.2.0][64 bit] 10bit
  21. Encoding settings                        : cpuid=1111039 / frame-threads=6 / numa-pools=40 / wpp / no-pmode / no-pme / no-psnr / no-ssim / log-level=2 / input-csp=1 / input-res=3840x1608 / interlace=0 / total-frames=142936 / level-idc=51 / high-tier=1 / uhd-bd=0 / ref=3 / no-allow-non-conformance / repeat-headers / annexb / aud / hrd / info / hash=0 / no-temporal-layers / no-open-gop / min-keyint=1 / keyint=24 / gop-lookahead=0 / bframes=4 / b-adapt=2 / b-pyramid / bframe-bias=0 / rc-lookahead=25 / lookahead-slices=4 / scenecut=40 / radl=0 / no-splice / no-intra-refresh / ctu=64 / min-cu-size=8 / no-rect / no-amp / max-tu-size=32 / tu-inter-depth=1 / tu-intra-depth=1 / limit-tu=0 / rdoq-level=0 / dynamic-rd=0.00 / no-ssim-rd / signhide / no-tskip / nr-intra=0 / nr-inter=0 / no-constrained-intra / strong-intra-smoothing / max-merge=2 / limit-refs=3 / no-limit-modes / me=1 / subme=2 / merange=57 / temporal-mvp / weightp / no-weightb / no-analyze-src-pics / deblock=0:0 / no-sao / no-sao-non-deblock / rd=3 / no-early-skip / rskip / no-fast-intra / no-tskip-fast / no-cu-lossless / no-b-intra / no-splitrd-skip / rdpenalty=0 / psy-rd=2.00 / psy-rdoq=0.00 / no-rd-refine / no-lossless / cbqpoffs=0 / crqpoffs=0 / rc=crf / crf=16.0 / qcomp=0.60 / qpstep=4 / stats-write=0 / stats-read=0 / vbv-maxrate=160000 / vbv-bufsize=160000 / vbv-init=0.9 / crf-max=0.0 / crf-min=0.0 / ipratio=1.40 / pbratio=1.30 / aq-mode=1 / aq-strength=1.00 / cutree / zone-count=0 / no-strict-cbr / qg-size=32 / no-rc-grain / qpmax=69 / qpmin=0 / no-const-vbv / sar=1 / overscan=0 / videoformat=5 / range=0 / colorprim=2 / transfer=2 / colormatrix=2 / chromaloc=0 / display-window=0 / max-cll=0,0 / min-luma=0 / max-luma=1023 / log2-max-poc-lsb=8 / vui-timing-info / vui-hrd-info / slices=1 / opt-qp-pps / opt-ref-list-length-pps / no-multi-pass-opt-rps / scenecut-bias=0.05 / no-opt-cu-delta-qp / no-aq-motion / no-hdr / no-hdr-opt / no-dhdr10-opt / no-idr-recovery-sei / analysis-reuse-level=5 / scale-factor=0 / refine-intra=0 / refine-inter=0 / refine-mv=0 / refine-ctu-distortion=0 / no-limit-sao / ctu-info=0 / no-lowpass-dct / refine-analysis-type=0 / copy-pic=1 / max-ausize-factor=1.0 / no-dynamic-refine / no-single-sei / no-hevc-aq / qp-adaptation-range=1.00
  22. Default                                  : Yes
  23. Forced                                   : No
  24. Audio #1
  25. ID                                       : 2
  26. Format                                   : DTS XLL
  27. Format/Info                              : Digital Theater Systems
  28. Commercial name                          : DTS-HD Master Audio
  29. Codec ID                                 : A_DTS
  30. Duration                                 : 1 h 39 min
  31. Bit rate mode                            : Variable
  32. Bit rate                                 : 3 660 kb/s
  33. Channel(s)                               : 6 channels
  34. Channel layout                           : C L R Ls Rs LFE
  35. Sampling rate                            : 48.0 kHz
  36. Frame rate                               : 93.750 FPS (512 SPF)
  37. Bit depth                                : 24 bits
  38. Compression mode                         : Lossless
  39. Stream size                              : 2.54 GiB (16%)
  40. Title                                    : London.Has.Fallen.2016.2160p.BluRay.x265.10bit.SDR.DTS-HD.MA.5.1-SWTYBLZ
  41. Language                                 : English
  42. Default                                  : Yes
  43. Forced                                   : No
  44. Audio #2
  45. ID                                       : 3
  46. Format                                   : AC-3
  47. Format/Info                              : Audio Coding 3
  48. Commercial name                          : Dolby Digital
  49. Codec ID                                 : A_AC3
  50. Duration                                 : 1 h 39 min
  51. Bit rate mode                            : Constant
  52. Bit rate                                 : 640 kb/s
  53. Channel(s)                               : 6 channels
  54. Channel layout                           : L R C LFE Ls Rs
  55. Sampling rate                            : 48.0 kHz
  56. Frame rate                               : 31.250 FPS (1536 SPF)
  57. Compression mode                         : Lossy
  58. Stream size                              : 454 MiB (3%)
  59. Title                                    : London.Has.Fallen.2016.2160p.BluRay.x265.10bit.SDR.DTS-HD.MA.5.1-SWTYBLZ
  60. Language                                 : English
  61. Service kind                             : Complete Main
  62. Default                                  : No
  63. Forced                                   : No
  64. Text #1
  65. ID                                       : 4
  66. Format                                   : UTF-8
  67. Codec ID                                 : S_TEXT/UTF8
  68. Codec ID/Info                            : UTF-8 Plain Text
  69. Duration                                 : 1 h 16 min
  70. Bit rate                                 : 0 b/s
  71. Count of elements                        : 14
  72. Stream size                              : 320 Bytes (0%)
  73. Title                                    : English-FORCED-SRT
  74. Language                                 : English
  75. Default                                  : Yes
  76. Forced                                   : No
  77. Text #2
  78. ID                                       : 5
  79. Format                                   : UTF-8
  80. Codec ID                                 : S_TEXT/UTF8
  81. Codec ID/Info                            : UTF-8 Plain Text
  82. Duration                                 : 1 h 37 min
  83. Bit rate                                 : 44 b/s
  84. Count of elements                        : 1257
  85. Stream size                              : 32.2 KiB (0%)
  86. Title                                    : English-SRT
  87. Language                                 : English
  88. Default                                  : No
  89. Forced                                   : No
  90. Text #3
  91. ID                                       : 6
  92. Format                                   : PGS
  93. Muxing mode                              : zlib
  94. Codec ID                                 : S_HDMV/PGS
  95. Codec ID/Info                            : Picture based subtitle format used on BDs/HD-DVDs
  96. Duration                                 : 1 h 38 min
  97. Bit rate                                 : 20.8 kb/s
  98. Count of elements                        : 1904
  99. Stream size                              : 14.6 MiB (0%)
  100. Title                                    : German-PGS
  101. Language                                 : German
  102. Default                                  : No
  103. Forced                                   : No
  104. Text #4
  105. ID                                       : 7
  106. Format                                   : PGS
  107. Muxing mode                              : zlib
  108. Codec ID                                 : S_HDMV/PGS
  109. Codec ID/Info                            : Picture based subtitle format used on BDs/HD-DVDs
  110. Duration                                 : 1 h 38 min
  111. Bit rate                                 : 27.1 kb/s
  112. Count of elements                        : 3070
  113. Stream size                              : 19.1 MiB (0%)
  114. Title                                    : English-PGS
  115. Language                                 : English
  116. Default                                  : No
  117. Forced                                   : No
  118. Text #5
  119. ID                                       : 8
  120. Format                                   : PGS
  121. Muxing mode                              : zlib
  122. Codec ID                                 : S_HDMV/PGS
  123. Codec ID/Info                            : Picture based subtitle format used on BDs/HD-DVDs
  124. Duration                                 : 1 h 36 min
  125. Bit rate                                 : 454 b/s
  126. Count of elements                        : 46
  127. Stream size                              : 322 KiB (0%)
  128. Title                                    : GERMAN-FORCED-PGS
  129. Language                                 : German
  130. Default                                  : No
  131. Forced                                   : No
  132. Text #6
  133. ID                                       : 9
  134. Format                                   : PGS
  135. Muxing mode                              : zlib
  136. Codec ID                                 : S_HDMV/PGS
  137. Codec ID/Info                            : Picture based subtitle format used on BDs/HD-DVDs
  138. Duration                                 : 1 h 16 min
  139. Bit rate                                 : 277 b/s
  140. Count of elements                        : 28
  141. Stream size                              : 156 KiB (0%)
  142. Title                                    : English-FORCED-PGS
  143. Language                                 : English
  144. Default                                  : No
  145. Forced                                   : No
  146. Menu
  147. 00:00:00.000                             : en:Chapter 01
  148. 00:10:36.125                             : en:Chapter 02
  149. 00:21:12.083                             : en:Chapter 03
  150. 00:33:52.125                             : en:Chapter 04
  151. 00:45:26.500                             : en:Chapter 05
  152. 00:57:35.583                             : en:Chapter 06
  153. 01:08:43.416                             : en:Chapter 07
  154. 01:17:54.666                             : en:Chapter 08
  155. 01:32:00.666                             : en:Chapter 09
复制代码










                                       
                                       

                                       
                                       
                                       




回复

使用道具 举报

懒得打字嘛,点击右侧快捷回复 【右侧内容,后台自定义】
您需要登录后才可以回帖 登录 | 立即加入

本版积分规则

Archiver|小黑屋| 蓝光电影网 |网站地图

Copyright © 2021 Comsenz Inc. Powered by 蓝光电影网

蓝光电影网

本站内容由用户自主分享和转载自互联网,转载目的在于传递更多信息,并不代表本网赞同其观点和对其真实性负责。

如有侵权、违反国家法律政策行为,请联系我们,我们会第一时间及时清除和处理!

举报反馈邮箱:[email protected]

快速回复 返回顶部 返回列表