找回密码

蓝光电影网

查看: 223|回复: 0

[UHD.HEVC] 特种空勤团:红色通缉令/SAS:红色通知 SAS.Red.Notice.2021.2160p.BluRay.REMUX.HEVC.DTS-HD.MA.5.1-FGT 47.99GB

[复制链接]
蓝光币
1080
发表于 2021-5-13 15:14:25 | 显示全部楼层 |阅读模式


◎译  名 特种空勤团:红色通缉令/SAS:红色告诉
◎片  名 SAS: Red Notice
◎年  代 2021
◎产  地 英国,匈牙利,荷兰,瑞士
◎类  别 行动 / 犯罪
◎语  言 英语
◎上映日期 2021-03-12(英国)
◎IMDb评分  4.9/10 from 5646 users
◎IMDb链接  https://www.imdb.com/title/tt4479380/
◎豆瓣评分 5.4/10 from 736 users
◎豆瓣链接 https://movie.douban.com/subject/26322998/
◎导  演 马格努斯·马滕斯 Magnus Martens / 尼克·拉夫 Nick Love
◎编  剧 Andy McNab
◎主  演 萨姆·修汉 Sam Heughan
       鲁比·罗丝 Ruby Rose
       安迪·瑟金斯 Andy Serkis
       汉娜·乔恩-卡门 Hannah John-Kamen
       汤姆·霍珀 Tom Hopper
       诺埃尔·克拉克 Noel Clarke
       汤姆·威尔金森 Tom Wilkinson
       欧文·约曼 Owain Yeoman
       雷·潘莎基 Ray Panthaki
       安妮·雷德 Anne Reid
       陆思敬 Jing Lusi
       萨拉·温特 Sarah Winter
       理查德·麦凯布 Richard McCabe
       道格拉斯·瑞斯 Douglas Reith
       戴兰·史姑娘 Dylan Smith
       卡罗琳·博尔顿 Caroline Boulton
       阿提拉·阿帕 Attila árpa
       蒂姆·费林汉姆 Tim Fellingham
       泰·赫尔利 Ty Hurley
       马丁·安格鲍尔 Martin Angerbauer
       罗德里克·希尔 Roderick Hill
       巴尔·瓦斯维尔斯 Balázs Veres
◎标  签 行动 | 英国 | 犯罪 | 2021 | 电影 | B欧洲 | 2020观影 | 2020
◎简  介


  一支由拉兹洛·安东诺夫带领的练习有素的罪犯组成的小军队在英吉祥海峡深处劫持了“欧洲之星”。
  1. Video
  2. ID                                       : 1
  3. ID in the original source medium         : 4113 (0x1011)
  4. Format                                   : HEVC
  5. Format/Info                              : High Efficiency Video Coding
  6. Format profile                           : Main [email protected]@High
  7. HDR format                               : SMPTE ST 2094 App 4, Version 1, HDR10+ Profile B compatible
  8. Codec ID                                 : V_MPEGH/ISO/HEVC
  9. Duration                                 : 2 h 4 min
  10. Bit rate                                 : 47.4 Mb/s
  11. Width                                    : 3 840 pixels
  12. Height                                   : 2 160 pixels
  13. Display aspect ratio                     : 16:9
  14. Frame rate mode                          : Constant
  15. Frame rate                               : 24.000 FPS
  16. Color space                              : YUV
  17. Chroma subsampling                       : 4:2:0 (Type 2)
  18. Bit depth                                : 10 bits
  19. Bits/(Pixel*Frame)                       : 0.238
  20. Stream size                              : 41.1 GiB (86%)
  21. Language                                 : English
  22. Default                                  : No
  23. Forced                                   : No
  24. Color range                              : Limited
  25. Color primaries                          : BT.2020
  26. Transfer characteristics                 : PQ
  27. Matrix coefficients                      : BT.2020 non-constant
  28. Mastering display color primaries        : Display P3
  29. Mastering display luminance              : min: 0.0001 cd/m2, max: 1000 cd/m2
  30. Maximum Content Light Level              : 2579 cd/m2
  31. Maximum Frame-Average Light Level        : 530 cd/m2
  32. Original source medium                   : Blu-ray

  33. Audio #1
  34. ID                                       : 2
  35. ID in the original source medium         : 4353 (0x1101)
  36. Format                                   : DTS XLL
  37. Format/Info                              : Digital Theater Systems
  38. Commercial name                          : DTS-HD Master Audio
  39. Codec ID                                 : A_DTS
  40. Duration                                 : 2 h 4 min
  41. Bit rate mode                            : Variable
  42. Bit rate                                 : 3 622 kb/s
  43. Channel(s)                               : 6 channels
  44. Channel layout                           : C L R Ls Rs LFE
  45. Sampling rate                            : 48.0 kHz
  46. Frame rate                               : 93.750 FPS (512 SPF)
  47. Bit depth                                : 24 bits
  48. Compression mode                         : Lossless
  49. Stream size                              : 3.14 GiB (7%)
  50. Title                                    : DTS-HD MA 5.1
  51. Language                                 : English
  52. Default                                  : Yes
  53. Forced                                   : No
  54. Original source medium                   : Blu-ray

  55. Audio #2
  56. ID                                       : 3
  57. Format                                   : AC-3
  58. Format/Info                              : Audio Coding 3
  59. Commercial name                          : Dolby Digital
  60. Codec ID                                 : A_AC3
  61. Duration                                 : 2 h 4 min
  62. Bit rate mode                            : Constant
  63. Bit rate                                 : 640 kb/s
  64. Channel(s)                               : 6 channels
  65. Channel layout                           : L R C LFE Ls Rs
  66. Sampling rate                            : 48.0 kHz
  67. Frame rate                               : 31.250 FPS (1536 SPF)
  68. Compression mode                         : Lossy
  69. Stream size                              : 568 MiB (1%)
  70. Title                                    : DD 5.1
  71. Language                                 : English
  72. Service kind                             : Complete Main
  73. Default                                  : No
  74. Forced                                   : No

  75. Audio #3
  76. ID                                       : 4
  77. ID in the original source medium         : 4352 (0x1100)
  78. Format                                   : DTS XLL
  79. Format/Info                              : Digital Theater Systems
  80. Commercial name                          : DTS-HD Master Audio
  81. Codec ID                                 : A_DTS
  82. Duration                                 : 2 h 4 min
  83. Bit rate mode                            : Variable
  84. Bit rate                                 : 3 704 kb/s
  85. Channel(s)                               : 6 channels
  86. Channel layout                           : C L R Ls Rs LFE
  87. Sampling rate                            : 48.0 kHz
  88. Frame rate                               : 93.750 FPS (512 SPF)
  89. Bit depth                                : 24 bits
  90. Compression mode                         : Lossless
  91. Stream size                              : 3.21 GiB (7%)
  92. Title                                    : DTS-HD MA 5.1
  93. Language                                 : German
  94. Default                                  : No
  95. Forced                                   : No
  96. Original source medium                   : Blu-ray

  97. Text #1
  98. ID                                       : 5
  99. Format                                   : UTF-8
  100. Codec ID                                 : S_TEXT/UTF8
  101. Codec ID/Info                            : UTF-8 Plain Text
  102. Duration                                 : 1 h 57 min
  103. Bit rate                                 : 50 b/s
  104. Count of elements                        : 1406
  105. Stream size                              : 43.9 KiB (0%)
  106. Title                                    : English-SRT
  107. Language                                 : English
  108. Default                                  : Yes
  109. Forced                                   : No

  110. Text #2
  111. ID                                       : 6
  112. ID in the original source medium         : 4768 (0x12A0)
  113. Format                                   : PGS
  114. Muxing mode                              : zlib
  115. Codec ID                                 : S_HDMV/PGS
  116. Codec ID/Info                            : Picture based subtitle format used on BDs/HD-DVDs
  117. Duration                                 : 1 h 57 min
  118. Bit rate                                 : 40.5 kb/s
  119. Count of elements                        : 2432
  120. Stream size                              : 34.1 MiB (0%)
  121. Title                                    : German-PGS
  122. Language                                 : German
  123. Default                                  : No
  124. Forced                                   : No
  125. Original source medium                   : Blu-ray

  126. Text #3
  127. ID                                       : 7
  128. ID in the original source medium         : 4769 (0x12A1)
  129. Format                                   : PGS
  130. Muxing mode                              : zlib
  131. Codec ID                                 : S_HDMV/PGS
  132. Codec ID/Info                            : Picture based subtitle format used on BDs/HD-DVDs
  133. Duration                                 : 1 h 53 min
  134. Bit rate                                 : 1 420 b/s
  135. Count of elements                        : 106
  136. Stream size                              : 1.15 MiB (0%)
  137. Title                                    : German-FORCED-PGS
  138. Language                                 : German
  139. Default                                  : No
  140. Forced                                   : No
  141. Original source medium                   : Blu-ray

  142. Menu
  143. 00:00:00.000                             : Chapter 01
  144. 00:06:55.333                             : Chapter 02
  145. 00:18:19.958                             : Chapter 03
  146. 00:30:29.166                             : Chapter 04
  147. 00:39:41.208                             : Chapter 05
  148. 00:50:07.916                             : Chapter 06
  149. 01:00:41.916                             : Chapter 07
  150. 01:11:53.375                             : Chapter 08
  151. 01:21:51.875                             : Chapter 09
  152. 01:34:23.416                             : Chapter 10
  153. 01:49:15.125                             : Chapter 11
  154. 01:58:18.333                             : Chapter 12
  155. 02:03:38.541                             : Chapter 13
复制代码




                                       
                                       

                                       
                                       
                                       




回复

使用道具 举报

懒得打字嘛,点击右侧快捷回复 【右侧内容,后台自定义】
您需要登录后才可以回帖 登录 | 立即加入

本版积分规则

Archiver|小黑屋| 蓝光电影网 |网站地图

Copyright © 2021 Comsenz Inc. Powered by 蓝光电影网

蓝光电影网

本站内容由用户自主分享和转载自互联网,转载目的在于传递更多信息,并不代表本网赞同其观点和对其真实性负责。

如有侵权、违反国家法律政策行为,请联系我们,我们会第一时间及时清除和处理!

举报反馈邮箱:[email protected]

快速回复 返回顶部 返回列表