找回密码

蓝光电影网

查看: 95|回复: 0

[2160p] 攻壳机动队 Ghost.in.the.Shell.1995.JAPANESE.2160p.US.BluRay.x264.8bit.SDR.DTS-HD.MA.TrueHD.7.1.Atmos-SWTYBLZ 28.61GB

[复制链接]
蓝光币
1078
发表于 2020-9-27 17:05:17 | 显示全部楼层 |阅读模式


◎译  名 攻壳灵活队/Ghost in the Shell
◎片  名 攻殻機動隊
◎年  代 1995
◎产  地 日本
◎类  别 行动 / 科幻 / 动画
◎语  言 日语
◎上映日期 1995-11-18(日本)
◎IMDb评分  8/10 from 126023 users
◎IMDb链接  https://www.imdb.com/title/tt0113568/
◎豆瓣评分 9.0/10 from 99249 users
◎豆瓣链接 https://movie.douban.com/subject/1291936/
◎片  长 83分钟
◎导  演 押井守 Mamoru Oshii
◎编  剧 伊藤和典 Kazunori It? / 士郎正宗 Masamune Shirow
◎主  演 田中敦子 Atsuko Tanaka
       大塚明夫 Akio ?tsuka
       山寺宏一 K?ichi Yamadera
       大木民夫 Tamio ?ki
       家弓家正 Iemasa Kayumi
       玄田哲章 Tessh? Genda
       山内雅人 Masato Yamanouchi
       小川真司 Shinji Ogawa
       宫本充 Mitsuru Miyamoto
       小高三良 Odaka Sanryou
       后藤敦 Gotou Atsushi
       山路和弘 Kazuhiro Yamaji
       佐藤政道 Masamichi Sat?
       Lia Sargent
       布莱恩·科兰斯顿 Bryan Cranston
       松山鹰志 Takashi Matsuyama
◎标  签 科幻 | 动画 | 日本 | 押井守 | 攻壳灵活队 | 日本动画 | 动漫 | 1995
◎简  介


  公元2029年,未来天下是高科技与信息化的天下。人类生死水平的进步陪伴着犯罪活动的高科技化,因而,专门弹压高科技犯罪的特别军队——公安9课建立了。队长草薙素子,作为一位满身“义体化”的女警,率领公安9课不竭展开行动。
  
  是次,公安9课帮助公安6课奥秘处理了一位法式员外逃他国的麻烦杂事,又卷入传闻中的黑客“傀儡师”的犯罪事务。当行动堕入僵局之际,傀儡师居然不速之客,出现在公安9课!素子与她的战友们,不知不觉地被卷入了一场触及政府的诡计当中。
  1. Video
  2. ID                                       : 1
  3. Format                                   : AVC
  4. Format/Info                              : Advanced Video Codec
  5. Format profile                           : [email protected]
  6. Format settings                          : CABAC / 5 Ref Frames
  7. Format settings, CABAC                   : Yes
  8. Format settings, Reference frames        : 5 frames
  9. Codec ID                                 : V_MPEG4/ISO/AVC
  10. Duration                                 : 1 h 22 min
  11. Bit rate                                 : 30.4 Mb/s
  12. Width                                    : 3 840 pixels
  13. Height                                   : 2 074 pixels
  14. Display aspect ratio                     : 1.85:1
  15. Frame rate mode                          : Constant
  16. Frame rate                               : 23.976 (24000/1001/189150) FPS
  17. Color space                              : YUV
  18. Chroma subsampling                       : 4:2:0
  19. Bit depth                                : 8 bits
  20. Scan type                                : Progressive
  21. Bits/(Pixel*Frame)                       : 0.159
  22. Stream size                              : 17.6 GiB (62%)
  23. Title                                    : Ghost.in.the.Shell.1995.2160p.BluRay.x264.8bit.SDR.DTS-HD.MA.TrueHD.7.1.Atmos-SWTYBLZ
  24. Writing library                          : x264 core 157 r2935 545de2f
  25. Encoding settings                        : cabac=1 / ref=5 / deblock=1:1:1 / analyse=0x3:0x113 / me=umh / subme=10 / psy=1 / psy_rd=0.40:0.00 / mixed_ref=1 / me_range=48 / chroma_me=1 / trellis=2 / 8x8dct=1 / cqm=0 / deadzone=21,11 / fast_pskip=1 / chroma_qp_offset=-2 / threads=36 / lookahead_threads=4 / sliced_threads=0 / nr=0 / decimate=0 / interlaced=0 / bluray_compat=0 / constrained_intra=0 / bframes=5 / b_pyramid=2 / b_adapt=2 / b_bias=0 / direct=3 / weightb=1 / open_gop=0 / weightp=2 / keyint=250 / keyint_min=23 / scenecut=40 / intra_refresh=0 / rc_lookahead=50 / rc=crf / mbtree=1 / crf=16.0 / qcomp=0.60 / qpmin=0 / qpmax=69 / qpstep=4 / ip_ratio=1.40 / aq=1:0.60
  26. Default                                  : Yes
  27. Forced                                   : No

  28. Audio #1
  29. ID                                       : 2
  30. ID in the original source medium         : 4353 (0x1101)
  31. Format                                   : MLP FBA 16-ch
  32. Format/Info                              : Meridian Lossless Packing FBA with 16-channel presentation
  33. Commercial name                          : Dolby TrueHD with Dolby Atmos
  34. Codec ID                                 : A_TRUEHD
  35. Duration                                 : 1 h 22 min
  36. Bit rate mode                            : Variable
  37. Bit rate                                 : 4 156 kb/s
  38. Maximum bit rate                         : 6 606 kb/s
  39. Channel(s)                               : 8 channels
  40. Channel layout                           : L R C LFE Ls Rs Lb Rb
  41. Sampling rate                            : 48.0 kHz
  42. Frame rate                               : 1 200.000 FPS (40 SPF)
  43. Compression mode                         : Lossless
  44. Stream size                              : 2.40 GiB (8%)
  45. Title                                    : Ghost.in.the.Shell.1995.2160p.BluRay.x264.8bit.SDR.DTS-HD.MA.TrueHD.7.1.Atmos-SWTYBLZ
  46. Language                                 : Japanese
  47. Default                                  : Yes
  48. Forced                                   : No
  49. Original source medium                   : Blu-ray
  50. Number of dynamic objects                : 11
  51. Bed channel count                        : 1 channel
  52. Bed channel configuration                : LFE

  53. Audio #2
  54. ID                                       : 3
  55. Format                                   : DTS XLL
  56. Format/Info                              : Digital Theater Systems
  57. Commercial name                          : DTS-HD Master Audio
  58. Codec ID                                 : A_DTS
  59. Duration                                 : 1 h 22 min
  60. Bit rate mode                            : Variable
  61. Bit rate                                 : 4 443 kb/s
  62. Channel(s)                               : 8 channels
  63. Channel layout                           : C L R LFE Lb Rb Lss Rss
  64. Sampling rate                            : 48.0 kHz
  65. Frame rate                               : 93.750 FPS (512 SPF)
  66. Bit depth                                : 24 bits
  67. Compression mode                         : Lossless
  68. Stream size                              : 2.57 GiB (9%)
  69. Title                                    : Ghost.in.the.Shell.1995.2160p.BluRay.x264.8bit.SDR.DTS-HD.MA.TrueHD.7.1.Atmos-SWTYBLZ
  70. Language                                 : Japanese
  71. Default                                  : No
  72. Forced                                   : No

  73. Audio #3
  74. ID                                       : 4
  75. ID in the original source medium         : 4353 (0x1101)
  76. Format                                   : AC-3
  77. Format/Info                              : Audio Coding 3
  78. Commercial name                          : Dolby Digital
  79. Codec ID                                 : A_AC3
  80. Duration                                 : 1 h 22 min
  81. Bit rate mode                            : Constant
  82. Bit rate                                 : 640 kb/s
  83. Channel(s)                               : 6 channels
  84. Channel layout                           : L R C LFE Ls Rs
  85. Sampling rate                            : 48.0 kHz
  86. Frame rate                               : 31.250 FPS (1536 SPF)
  87. Compression mode                         : Lossy
  88. Stream size                              : 378 MiB (1%)
  89. Title                                    : Ghost.in.the.Shell.1995.2160p.BluRay.x264.8bit.SDR.DTS-HD.MA.TrueHD.7.1.Atmos-SWTYBLZ
  90. Language                                 : Japanese
  91. Service kind                             : Complete Main
  92. Default                                  : No
  93. Forced                                   : No
  94. Original source medium                   : Blu-ray

  95. Audio #4
  96. ID                                       : 5
  97. ID in the original source medium         : 4352 (0x1100)
  98. Format                                   : MLP FBA 16-ch
  99. Format/Info                              : Meridian Lossless Packing FBA with 16-channel presentation
  100. Commercial name                          : Dolby TrueHD with Dolby Atmos
  101. Codec ID                                 : A_TRUEHD
  102. Duration                                 : 1 h 22 min
  103. Bit rate mode                            : Variable
  104. Bit rate                                 : 4 432 kb/s
  105. Maximum bit rate                         : 6 612 kb/s
  106. Channel(s)                               : 8 channels
  107. Channel layout                           : L R C LFE Ls Rs Lb Rb
  108. Sampling rate                            : 48.0 kHz
  109. Frame rate                               : 1 200.000 FPS (40 SPF)
  110. Compression mode                         : Lossless
  111. Stream size                              : 2.56 GiB (9%)
  112. Title                                    : Ghost.in.the.Shell.1995.2160p.BluRay.x264.8bit.SDR.DTS-HD.MA.TrueHD.7.1.Atmos-SWTYBLZ
  113. Language                                 : English
  114. Default                                  : No
  115. Forced                                   : No
  116. Original source medium                   : Blu-ray
  117. Number of dynamic objects                : 11
  118. Bed channel count                        : 1 channel
  119. Bed channel configuration                : LFE

  120. Audio #5
  121. ID                                       : 6
  122. Format                                   : DTS XLL
  123. Format/Info                              : Digital Theater Systems
  124. Commercial name                          : DTS-HD Master Audio
  125. Codec ID                                 : A_DTS
  126. Duration                                 : 1 h 22 min
  127. Bit rate mode                            : Variable
  128. Bit rate                                 : 4 262 kb/s
  129. Channel(s)                               : 8 channels
  130. Channel layout                           : C L R LFE Lb Rb Lss Rss
  131. Sampling rate                            : 48.0 kHz
  132. Frame rate                               : 93.750 FPS (512 SPF)
  133. Bit depth                                : 24 bits
  134. Compression mode                         : Lossless
  135. Stream size                              : 2.46 GiB (9%)
  136. Title                                    : Ghost.in.the.Shell.1995.2160p.BluRay.x264.8bit.SDR.DTS-HD.MA.TrueHD.7.1.Atmos-SWTYBLZ
  137. Language                                 : English
  138. Default                                  : No
  139. Forced                                   : No

  140. Audio #6
  141. ID                                       : 7
  142. ID in the original source medium         : 4352 (0x1100)
  143. Format                                   : AC-3
  144. Format/Info                              : Audio Coding 3
  145. Commercial name                          : Dolby Digital
  146. Codec ID                                 : A_AC3
  147. Duration                                 : 1 h 22 min
  148. Bit rate mode                            : Constant
  149. Bit rate                                 : 640 kb/s
  150. Channel(s)                               : 6 channels
  151. Channel layout                           : L R C LFE Ls Rs
  152. Sampling rate                            : 48.0 kHz
  153. Frame rate                               : 31.250 FPS (1536 SPF)
  154. Compression mode                         : Lossy
  155. Stream size                              : 378 MiB (1%)
  156. Title                                    : Ghost.in.the.Shell.1995.2160p.BluRay.x264.8bit.SDR.DTS-HD.MA.TrueHD.7.1.Atmos-SWTYBLZ
  157. Language                                 : English
  158. Service kind                             : Complete Main
  159. Default                                  : No
  160. Forced                                   : No
  161. Original source medium                   : Blu-ray

  162. Text #1
  163. ID                                       : 8
  164. Format                                   : UTF-8
  165. Codec ID                                 : S_TEXT/UTF8
  166. Codec ID/Info                            : UTF-8 Plain Text
  167. Duration                                 : 1 h 17 min
  168. Bit rate                                 : 69 b/s
  169. Count of elements                        : 880
  170. Stream size                              : 39.3 KiB (0%)
  171. Title                                    : English-SRT
  172. Language                                 : English
  173. Default                                  : Yes
  174. Forced                                   : No

  175. Text #2
  176. ID                                       : 9
  177. Format                                   : UTF-8
  178. Codec ID                                 : S_TEXT/UTF8
  179. Codec ID/Info                            : UTF-8 Plain Text
  180. Duration                                 : 14 s 462 ms
  181. Bit rate                                 : 108 b/s
  182. Count of elements                        : 4
  183. Stream size                              : 196 Bytes (0%)
  184. Title                                    : English-FORCED-SRT
  185. Language                                 : English
  186. Default                                  : No
  187. Forced                                   : No

  188. Text #3
  189. ID                                       : 10
  190. ID in the original source medium         : 4768 (0x12A0)
  191. Format                                   : PGS
  192. Muxing mode                              : zlib
  193. Codec ID                                 : S_HDMV/PGS
  194. Codec ID/Info                            : Picture based subtitle format used on BDs/HD-DVDs
  195. Duration                                 : 1 h 17 min
  196. Bit rate                                 : 43.2 kb/s
  197. Count of elements                        : 1766
  198. Stream size                              : 23.9 MiB (0%)
  199. Title                                    : English-PGS
  200. Language                                 : English
  201. Default                                  : No
  202. Forced                                   : No
  203. Original source medium                   : Blu-ray

  204. Text #4
  205. ID                                       : 11
  206. ID in the original source medium         : 4768 (0x12A0)
  207. Format                                   : PGS
  208. Muxing mode                              : zlib
  209. Codec ID                                 : S_HDMV/PGS
  210. Codec ID/Info                            : Picture based subtitle format used on BDs/HD-DVDs
  211. Duration                                 : 14 s 473 ms
  212. Bit rate                                 : 66.4 kb/s
  213. Count of elements                        : 8
  214. Stream size                              : 117 KiB (0%)
  215. Title                                    : English-FORCED-PGS
  216. Language                                 : English
  217. Default                                  : No
  218. Forced                                   : No
  219. Original source medium                   : Blu-ray

  220. Text #5
  221. ID                                       : 12
  222. ID in the original source medium         : 4769 (0x12A1)
  223. Format                                   : PGS
  224. Muxing mode                              : zlib
  225. Codec ID                                 : S_HDMV/PGS
  226. Codec ID/Info                            : Picture based subtitle format used on BDs/HD-DVDs
  227. Duration                                 : 1 h 17 min
  228. Bit rate                                 : 41.2 kb/s
  229. Count of elements                        : 1738
  230. Stream size                              : 22.8 MiB (0%)
  231. Title                                    : Spanish-PGS
  232. Language                                 : Spanish
  233. Default                                  : No
  234. Forced                                   : No
  235. Original source medium                   : Blu-ray

  236. Text #6
  237. ID                                       : 13
  238. ID in the original source medium         : 4769 (0x12A1)
  239. Format                                   : PGS
  240. Muxing mode                              : zlib
  241. Codec ID                                 : S_HDMV/PGS
  242. Codec ID/Info                            : Picture based subtitle format used on BDs/HD-DVDs
  243. Duration                                 : 14 s 473 ms
  244. Bit rate                                 : 72.2 kb/s
  245. Count of elements                        : 8
  246. Stream size                              : 127 KiB (0%)
  247. Title                                    : Spanish-PGS
  248. Language                                 : Spanish
  249. Default                                  : No
  250. Forced                                   : No
  251. Original source medium                   : Blu-ray

  252. Text #7
  253. ID                                       : 14
  254. ID in the original source medium         : 4770 (0x12A2)
  255. Format                                   : PGS
  256. Muxing mode                              : zlib
  257. Codec ID                                 : S_HDMV/PGS
  258. Codec ID/Info                            : Picture based subtitle format used on BDs/HD-DVDs
  259. Duration                                 : 1 h 17 min
  260. Bit rate                                 : 48.6 kb/s
  261. Count of elements                        : 2134
  262. Stream size                              : 27.1 MiB (0%)
  263. Title                                    : English-PGS
  264. Language                                 : English
  265. Default                                  : No
  266. Forced                                   : No
  267. Original source medium                   : Blu-ray

  268. Text #8
  269. ID                                       : 15
  270. ID in the original source medium         : 4770 (0x12A2)
  271. Format                                   : PGS
  272. Muxing mode                              : zlib
  273. Codec ID                                 : S_HDMV/PGS
  274. Codec ID/Info                            : Picture based subtitle format used on BDs/HD-DVDs
  275. Duration                                 : 14 s 473 ms
  276. Bit rate                                 : 66.4 kb/s
  277. Count of elements                        : 8
  278. Stream size                              : 117 KiB (0%)
  279. Title                                    : English-FORCED-PGS
  280. Language                                 : English
  281. Default                                  : No
  282. Forced                                   : No
  283. Original source medium                   : Blu-ray

  284. Menu
  285. 00:00:00.000                             : en:Chapter 01
  286. 00:04:05.119                             : en:Chapter 02
  287. 00:08:23.753                             : en:Chapter 03
  288. 00:13:13.793                             : en:Chapter 04
  289. 00:24:16.705                             : en:Chapter 05
  290. 00:26:03.979                             : en:Chapter 06
  291. 00:27:39.157                             : en:Chapter 07
  292. 00:33:01.980                             : en:Chapter 08
  293. 00:36:20.511                             : en:Chapter 09
  294. 00:45:31.270                             : en:Chapter 10
  295. 00:53:58.485                             : en:Chapter 11
  296. 00:59:39.325                             : en:Chapter 12
  297. 01:06:23.354                             : en:Chapter 13
  298. 01:13:59.143                             : en:Chapter 14
  299. 01:17:30.437                             : en:Chapter 15
复制代码








                                       
                                       

                                       
                                       
                                       




攻壳灵活队 Ghost.in.the.Shell.1995.JAPANESE.2160p.US.BluRay.x264.8bit.SDR.DTS-HD.MA.TrueHD.7.1.Atmos-SWTYBLZ 28.61GB

Ghost.in.the.Shell.1995.JAPANESE.2160p.US.BluRay.x264.8bit.SDR.DTS-HD.MA.TrueHD..zip

73.14 KB, 下载次数: 3, 下载积分: 蓝光币 -2

回复

使用道具 举报

懒得打字嘛,点击右侧快捷回复 【右侧内容,后台自定义】
您需要登录后才可以回帖 登录 | 立即加入

本版积分规则

Archiver|小黑屋| 蓝光电影网 |网站地图

Copyright © 2021 Comsenz Inc. Powered by 蓝光电影网

蓝光电影网

本站内容由用户自主分享和转载自互联网,转载目的在于传递更多信息,并不代表本网赞同其观点和对其真实性负责。

如有侵权、违反国家法律政策行为,请联系我们,我们会第一时间及时清除和处理!

举报反馈邮箱:[email protected]

快速回复 返回顶部 返回列表