找回密码

蓝光电影网

查看: 153|回复: 0

[UHD.HEVC] 正义协会:二战 Justice.Society.World.War.II.2021.2160p.BluRay.REMUX.HEVC.DTS-HD.MA.5.1-FGT 31.13GB

[复制链接]
蓝光币
1084
发表于 2021-5-13 14:53:45 | 显示全部楼层 |阅读模式


◎译  名 正义协会:二战
◎片  名 Justice Society: World War II
◎年  代 2021
◎产  地 美国
◎类  别 动画
◎语  言 英语
◎上映日期 2021-04-27(美国收集)
◎IMDb评分  6.3/10 from 2528 users
◎IMDb链接  https://www.imdb.com/title/tt13804084/
◎豆瓣评分 5.9/10 from 1206 users
◎豆瓣链接 https://movie.douban.com/subject/35274795/
◎片  长 84分钟
◎导  演 杰夫·瓦斯特 Jeff Wamester
◎主  演 马特·波莫 Matt Bomer
       斯坦娜·卡蒂克 Stana Katic
       艾尔西亚·罗塔鲁 Elysia Rotaru
       克里斯·迪亚曼托普洛斯 Chris Diamantopoulos
       奥米德·阿布塔西 Omid Abtahi
       马修·默瑟 Matthew Mercer
       连姆·麦肯泰尔 Liam McIntyre
◎标  签 DC | 动画 | 美国 | DC动画 | 2021 | 科幻 | 美国动画 | 行动
◎简  介


  美国正义协会是一群在第二次天下大战中辅佐盟军的豪杰,他们从未来获得了一位盟友,这位盟友将他们送上了一场改变历史的冒险之旅。
  1. Video
  2. ID                                       : 1
  3. ID in the original source medium         : 4113 (0x1011)
  4. Format                                   : HEVC
  5. Format/Info                              : High Efficiency Video Coding
  6. Format profile                           : Main [email protected]@High
  7. HDR format                               : SMPTE ST 2086, HDR10 compatible
  8. Codec ID                                 : V_MPEGH/ISO/HEVC
  9. Duration                                 : 1 h 24 min
  10. Bit rate                                 : 50.0 Mb/s
  11. Width                                    : 3 840 pixels
  12. Height                                   : 2 160 pixels
  13. Display aspect ratio                     : 16:9
  14. Frame rate mode                          : Constant
  15. Frame rate                               : 23.976 (24000/1001/189150) FPS
  16. Color space                              : YUV
  17. Chroma subsampling                       : 4:2:0 (Type 2)
  18. Bit depth                                : 10 bits
  19. Bits/(Pixel*Frame)                       : 0.252
  20. Stream size                              : 29.5 GiB (95%)
  21. Writing library                          : ATEME Titan File 3.9.6 (4.9.6.2)        
  22. Language                                 : English
  23. Default                                  : No
  24. Forced                                   : No
  25. Color range                              : Limited
  26. Color primaries                          : BT.2020
  27. Transfer characteristics                 : PQ
  28. Matrix coefficients                      : BT.2020 non-constant
  29. Mastering display color primaries        : BT.2020
  30. Mastering display luminance              : min: 0.0050 cd/m2, max: 4000 cd/m2
  31. Maximum Content Light Level              : 291 cd/m2
  32. Maximum Frame-Average Light Level        : 174 cd/m2
  33. Original source medium                   : Blu-ray

  34. Audio #1
  35. ID                                       : 2
  36. ID in the original source medium         : 4352 (0x1100)
  37. Format                                   : DTS XLL
  38. Format/Info                              : Digital Theater Systems
  39. Commercial name                          : DTS-HD Master Audio
  40. Codec ID                                 : A_DTS
  41. Duration                                 : 1 h 24 min
  42. Bit rate mode                            : Variable
  43. Bit rate                                 : 1 943 kb/s
  44. Channel(s)                               : 6 channels
  45. Channel layout                           : C L R Ls Rs LFE
  46. Sampling rate                            : 48.0 kHz
  47. Frame rate                               : 93.750 FPS (512 SPF)
  48. Bit depth                                : 24 bits
  49. Compression mode                         : Lossless
  50. Stream size                              : 1.14 GiB (4%)
  51. Title                                    : Surround 5.1
  52. Language                                 : English
  53. Default                                  : Yes
  54. Forced                                   : No
  55. Original source medium                   : Blu-ray

  56. Audio #2
  57. ID                                       : 3
  58. Format                                   : AC-3
  59. Format/Info                              : Audio Coding 3
  60. Commercial name                          : Dolby Digital
  61. Codec ID                                 : A_AC3
  62. Duration                                 : 1 h 24 min
  63. Bit rate mode                            : Constant
  64. Bit rate                                 : 640 kb/s
  65. Channel(s)                               : 6 channels
  66. Channel layout                           : L R C LFE Ls Rs
  67. Sampling rate                            : 48.0 kHz
  68. Frame rate                               : 31.250 FPS (1536 SPF)
  69. Compression mode                         : Lossy
  70. Stream size                              : 386 MiB (1%)
  71. Title                                    : DD 5.1
  72. Language                                 : English
  73. Service kind                             : Complete Main
  74. Default                                  : No
  75. Forced                                   : No

  76. Audio #3
  77. ID                                       : 4
  78. ID in the original source medium         : 4353 (0x1101)
  79. Format                                   : AC-3
  80. Format/Info                              : Audio Coding 3
  81. Commercial name                          : Dolby Digital
  82. Format settings                          : Dolby Surround
  83. Codec ID                                 : A_AC3
  84. Duration                                 : 1 h 24 min
  85. Bit rate mode                            : Constant
  86. Bit rate                                 : 192 kb/s
  87. Channel(s)                               : 2 channels
  88. Channel layout                           : L R
  89. Sampling rate                            : 48.0 kHz
  90. Frame rate                               : 31.250 FPS (1536 SPF)
  91. Compression mode                         : Lossy
  92. Stream size                              : 116 MiB (0%)
  93. Title                                    : DD 2.0
  94. Language                                 : Spanish
  95. Service kind                             : Complete Main
  96. Default                                  : No
  97. Forced                                   : No
  98. Original source medium                   : Blu-ray

  99. Text #1
  100. ID                                       : 5
  101. Format                                   : UTF-8
  102. Codec ID                                 : S_TEXT/UTF8
  103. Codec ID/Info                            : UTF-8 Plain Text
  104. Duration                                 : 1 h 21 min
  105. Bit rate                                 : 40 b/s
  106. Count of elements                        : 902
  107. Stream size                              : 24.3 KiB (0%)
  108. Title                                    : English-SRT
  109. Language                                 : English
  110. Default                                  : Yes
  111. Forced                                   : No

  112. Text #2
  113. ID                                       : 6
  114. ID in the original source medium         : 4768 (0x12A0)
  115. Format                                   : PGS
  116. Muxing mode                              : zlib
  117. Codec ID                                 : S_HDMV/PGS
  118. Codec ID/Info                            : Picture based subtitle format used on BDs/HD-DVDs
  119. Duration                                 : 1 h 21 min
  120. Bit rate                                 : 29.1 kb/s
  121. Count of elements                        : 2160
  122. Stream size                              : 16.9 MiB (0%)
  123. Title                                    : English-PGS
  124. Language                                 : English
  125. Default                                  : No
  126. Forced                                   : No
  127. Original source medium                   : Blu-ray

  128. Text #3
  129. ID                                       : 7
  130. ID in the original source medium         : 4769 (0x12A1)
  131. Format                                   : PGS
  132. Muxing mode                              : zlib
  133. Codec ID                                 : S_HDMV/PGS
  134. Codec ID/Info                            : Picture based subtitle format used on BDs/HD-DVDs
  135. Duration                                 : 1 h 23 min
  136. Bit rate                                 : 24.9 kb/s
  137. Count of elements                        : 1802
  138. Stream size                              : 14.9 MiB (0%)
  139. Title                                    : French-PGS
  140. Language                                 : French
  141. Default                                  : No
  142. Forced                                   : No
  143. Original source medium                   : Blu-ray

  144. Menu
  145. 00:00:00.000                             : Chapter 01
  146. 00:03:42.180                             : Chapter 02
  147. 00:09:28.776                             : Chapter 03
  148. 00:18:19.098                             : Chapter 04
  149. 00:25:29.986                             : Chapter 05
  150. 00:34:32.695                             : Chapter 06
  151. 00:42:49.942                             : Chapter 07
  152. 00:49:29.508                             : Chapter 08
  153. 00:56:53.410                             : Chapter 09
  154. 01:05:13.659                             : Chapter 10
  155. 01:14:50.861                             : Chapter 11
  156. 01:21:42.731                             : Chapter 12
复制代码




                                       
                                       

                                       
                                       
                                       




回复

使用道具 举报

懒得打字嘛,点击右侧快捷回复 【右侧内容,后台自定义】
您需要登录后才可以回帖 登录 | 立即加入

本版积分规则

Archiver|小黑屋| 蓝光电影网 |网站地图

Copyright © 2021 Comsenz Inc. Powered by 蓝光电影网

蓝光电影网

本站内容由用户自主分享和转载自互联网,转载目的在于传递更多信息,并不代表本网赞同其观点和对其真实性负责。

如有侵权、违反国家法律政策行为,请联系我们,我们会第一时间及时清除和处理!

举报反馈邮箱:[email protected]

快速回复 返回顶部 返回列表