找回密码

蓝光电影网

查看: 64|回复: 0

[2160p] 女人/野蛮女人 The.Woman.2011.2160p.BluRay.x264.8bit.SDR.DTS-HD.MA.5.1-SWTYBLZ 34.69GB

[复制链接]
蓝光币
1082
发表于 2020-9-26 11:47:33 | 显示全部楼层 |阅读模式


◎译  名 女人/蛮横女人
◎片  名 The Woman
◎年  代 2011
◎产  地 美国
◎类  别 可骇
◎语  言 英语
◎上映日期 2011
◎IMDb评分  6/10 from 21582 users
◎IMDb链接  https://www.imdb.com/title/tt1714208/
◎豆瓣评分 6.4/10 from 1768 users
◎豆瓣链接 https://movie.douban.com/subject/5326608/
◎片  长 103分钟
◎导  演 拉齐·马凯 Lucky McKee
◎编  剧 拉齐·马凯 Lucky McKee / 杰克·珂强 Jack Ketchum
◎主  演 安吉拉·贝蒂斯 Angela Bettis
       宝拉雅娜·麦金托什 Pollyanna McIntosh
       肖恩·布里吉格斯 Sean Bridgers
       劳伦·阿什利·卡特 Lauren Ashley Carter
◎标  签 可骇 | 血腥 | 美国 | 惊悚 | 美国电影 | cult | 2011 | Cult
◎简  介


  影片报告了一个从小被抛弃于森林,依照动物保存形式存活下来的女人。被一个汉子抢劫回家而且受尽凌辱。这家人中,男仆人极端大男人主义,敌视女人。小儿子由于受父亲教导也对女人极不尊重。懦弱并唾面自干的母亲,被父亲欺侮而怀孕的大女儿,以及不谙世事的小女儿。故事的最初,大女儿在极端失望和恐惧的安排下放了野女人,野女人杀了她的怙恃和弟弟,带走了她的妹妹。   本片以不太可骇的空气,却深入的暗喻了一个至今仍然存在的严重的社会现象,汉子应当若何看待女人,女人应当若何正确饰演家庭中的脚色。
  1. Video
  2. ID                                       : 1
  3. Format                                   : AVC
  4. Format/Info                              : Advanced Video Codec
  5. Format profile                           : [email protected]
  6. Format settings                          : CABAC / 5 Ref Frames
  7. Format settings, CABAC                   : Yes
  8. Format settings, Reference frames        : 5 frames
  9. Codec ID                                 : V_MPEG4/ISO/AVC
  10. Duration                                 : 1 h 43 min
  11. Bit rate                                 : 44.9 Mb/s
  12. Width                                    : 3 840 pixels
  13. Height                                   : 2 160 pixels
  14. Display aspect ratio                     : 16:9
  15. Frame rate mode                          : Constant
  16. Frame rate                               : 23.976 (24000/1001/189150) FPS
  17. Color space                              : YUV
  18. Chroma subsampling                       : 4:2:0
  19. Bit depth                                : 8 bits
  20. Scan type                                : Progressive
  21. Bits/(Pixel*Frame)                       : 0.226
  22. Stream size                              : 32.4 GiB (94%)
  23. Title                                    : The.Woman.2011.2160p.BluRay.x264.8bit.SDR.DTS-HD.MA.5.1-SWTYBLZ
  24. Writing library                          : x264 core 157 r2935 545de2f
  25. Encoding settings                        : cabac=1 / ref=5 / deblock=1:-1:-1 / analyse=0x3:0x113 / me=umh / subme=10 / psy=1 / psy_rd=1.00:0.15 / mixed_ref=1 / me_range=48 / chroma_me=1 / trellis=2 / 8x8dct=1 / cqm=0 / deadzone=21,11 / fast_pskip=1 / chroma_qp_offset=-3 / threads=48 / lookahead_threads=4 / sliced_threads=0 / nr=0 / decimate=0 / interlaced=0 / bluray_compat=0 / constrained_intra=0 / bframes=3 / b_pyramid=2 / b_adapt=2 / b_bias=0 / direct=3 / weightb=1 / open_gop=0 / weightp=2 / keyint=250 / keyint_min=23 / scenecut=40 / intra_refresh=0 / rc_lookahead=50 / rc=crf / mbtree=1 / crf=18.0 / qcomp=0.60 / qpmin=0 / qpmax=69 / qpstep=4 / ip_ratio=1.40 / aq=1:1.00
  26. Language                                 : English
  27. Default                                  : Yes
  28. Forced                                   : No

  29. Audio #1
  30. ID                                       : 2
  31. ID in the original source medium         : 4353 (0x1101)
  32. Format                                   : DTS XLL
  33. Format/Info                              : Digital Theater Systems
  34. Commercial name                          : DTS-HD Master Audio
  35. Codec ID                                 : A_DTS
  36. Duration                                 : 1 h 43 min
  37. Bit rate mode                            : Variable
  38. Bit rate                                 : 2 328 kb/s
  39. Channel(s)                               : 6 channels
  40. Channel layout                           : C L R Ls Rs LFE
  41. Sampling rate                            : 48.0 kHz
  42. Frame rate                               : 93.750 FPS (512 SPF)
  43. Bit depth                                : 16 bits
  44. Compression mode                         : Lossless
  45. Stream size                              : 1.68 GiB (5%)
  46. Title                                    : The.Woman.2011.2160p.BluRay.x264.8bit.SDR.DTS-HD.MA.5.1-SWTYBLZ
  47. Language                                 : English
  48. Default                                  : Yes
  49. Forced                                   : No
  50. Original source medium                   : Blu-ray

  51. Audio #2
  52. ID                                       : 3
  53. Format                                   : AC-3
  54. Format/Info                              : Audio Coding 3
  55. Commercial name                          : Dolby Digital
  56. Codec ID                                 : A_AC3
  57. Duration                                 : 1 h 43 min
  58. Bit rate mode                            : Constant
  59. Bit rate                                 : 640 kb/s
  60. Channel(s)                               : 6 channels
  61. Channel layout                           : L R C LFE Ls Rs
  62. Sampling rate                            : 48.0 kHz
  63. Frame rate                               : 31.250 FPS (1536 SPF)
  64. Compression mode                         : Lossy
  65. Stream size                              : 472 MiB (1%)
  66. Title                                    : The.Woman.2011.2160p.BluRay.x264.8bit.SDR.DTS-HD.MA.5.1-SWTYBLZ
  67. Language                                 : English
  68. Service kind                             : Complete Main
  69. Default                                  : No
  70. Forced                                   : No

  71. Text #1
  72. ID                                       : 4
  73. Format                                   : UTF-8
  74. Codec ID                                 : S_TEXT/UTF8
  75. Codec ID/Info                            : UTF-8 Plain Text
  76. Duration                                 : 1 h 29 min
  77. Bit rate                                 : 33 b/s
  78. Count of elements                        : 789
  79. Stream size                              : 22.0 KiB (0%)
  80. Title                                    : English-SRT
  81. Language                                 : English
  82. Default                                  : Yes
  83. Forced                                   : No

  84. Text #2
  85. ID                                       : 5
  86. ID in the original source medium         : 4770 (0x12A2)
  87. Format                                   : PGS
  88. Muxing mode                              : zlib
  89. Codec ID                                 : S_HDMV/PGS
  90. Codec ID/Info                            : Picture based subtitle format used on BDs/HD-DVDs
  91. Duration                                 : 1 h 29 min
  92. Bit rate                                 : 23.8 kb/s
  93. Count of elements                        : 1578
  94. Stream size                              : 15.2 MiB (0%)
  95. Title                                    : English-PGS
  96. Language                                 : English
  97. Default                                  : No
  98. Forced                                   : No
  99. Original source medium                   : Blu-ray

  100. Text #3
  101. ID                                       : 6
  102. ID in the original source medium         : 4768 (0x12A0)
  103. Format                                   : PGS
  104. Muxing mode                              : zlib
  105. Codec ID                                 : S_HDMV/PGS
  106. Codec ID/Info                            : Picture based subtitle format used on BDs/HD-DVDs
  107. Duration                                 : 2 s 294 ms
  108. Bit rate                                 : 30.9 kb/s
  109. Count of elements                        : 2
  110. Stream size                              : 8.65 KiB (0%)
  111. Title                                    : German-PGS
  112. Language                                 : German
  113. Default                                  : No
  114. Forced                                   : No
  115. Original source medium                   : Blu-ray

  116. Menu
  117. 00:00:00.000                             : en:Chapter 01
  118. 00:05:01.926                             : en:Chapter 02
  119. 00:09:35.116                             : en:Chapter 03
  120. 00:17:10.154                             : en:Chapter 04
  121. 00:24:10.365                             : en:Chapter 05
  122. 00:31:39.314                             : en:Chapter 06
  123. 00:36:37.695                             : en:Chapter 07
  124. 00:42:40.558                             : en:Chapter 08
  125. 00:48:27.779                             : en:Chapter 09
  126. 00:55:48.219                             : en:Chapter 10
  127. 01:02:14.439                             : en:Chapter 11
  128. 01:09:31.167                             : en:Chapter 12
  129. 01:17:59.800                             : en:Chapter 13
  130. 01:23:24.374                             : en:Chapter 14
  131. 01:30:58.870                             : en:Chapter 15
  132. 01:36:58.395                             : en:Chapter 16
复制代码








                                       
                                       

                                       
                                       
                                       




回复

使用道具 举报

懒得打字嘛,点击右侧快捷回复 【右侧内容,后台自定义】
您需要登录后才可以回帖 登录 | 立即加入

本版积分规则

Archiver|小黑屋| 蓝光电影网 |网站地图

Copyright © 2021 Comsenz Inc. Powered by 蓝光电影网

蓝光电影网

本站内容由用户自主分享和转载自互联网,转载目的在于传递更多信息,并不代表本网赞同其观点和对其真实性负责。

如有侵权、违反国家法律政策行为,请联系我们,我们会第一时间及时清除和处理!

举报反馈邮箱:[email protected]

快速回复 返回顶部 返回列表