找回密码

蓝光电影网

查看: 154|回复: 0

[UHD.HEVC] 怪物史瑞克/史力加 Shrek.2001.2160p.BluRay.REMUX.HEVC.DTS-X.7.1-FGT 62.41GB

[复制链接]
蓝光币
1082
发表于 2021-5-13 14:53:01 | 显示全部楼层 |阅读模式


◎译  名 怪物史瑞克/史力加(港)/史瑞克(台)/怪物史莱克
◎片  名 Shrek
◎年  代 2001
◎产  地 美国
◎类  别 笑剧 / 动画 / 家庭 / 奇异 / 冒险
◎语  言 英语
◎上映日期 2001-05-18(美国)
◎IMDb评分  7.9/10 from 623513 users
◎IMDb链接  https://www.imdb.com/title/tt0126029/
◎豆瓣评分 7.9/10 from 172749 users
◎豆瓣链接 https://movie.douban.com/subject/1291581/
◎片  长 90 分钟
◎导  演 安德鲁·亚当森 Andrew Adamson / 维基·詹森 Vicky Jenson
◎编  剧 威廉·史塔克 William Steig / 泰德·艾略特 Ted Elliott / 特里·鲁西奥 Terry Rossio / 乔·斯蒂尔曼 Joe Stillman / 罗杰·S·H·舒尔曼 Roger S.H. Schulman / 科迪·卡梅伦 Cody Cameron / 克里斯·米勒 Chris Miller / 康拉德·弗农 Conrad Vernon
◎主  演 麦克·梅尔斯 Mike Myers
       艾迪·墨菲 Eddie Murphy
       卡梅隆·迪亚兹 Cameron Diaz
       约翰·利思戈 John Lithgow
       文森特·卡索 Vincent Cassel
       皮特·丹尼斯 Peter Dennis
       克莱夫·皮尔斯 Clive Pearse
       吉姆·卡明斯 Jim Cummings
       鲍比·布洛克 Bobby Block
       克里斯·米勒 Chris Miller
       科迪·卡梅伦 Cody Cameron
       凯瑟琳·弗里曼 Kathleen Freeman
       迈克尔·葛拉索 Michael Galasso
       克里斯多夫·奈茨 Christopher Knights
       西蒙·J·史姑娘 Simon J. Smith
       藤原纪香 Norika Fujiwara
       吉约姆·阿瑞托斯 Guillaume Aretos
       安德鲁·亚当森 Andrew Adamson
       Guillaume Aretos
       杰奎·巴恩布鲁克 Jacquie Barnbrook
◎标  签 动画 | 梦工场 | 美国 | 笑剧 | 动画片 | 恋爱 | 美国电影 | shrek
◎简  介


  史莱克生活在普通的天下中——他自己是一个其貌不扬的怪物,绿色的身材,怪僻的脾性,不爱清洁的懒惰生活。此日他家里来了几个不速之客,他们告诉史莱克,自己来自一个残暴国王统治下的王国,现在已经无家可归了。而且,阿谁残暴的国王还掠夺了一个美丽非凡的公主,筹算侵占为妻。
  
  史莱克虽说丑陋,却心内善良。在领主的威胁下,无法下他只能前往搭救公主,同时心想一睹公主芳容。路上,他碰到了一个话痨骡子,骡子晓得了史莱克的业绩,决议忠心耿耿为之效力。
  
  前路有喷火恶龙等着和他们奋斗呢,他们能不能闯过难关,上演完善的豪杰救美童话?
◎获奖情况
  第74届奥斯卡金像奖 ?(2002)
  最好改编剧本(提名) 泰德·艾略特?/?罗杰·S·H·舒尔曼?/?特里·鲁西奥?/?乔·斯蒂尔曼
  最好动画长片 阿伦·沃纳
  
  第54届戛纳电影节 ?(2001)
  主比赛单元金棕榈奖(提名) 维基·詹森?/?安德鲁·亚当森
  
  第59届金球奖 ?(2002)
  电影类最好音乐/笑剧片(提名)
  
  第29届动画安妮奖 ?(2001)
  最好动画长片
  最好导演 维基·詹森?/?安德鲁·亚当森
  最好编剧 泰德·艾略特?/?罗杰·S·H·舒尔曼?/?特里·鲁西奥?/?乔·斯蒂尔曼
  最好男配音 艾迪·墨菲
  最好配乐 约翰·鲍威尔?/?哈里·格雷格森-威廉姆斯
  最好分镜 罗伯特·库
  最好艺术指导 吉约姆·阿瑞托斯
  最好艺术指导(提名) 道格拉斯·罗杰斯
  最好动画脚色(提名) 许诚毅?/?杰森·雷西格
  最好动画结果 阿诺德·拉莫莱蒂
  
  第2届美国电影学会奖 ?(2001)
  年度佳片
  1. Video
  2. ID                                       : 1
  3. ID in the original source medium         : 4113 (0x1011)
  4. Format                                   : HEVC
  5. Format/Info                              : High Efficiency Video Coding
  6. Format profile                           : Main [email protected]@High
  7. HDR format                               : SMPTE ST 2086, HDR10 compatible
  8. Codec ID                                 : V_MPEGH/ISO/HEVC
  9. Duration                                 : 1 h 30 min
  10. Bit rate                                 : 89.9 Mb/s
  11. Width                                    : 3 840 pixels
  12. Height                                   : 2 160 pixels
  13. Display aspect ratio                     : 16:9
  14. Frame rate mode                          : Constant
  15. Frame rate                               : 23.976 (24000/1001/189150) FPS
  16. Color space                              : YUV
  17. Chroma subsampling                       : 4:2:0 (Type 2)
  18. Bit depth                                : 10 bits
  19. Bits/(Pixel*Frame)                       : 0.452
  20. Stream size                              : 56.9 GiB (91%)
  21. Writing library                          : ATEME Titan File 3.9.6 (4.9.6.2)        
  22. Language                                 : English
  23. Default                                  : No
  24. Forced                                   : No
  25. Color range                              : Limited
  26. Color primaries                          : BT.2020
  27. Transfer characteristics                 : PQ
  28. Matrix coefficients                      : BT.2020 non-constant
  29. Mastering display color primaries        : Display P3
  30. Mastering display luminance              : min: 0.0050 cd/m2, max: 1000 cd/m2
  31. Maximum Content Light Level              : 993 cd/m2
  32. Maximum Frame-Average Light Level        : 198 cd/m2
  33. Original source medium                   : Blu-ray

  34. Audio #1
  35. ID                                       : 2
  36. ID in the original source medium         : 4352 (0x1100)
  37. Format                                   : DTS XLL X
  38. Format/Info                              : Digital Theater Systems
  39. Commercial name                          : DTS-HD Master Audio
  40. Codec ID                                 : A_DTS
  41. Duration                                 : 1 h 30 min
  42. Bit rate mode                            : Variable
  43. Bit rate                                 : 6 298 kb/s
  44. Channel(s)                               : 8 channels
  45. Channel(s)_Original                      : Object Based
  46. ChannelLayout_Original                   : Object Based
  47. Sampling rate                            : 48.0 kHz
  48. Frame rate                               : 93.750 FPS (512 SPF)
  49. Bit depth                                : 24 bits
  50. Stream size                              : 3.98 GiB (6%)
  51. Title                                    : DTS -X 7.1
  52. Language                                 : English
  53. Default                                  : Yes
  54. Forced                                   : No
  55. Original source medium                   : Blu-ray

  56. Audio #2
  57. ID                                       : 3
  58. Format                                   : AC-3
  59. Format/Info                              : Audio Coding 3
  60. Commercial name                          : Dolby Digital
  61. Codec ID                                 : A_AC3
  62. Duration                                 : 1 h 30 min
  63. Bit rate mode                            : Constant
  64. Bit rate                                 : 640 kb/s
  65. Channel(s)                               : 6 channels
  66. Channel layout                           : L R C LFE Ls Rs
  67. Sampling rate                            : 48.0 kHz
  68. Frame rate                               : 31.250 FPS (1536 SPF)
  69. Compression mode                         : Lossy
  70. Stream size                              : 414 MiB (1%)
  71. Title                                    : DD 5.1
  72. Language                                 : English
  73. Service kind                             : Complete Main
  74. Default                                  : No
  75. Forced                                   : No

  76. Audio #3
  77. ID                                       : 4
  78. ID in the original source medium         : 4353 (0x1101)
  79. Format                                   : DTS
  80. Format/Info                              : Digital Theater Systems
  81. Codec ID                                 : A_DTS
  82. Duration                                 : 1 h 30 min
  83. Bit rate mode                            : Constant
  84. Bit rate                                 : 768 kb/s
  85. Channel(s)                               : 6 channels
  86. Channel layout                           : C L R Ls Rs LFE
  87. Sampling rate                            : 48.0 kHz
  88. Frame rate                               : 93.750 FPS (512 SPF)
  89. Bit depth                                : 24 bits
  90. Compression mode                         : Lossy
  91. Stream size                              : 497 MiB (1%)
  92. Title                                    : DTS 5.1
  93. Language                                 : Spanish
  94. Default                                  : No
  95. Forced                                   : No
  96. Original source medium                   : Blu-ray

  97. Audio #4
  98. ID                                       : 5
  99. ID in the original source medium         : 4354 (0x1102)
  100. Format                                   : DTS
  101. Format/Info                              : Digital Theater Systems
  102. Codec ID                                 : A_DTS
  103. Duration                                 : 1 h 30 min
  104. Bit rate mode                            : Constant
  105. Bit rate                                 : 768 kb/s
  106. Channel(s)                               : 6 channels
  107. Channel layout                           : C L R Ls Rs LFE
  108. Sampling rate                            : 48.0 kHz
  109. Frame rate                               : 93.750 FPS (512 SPF)
  110. Bit depth                                : 24 bits
  111. Compression mode                         : Lossy
  112. Stream size                              : 497 MiB (1%)
  113. Title                                    : DTS 5.1
  114. Language                                 : French
  115. Default                                  : No
  116. Forced                                   : No
  117. Original source medium                   : Blu-ray

  118. Audio #5
  119. ID                                       : 6
  120. ID in the original source medium         : 4355 (0x1103)
  121. Format                                   : DTS
  122. Format/Info                              : Digital Theater Systems
  123. Codec ID                                 : A_DTS
  124. Duration                                 : 1 h 30 min
  125. Bit rate mode                            : Constant
  126. Bit rate                                 : 255 kb/s
  127. Channel(s)                               : 2 channels
  128. Channel layout                           : L R
  129. Sampling rate                            : 48.0 kHz
  130. Frame rate                               : 93.750 FPS (512 SPF)
  131. Bit depth                                : 24 bits
  132. Compression mode                         : Lossy
  133. Stream size                              : 165 MiB (0%)
  134. Title                                    : 2.0
  135. Language                                 : English
  136. Default                                  : No
  137. Forced                                   : No
  138. Original source medium                   : Blu-ray

  139. Text #1
  140. ID                                       : 7
  141. Format                                   : UTF-8
  142. Codec ID                                 : S_TEXT/UTF8
  143. Codec ID/Info                            : UTF-8 Plain Text
  144. Duration                                 : 1 h 22 min
  145. Bit rate                                 : 65 b/s
  146. Count of elements                        : 1056
  147. Stream size                              : 39.7 KiB (0%)
  148. Title                                    : English-SRT
  149. Language                                 : English
  150. Default                                  : Yes
  151. Forced                                   : No

  152. Text #2
  153. ID                                       : 8
  154. ID in the original source medium         : 4768 (0x12A0)
  155. Format                                   : PGS
  156. Muxing mode                              : zlib
  157. Codec ID                                 : S_HDMV/PGS
  158. Codec ID/Info                            : Picture based subtitle format used on BDs/HD-DVDs
  159. Duration                                 : 1 h 29 min
  160. Bit rate                                 : 51.6 kb/s
  161. Count of elements                        : 3200
  162. Stream size                              : 33.0 MiB (0%)
  163. Title                                    : English-PGS
  164. Language                                 : English
  165. Default                                  : No
  166. Forced                                   : No
  167. Original source medium                   : Blu-ray

  168. Text #3
  169. ID                                       : 9
  170. ID in the original source medium         : 4769 (0x12A1)
  171. Format                                   : PGS
  172. Muxing mode                              : zlib
  173. Codec ID                                 : S_HDMV/PGS
  174. Codec ID/Info                            : Picture based subtitle format used on BDs/HD-DVDs
  175. Duration                                 : 1 h 29 min
  176. Bit rate                                 : 31.7 kb/s
  177. Count of elements                        : 1676
  178. Stream size                              : 20.2 MiB (0%)
  179. Title                                    : Spanish-PGS
  180. Language                                 : Spanish
  181. Default                                  : No
  182. Forced                                   : No
  183. Original source medium                   : Blu-ray

  184. Text #4
  185. ID                                       : 10
  186. ID in the original source medium         : 4770 (0x12A2)
  187. Format                                   : PGS
  188. Muxing mode                              : zlib
  189. Codec ID                                 : S_HDMV/PGS
  190. Codec ID/Info                            : Picture based subtitle format used on BDs/HD-DVDs
  191. Duration                                 : 1 h 22 min
  192. Bit rate                                 : 40.6 kb/s
  193. Count of elements                        : 2288
  194. Stream size                              : 23.9 MiB (0%)
  195. Title                                    : French-PGS
  196. Language                                 : French
  197. Default                                  : No
  198. Forced                                   : No
  199. Original source medium                   : Blu-ray

  200. Text #5
  201. ID                                       : 11
  202. ID in the original source medium         : 4771 (0x12A3)
  203. Format                                   : PGS
  204. Muxing mode                              : zlib
  205. Codec ID                                 : S_HDMV/PGS
  206. Codec ID/Info                            : Picture based subtitle format used on BDs/HD-DVDs
  207. Duration                                 : 1 h 7 min
  208. Bit rate                                 : 195 b/s
  209. Count of elements                        : 18
  210. Stream size                              : 96.7 KiB (0%)
  211. Title                                    : Spanish-FORCED-PGS
  212. Language                                 : Spanish
  213. Default                                  : No
  214. Forced                                   : No
  215. Original source medium                   : Blu-ray

  216. Text #6
  217. ID                                       : 12
  218. ID in the original source medium         : 4772 (0x12A4)
  219. Format                                   : PGS
  220. Muxing mode                              : zlib
  221. Codec ID                                 : S_HDMV/PGS
  222. Codec ID/Info                            : Picture based subtitle format used on BDs/HD-DVDs
  223. Duration                                 : 1 h 28 min
  224. Bit rate                                 : 296 b/s
  225. Count of elements                        : 34
  226. Stream size                              : 192 KiB (0%)
  227. Title                                    : French-FORCED-PGS
  228. Language                                 : French
  229. Default                                  : No
  230. Forced                                   : No
  231. Original source medium                   : Blu-ray

  232. Menu
  233. 00:00:00.000                             : Chapter 01
  234. 00:05:22.113                             : Chapter 02
  235. 00:12:08.436                             : Chapter 03
  236. 00:16:23.899                             : Chapter 04
  237. 00:20:36.693                             : Chapter 05
  238. 00:26:44.686                             : Chapter 06
  239. 00:32:05.924                             : Chapter 07
  240. 00:35:38.594                             : Chapter 08
  241. 00:40:49.238                             : Chapter 09
  242. 00:45:26.223                             : Chapter 10
  243. 00:49:41.186                             : Chapter 11
  244. 00:55:52.974                             : Chapter 12
  245. 01:01:19.550                             : Chapter 13
  246. 01:05:58.663                             : Chapter 14
  247. 01:09:40.301                             : Chapter 15
  248. 01:11:58.022                             : Chapter 16
  249. 01:15:16.553                             : Chapter 17
  250. 01:17:59.049                             : Chapter 18
  251. 01:21:18.164                             : Chapter 19
  252. 01:23:27.460                             : Chapter 20
复制代码




                                       
                                       

                                       
                                       
                                       




回复

使用道具 举报

懒得打字嘛,点击右侧快捷回复 【右侧内容,后台自定义】
您需要登录后才可以回帖 登录 | 立即加入

本版积分规则

Archiver|小黑屋| 蓝光电影网 |网站地图

Copyright © 2021 Comsenz Inc. Powered by 蓝光电影网

蓝光电影网

本站内容由用户自主分享和转载自互联网,转载目的在于传递更多信息,并不代表本网赞同其观点和对其真实性负责。

如有侵权、违反国家法律政策行为,请联系我们,我们会第一时间及时清除和处理!

举报反馈邮箱:[email protected]

快速回复 返回顶部 返回列表