找回密码

蓝光电影网

查看: 72|回复: 0

[2160p] 后代 Offspring.2009.2160p.BluRay.x265.10bit.SDR.DTS-HD.MA.5.1-SWTYBLZ 33.35GB

[复制链接]
蓝光币
1084
发表于 2020-9-26 11:40:41 | 显示全部楼层 |阅读模式


◎译  名 后代
◎片  名 Offspring
◎年  代 2009
◎类  别 可骇
◎语  言 英语
◎上映日期 2009-02-05
◎IMDb评分  4.8/10 from 2405 users
◎IMDb链接  https://www.imdb.com/title/tt1262413/
◎豆瓣评分 4.0/10 from 154 users
◎豆瓣链接 https://movie.douban.com/subject/3148041/
◎片  长 79分钟
◎导  演 安德鲁·范·登·豪滕 Andrew van den Houten
◎编  剧 杰克·珂强 Jack Ketchum
◎主  演 Rachel White
       霍尔特·格拉汉姆 Holter Graham
       斯宾塞·李斯特 Spencer List
       凯伦·皮斯托里斯 Caren Pistorius
       Leigh Shannan
       宝拉雅娜·麦金托什 Pollyanna McIntosh
       汤米·尼尔森 Tommy Nelson
       艾米·哈格里夫斯 Amy Hargreaves
       杰克·珂强 Jack Ketchum
       安德鲁·范·登·豪滕 Andrew van den Houten
       阿特·欣德尔 Art Hindle
       安德鲁·埃尔维斯·米勒 Andrew Elvis Miller
◎标  签 可骇 | 血腥 | 美国 | 惊悚 | 我看过的可骇电影 | 我看过的电影 | 可骇电影 | 英语的标签
◎简  介


  本片按照作家Jack Ketchum,美国畅销排行榜第一位的同名小说改编而来;一个被人们以为已经死的杀人狂魔,从天堂归来,一定会掀起一场新一轮的血雨腥风,玛瑞和她的孩子们,成为了“死神”的方针……
  1. Video
  2. ID                                       : 1
  3. Format                                   : HEVC
  4. Format/Info                              : High Efficiency Video Coding
  5. Format profile                           : Main [email protected]@High
  6. Codec ID                                 : V_MPEGH/ISO/HEVC
  7. Duration                                 : 1 h 19 min
  8. Bit rate                                 : 56.9 Mb/s
  9. Width                                    : 3 840 pixels
  10. Height                                   : 2 160 pixels
  11. Display aspect ratio                     : 16:9
  12. Frame rate mode                          : Constant
  13. Frame rate                               : 23.976 (24000/1001/189150) FPS
  14. Color space                              : YUV
  15. Chroma subsampling                       : 4:2:0
  16. Bit depth                                : 10 bits
  17. Bits/(Pixel*Frame)                       : 0.286
  18. Stream size                              : 31.4 GiB (95%)
  19. Title                                    : Offspring.2009.2160p.BluRay.x265.10bit.SDR.DTS-HD.MA.5.1-SWTYBLZ
  20. Writing library                          : x265 3.0ed72af837053:[Windows][GCC 8.2.0][64 bit] 10bit
  21. Encoding settings                        : cpuid=1111039 / frame-threads=6 / numa-pools=40 / wpp / no-pmode / no-pme / no-psnr / no-ssim / log-level=2 / input-csp=1 / input-res=3840x2160 / interlace=0 / total-frames=113881 / level-idc=51 / high-tier=1 / uhd-bd=0 / ref=3 / no-allow-non-conformance / repeat-headers / annexb / aud / hrd / info / hash=0 / no-temporal-layers / no-open-gop / min-keyint=1 / keyint=24 / gop-lookahead=0 / bframes=4 / b-adapt=2 / b-pyramid / bframe-bias=0 / rc-lookahead=25 / lookahead-slices=4 / scenecut=40 / radl=0 / no-splice / no-intra-refresh / ctu=64 / min-cu-size=8 / no-rect / no-amp / max-tu-size=32 / tu-inter-depth=1 / tu-intra-depth=1 / limit-tu=0 / rdoq-level=0 / dynamic-rd=0.00 / no-ssim-rd / signhide / no-tskip / nr-intra=0 / nr-inter=0 / no-constrained-intra / strong-intra-smoothing / max-merge=2 / limit-refs=3 / no-limit-modes / me=1 / subme=2 / merange=57 / temporal-mvp / weightp / no-weightb / no-analyze-src-pics / deblock=0:0 / no-sao / no-sao-non-deblock / rd=3 / no-early-skip / rskip / no-fast-intra / no-tskip-fast / no-cu-lossless / no-b-intra / no-splitrd-skip / rdpenalty=0 / psy-rd=2.00 / psy-rdoq=0.00 / no-rd-refine / no-lossless / cbqpoffs=0 / crqpoffs=0 / rc=crf / crf=16.0 / qcomp=0.60 / qpstep=4 / stats-write=0 / stats-read=0 / vbv-maxrate=160000 / vbv-bufsize=160000 / vbv-init=0.9 / crf-max=0.0 / crf-min=0.0 / ipratio=1.40 / pbratio=1.30 / aq-mode=1 / aq-strength=1.00 / cutree / zone-count=0 / no-strict-cbr / qg-size=32 / no-rc-grain / qpmax=69 / qpmin=0 / no-const-vbv / sar=1 / overscan=0 / videoformat=5 / range=0 / colorprim=2 / transfer=2 / colormatrix=2 / chromaloc=0 / display-window=0 / max-cll=0,0 / min-luma=0 / max-luma=1023 / log2-max-poc-lsb=8 / vui-timing-info / vui-hrd-info / slices=1 / opt-qp-pps / opt-ref-list-length-pps / no-multi-pass-opt-rps / scenecut-bias=0.05 / no-opt-cu-delta-qp / no-aq-motion / no-hdr / no-hdr-opt / no-dhdr10-opt / no-idr-recovery-sei / analysis-reuse-level=5 / scale-factor=0 / refine-intra=0 / refine-inter=0 / refine-mv=0 / refine-ctu-distortion=0 / no-limit-sao / ctu-info=0 / no-lowpass-dct / refine-analysis-type=0 / copy-pic=1 / max-ausize-factor=1.0 / no-dynamic-refine / no-single-sei / no-hevc-aq / qp-adaptation-range=1.00
  22. Language                                 : English
  23. Default                                  : Yes
  24. Forced                                   : No

  25. Audio #1
  26. ID                                       : 2
  27. ID in the original source medium         : 4353 (0x1101)
  28. Format                                   : DTS XLL
  29. Format/Info                              : Digital Theater Systems
  30. Commercial name                          : DTS-HD Master Audio
  31. Codec ID                                 : A_DTS
  32. Duration                                 : 1 h 19 min
  33. Bit rate mode                            : Variable
  34. Bit rate                                 : 2 336 kb/s
  35. Channel(s)                               : 6 channels
  36. Channel layout                           : C L R Ls Rs LFE
  37. Sampling rate                            : 48.0 kHz
  38. Frame rate                               : 93.750 FPS (512 SPF)
  39. Bit depth                                : 16 bits
  40. Compression mode                         : Lossless
  41. Stream size                              : 1.29 GiB (4%)
  42. Title                                    : Offspring.2009.2160p.BluRay.x265.10bit.SDR.DTS-HD.MA.5.1-SWTYBLZ
  43. Language                                 : English
  44. Default                                  : Yes
  45. Forced                                   : No
  46. Original source medium                   : Blu-ray

  47. Audio #2
  48. ID                                       : 3
  49. Format                                   : AC-3
  50. Format/Info                              : Audio Coding 3
  51. Commercial name                          : Dolby Digital
  52. Codec ID                                 : A_AC3
  53. Duration                                 : 1 h 19 min
  54. Bit rate mode                            : Constant
  55. Bit rate                                 : 640 kb/s
  56. Channel(s)                               : 6 channels
  57. Channel layout                           : L R C LFE Ls Rs
  58. Sampling rate                            : 48.0 kHz
  59. Frame rate                               : 31.250 FPS (1536 SPF)
  60. Compression mode                         : Lossy
  61. Stream size                              : 362 MiB (1%)
  62. Title                                    : Offspring.2009.2160p.BluRay.x265.10bit.SDR.DTS-HD.MA.5.1-SWTYBLZ
  63. Language                                 : English
  64. Service kind                             : Complete Main
  65. Default                                  : No
  66. Forced                                   : No

  67. Text #1
  68. ID                                       : 4
  69. Format                                   : UTF-8
  70. Codec ID                                 : S_TEXT/UTF8
  71. Codec ID/Info                            : UTF-8 Plain Text
  72. Duration                                 : 1 h 10 min
  73. Bit rate                                 : 37 b/s
  74. Count of elements                        : 593
  75. Stream size                              : 19.3 KiB (0%)
  76. Title                                    : English-SRT
  77. Language                                 : English
  78. Default                                  : Yes
  79. Forced                                   : No

  80. Text #2
  81. ID                                       : 5
  82. ID in the original source medium         : 4769 (0x12A1)
  83. Format                                   : PGS
  84. Muxing mode                              : zlib
  85. Codec ID                                 : S_HDMV/PGS
  86. Codec ID/Info                            : Picture based subtitle format used on BDs/HD-DVDs
  87. Duration                                 : 25 min 58 s
  88. Bit rate                                 : 1 664 b/s
  89. Count of elements                        : 58
  90. Stream size                              : 317 KiB (0%)
  91. Title                                    : German-PGS
  92. Language                                 : German
  93. Default                                  : No
  94. Forced                                   : No
  95. Original source medium                   : Blu-ray

  96. Menu
  97. 00:00:00.000                             : en:Chapter 01
  98. 00:07:35.788                             : en:Chapter 02
  99. 00:14:30.244                             : en:Chapter 03
  100. 00:24:57.245                             : en:Chapter 04
  101. 00:29:46.826                             : en:Chapter 05
  102. 00:39:41.879                             : en:Chapter 06
  103. 00:48:38.332                             : en:Chapter 07
  104. 00:58:46.898                             : en:Chapter 08
  105. 01:04:53.306                             : en:Chapter 09
  106. 01:08:24.517                             : en:Chapter 10
  107. 01:11:54.893                             : en:Chapter 11
  108. 01:15:24.228                             : en:Chapter 12
复制代码





                                       
                                       

                                       
                                       
                                       




回复

使用道具 举报

懒得打字嘛,点击右侧快捷回复 【右侧内容,后台自定义】
您需要登录后才可以回帖 登录 | 立即加入

本版积分规则

Archiver|小黑屋| 蓝光电影网 |网站地图

Copyright © 2021 Comsenz Inc. Powered by 蓝光电影网

蓝光电影网

本站内容由用户自主分享和转载自互联网,转载目的在于传递更多信息,并不代表本网赞同其观点和对其真实性负责。

如有侵权、违反国家法律政策行为,请联系我们,我们会第一时间及时清除和处理!

举报反馈邮箱:[email protected]

快速回复 返回顶部 返回列表