找回密码

蓝光电影网

查看: 274|回复: 0

[UHD.HEVC] 电锯惊魂/你死我活 Saw.2004.2160p.BluRay.REMUX.HEVC.DTS-HD.MA.TrueHD.7.1.Atmos-FGT 57.24GB

[复制链接]
蓝光币
1084
发表于 2021-5-13 14:41:12 | 显示全部楼层 |阅读模式


◎译  名 电锯惊魂/不共戴天/夺魂锯(台)/恐惧小房(港)/链锯惊魂
◎片  名 Saw
◎年  代 2004
◎产  地 美国
◎类  别 悬疑 / 惊悚 / 可骇
◎语  言 英语
◎上映日期 2004-01-19(圣丹斯电影节) / 2004-10-29(美国)
◎IMDb评分  7.6/10 from 384361 users
◎IMDb链接  https://www.imdb.com/title/tt0387564/
◎豆瓣评分 8.7/10 from 421987 users
◎豆瓣链接 https://movie.douban.com/subject/1417598/
◎片  长 103分钟
◎导  演 温子仁 James Wan
◎编  剧 温子仁 James Wan / 雷·沃纳尔 Leigh Whannell
◎主  演 雷·沃纳尔 Leigh Whannell
       加利·艾尔维斯 Cary Elwes
       丹尼·格洛弗 Danny Glover
       肯·梁 Ken Leung
       迪娜·迈耶 Dina Meyer
       迈克·巴特斯 Mike Butters
       保罗·古德勒支 Paul Gutrecht
       迈克尔·爱默生 Michael Emerson
       本尼托·马丁内斯 Benito Martinez
       肖妮·史姑娘 Shawnee Smith
       麦肯兹·韦加 Makenzie Vega
       莫妮卡·波特 Monica Potter
       耐德·巴拉米 Ned Bellamy
       亚丽姗德拉·全 Alexandra Bokyun Chun
       托宾·贝尔 Tobin Bell
       汉斯·雷斯 Hans Raith
       奥伦·科尔斯 Oren Koules
◎标  签 惊悚 | 血腥 | 可骇 | 悬疑 | 电锯惊魂 | 美国 | 犯罪 | 暴力
◎简  介


  一醒觉来的亚当(雷?沃纳尔 Leigh Whannell饰)发现自己被困在一个烧毁的茅厕里。他的劈面是一样命运的劳伦斯(加利?艾尔维斯 Cary Elwes 饰)——他们被人用铁链绑住了腿,并受惊发现二人中心绵亘着一个可骇的死人。死人鲜血淋漓,左手拿录放机右手拿枪。
  
  亚 当兜里被人放进来一盘磁带,他赶紧放到录放机里。磁带里说,劳伦斯必须在今晚6点前杀死亚当,否则二人将玉石俱焚,劳伦斯的家人也不能幸免。而眼前死人流出来的血,剧毒非常。
  
  一个血腥的灭亡游戏起头了。在剩下不多的时候里,他们必须找到线索,逃出天堂。在最初关头,当他们以为重见天日的时辰,新一轮的噩梦才刚刚起头。
◎获奖情况
  第14届MTV电影奖 ?(2005)
  MTV电影奖最好惊骇戏表演(提名) 加利·艾尔维斯
  1. Video
  2. ID                                       : 1
  3. ID in the original source medium         : 4113 (0x1011)
  4. Format                                   : HEVC
  5. Format/Info                              : High Efficiency Video Coding
  6. Format profile                           : Main [email protected]@High
  7. HDR format                               : SMPTE ST 2086, HDR10 compatible
  8. Codec ID                                 : V_MPEGH/ISO/HEVC
  9. Duration                                 : 1 h 42 min
  10. Bit rate                                 : 70.8 Mb/s
  11. Width                                    : 3 840 pixels
  12. Height                                   : 2 160 pixels
  13. Display aspect ratio                     : 16:9
  14. Frame rate mode                          : Constant
  15. Frame rate                               : 23.976 (24000/1001/189150) FPS
  16. Color space                              : YUV
  17. Chroma subsampling                       : 4:2:0 (Type 2)
  18. Bit depth                                : 10 bits
  19. Bits/(Pixel*Frame)                       : 0.356
  20. Stream size                              : 50.9 GiB (89%)
  21. Language                                 : English
  22. Default                                  : No
  23. Forced                                   : No
  24. Color range                              : Limited
  25. Color primaries                          : BT.2020
  26. Transfer characteristics                 : PQ
  27. Matrix coefficients                      : BT.2020 non-constant
  28. Mastering display color primaries        : Display P3
  29. Mastering display luminance              : min: 0.0010 cd/m2, max: 1000 cd/m2
  30. Maximum Content Light Level              : 973 cd/m2
  31. Maximum Frame-Average Light Level        : 838 cd/m2
  32. Original source medium                   : Blu-ray

  33. Audio #1
  34. ID                                       : 2
  35. ID in the original source medium         : 4352 (0x1100)
  36. Format                                   : MLP FBA 16-ch
  37. Format/Info                              : Meridian Lossless Packing FBA with 16-channel presentation
  38. Commercial name                          : Dolby TrueHD with Dolby Atmos
  39. Codec ID                                 : A_TRUEHD
  40. Duration                                 : 1 h 42 min
  41. Bit rate mode                            : Variable
  42. Bit rate                                 : 3 959 kb/s
  43. Maximum bit rate                         : 6 207 kb/s
  44. Channel(s)                               : 8 channels
  45. Channel layout                           : L R C LFE Ls Rs Lb Rb
  46. Sampling rate                            : 48.0 kHz
  47. Frame rate                               : 1 200.000 FPS (40 SPF)
  48. Bit depth                                : 24 bits
  49. Compression mode                         : Lossless
  50. Stream size                              : 2.84 GiB (5%)
  51. Title                                    : TrueHD 7.1 Atmos
  52. Language                                 : English
  53. Default                                  : Yes
  54. Forced                                   : No
  55. Original source medium                   : Blu-ray
  56. Number of dynamic objects                : 15
  57. Bed channel count                        : 1 channel
  58. Bed channel configuration                : LFE

  59. Audio #2
  60. ID                                       : 3
  61. Format                                   : DTS XLL
  62. Format/Info                              : Digital Theater Systems
  63. Commercial name                          : DTS-HD Master Audio
  64. Codec ID                                 : A_DTS
  65. Duration                                 : 1 h 42 min
  66. Bit rate mode                            : Variable
  67. Bit rate                                 : 3 724 kb/s
  68. Channel(s)                               : 8 channels
  69. Channel layout                           : C L R LFE Lb Rb Lss Rss
  70. Sampling rate                            : 48.0 kHz
  71. Frame rate                               : 93.750 FPS (512 SPF)
  72. Bit depth                                : 24 bits
  73. Compression mode                         : Lossless
  74. Stream size                              : 2.68 GiB (5%)
  75. Title                                    : DTS-HD MA 7.1
  76. Language                                 : English
  77. Default                                  : No
  78. Forced                                   : No

  79. Audio #3
  80. ID                                       : 4
  81. ID in the original source medium         : 4352 (0x1100)
  82. Format                                   : AC-3
  83. Format/Info                              : Audio Coding 3
  84. Commercial name                          : Dolby Digital
  85. Format settings                          : Dolby Surround EX
  86. Codec ID                                 : A_AC3
  87. Duration                                 : 1 h 42 min
  88. Bit rate mode                            : Constant
  89. Bit rate                                 : 640 kb/s
  90. Channel(s)                               : 6 channels
  91. Channel layout                           : L R C LFE Ls Rs
  92. Sampling rate                            : 48.0 kHz
  93. Frame rate                               : 31.250 FPS (1536 SPF)
  94. Compression mode                         : Lossy
  95. Stream size                              : 471 MiB (1%)
  96. Title                                    : DD 5.1
  97. Language                                 : English
  98. Service kind                             : Complete Main
  99. Default                                  : No
  100. Forced                                   : No
  101. Original source medium                   : Blu-ray

  102. Audio #4
  103. ID                                       : 5
  104. ID in the original source medium         : 4353 (0x1101)
  105. Format                                   : AC-3
  106. Format/Info                              : Audio Coding 3
  107. Commercial name                          : Dolby Digital
  108. Codec ID                                 : A_AC3
  109. Duration                                 : 1 h 42 min
  110. Bit rate mode                            : Constant
  111. Bit rate                                 : 224 kb/s
  112. Channel(s)                               : 2 channels
  113. Channel layout                           : L R
  114. Sampling rate                            : 48.0 kHz
  115. Frame rate                               : 31.250 FPS (1536 SPF)
  116. Compression mode                         : Lossy
  117. Stream size                              : 165 MiB (0%)
  118. Title                                    : DD 2.0
  119. Language                                 : English
  120. Service kind                             : Complete Main
  121. Default                                  : No
  122. Forced                                   : No
  123. Original source medium                   : Blu-ray

  124. Audio #5
  125. ID                                       : 6
  126. ID in the original source medium         : 4354 (0x1102)
  127. Format                                   : AC-3
  128. Format/Info                              : Audio Coding 3
  129. Commercial name                          : Dolby Digital
  130. Codec ID                                 : A_AC3
  131. Duration                                 : 1 h 42 min
  132. Bit rate mode                            : Constant
  133. Bit rate                                 : 224 kb/s
  134. Channel(s)                               : 2 channels
  135. Channel layout                           : L R
  136. Sampling rate                            : 48.0 kHz
  137. Frame rate                               : 31.250 FPS (1536 SPF)
  138. Compression mode                         : Lossy
  139. Stream size                              : 165 MiB (0%)
  140. Title                                    : DD 2.0
  141. Language                                 : English
  142. Service kind                             : Complete Main
  143. Default                                  : No
  144. Forced                                   : No
  145. Original source medium                   : Blu-ray

  146. Text #1
  147. ID                                       : 7
  148. Format                                   : UTF-8
  149. Codec ID                                 : S_TEXT/UTF8
  150. Codec ID/Info                            : UTF-8 Plain Text
  151. Duration                                 : 1 h 37 min
  152. Bit rate                                 : 40 b/s
  153. Count of elements                        : 970
  154. Stream size                              : 28.6 KiB (0%)
  155. Title                                    : English-SRT
  156. Language                                 : English
  157. Default                                  : Yes
  158. Forced                                   : No

  159. Text #2
  160. ID                                       : 8
  161. ID in the original source medium         : 4768 (0x12A0)
  162. Format                                   : PGS
  163. Muxing mode                              : zlib
  164. Codec ID                                 : S_HDMV/PGS
  165. Codec ID/Info                            : Picture based subtitle format used on BDs/HD-DVDs
  166. Duration                                 : 1 h 37 min
  167. Bit rate                                 : 25.3 kb/s
  168. Count of elements                        : 1958
  169. Stream size                              : 17.6 MiB (0%)
  170. Title                                    : English-PGS
  171. Language                                 : English
  172. Default                                  : No
  173. Forced                                   : No
  174. Original source medium                   : Blu-ray

  175. Text #3
  176. ID                                       : 9
  177. ID in the original source medium         : 4769 (0x12A1)
  178. Format                                   : PGS
  179. Muxing mode                              : zlib
  180. Codec ID                                 : S_HDMV/PGS
  181. Codec ID/Info                            : Picture based subtitle format used on BDs/HD-DVDs
  182. Duration                                 : 1 h 38 min
  183. Bit rate                                 : 28.9 kb/s
  184. Count of elements                        : 2372
  185. Stream size                              : 20.4 MiB (0%)
  186. Title                                    : English-SDH-PGS
  187. Language                                 : English
  188. Default                                  : No
  189. Forced                                   : No
  190. Original source medium                   : Blu-ray

  191. Text #4
  192. ID                                       : 10
  193. ID in the original source medium         : 4770 (0x12A2)
  194. Format                                   : PGS
  195. Muxing mode                              : zlib
  196. Codec ID                                 : S_HDMV/PGS
  197. Codec ID/Info                            : Picture based subtitle format used on BDs/HD-DVDs
  198. Duration                                 : 1 h 41 min
  199. Bit rate                                 : 23.7 kb/s
  200. Count of elements                        : 1844
  201. Stream size                              : 17.3 MiB (0%)
  202. Title                                    : Spanish-PGS
  203. Language                                 : Spanish
  204. Default                                  : No
  205. Forced                                   : No
  206. Original source medium                   : Blu-ray

  207. Menu
  208. 00:00:00.000                             : Chapter 01
  209. 00:04:57.797                             : Chapter 02
  210. 00:13:09.955                             : Chapter 03
  211. 00:21:05.430                             : Chapter 04
  212. 00:26:21.621                             : Chapter 05
  213. 00:29:56.377                             : Chapter 06
  214. 00:37:16.859                             : Chapter 07
  215. 00:41:48.130                             : Chapter 08
  216. 00:47:00.692                             : Chapter 09
  217. 00:52:37.445                             : Chapter 10
  218. 01:00:32.170                             : Chapter 11
  219. 01:06:47.795                             : Chapter 12
  220. 01:14:11.822                             : Chapter 13
  221. 01:20:39.417                             : Chapter 14
  222. 01:27:08.306                             : Chapter 15
  223. 01:35:11.997                             : Chapter 16
复制代码




                                       
                                       

                                       
                                       
                                       




回复

使用道具 举报

懒得打字嘛,点击右侧快捷回复 【右侧内容,后台自定义】
您需要登录后才可以回帖 登录 | 立即加入

本版积分规则

Archiver|小黑屋| 蓝光电影网 |网站地图

Copyright © 2021 Comsenz Inc. Powered by 蓝光电影网

蓝光电影网

本站内容由用户自主分享和转载自互联网,转载目的在于传递更多信息,并不代表本网赞同其观点和对其真实性负责。

如有侵权、违反国家法律政策行为,请联系我们,我们会第一时间及时清除和处理!

举报反馈邮箱:[email protected]

快速回复 返回顶部 返回列表