找回密码

蓝光电影网

查看: 97|回复: 0

[2160p] 爆裂鼓手 Whiplash.2014.2160p.BluRay.x264.8bit.SDR.DTS-HD.MA.TrueHD.7.1.Atmos-SWTYBLZ 28.95GB

[复制链接]
蓝光币
1084
发表于 2020-9-23 23:30:57 | 显示全部楼层 |阅读模式


◎译  名 爆裂鼓手/The Whiplash Drummer/进击的鼓手(台)/鞭打/鼓舞听生(台)/鼓舞真我(港)
◎片  名 Whiplash
◎年  代 2014
◎产  地 美国
◎类  别 剧情 / 音乐
◎语  言 英语
◎上映日期 2014-01-16(圣丹斯电影节) / 2014-10-10(美国)
◎IMDb评分  8.5/10 from 693497 users
◎IMDb链接  https://www.imdb.com/title/tt2582802/
◎豆瓣评分 8.7/10 from 419111 users
◎豆瓣链接 https://movie.douban.com/subject/25773932/
◎片  长 107分钟
◎导  演 达米恩·查泽雷 Damien Chazelle
◎编  剧 达米恩·查泽雷 Damien Chazelle
◎主  演 迈尔斯·特勒 Miles Teller
       J·K·西蒙斯 J.K. Simmons
       保罗·雷瑟 Paul Reiser
       梅莉莎·班诺伊 Melissa Benoist
       奥斯汀·斯托维尔 Austin Stowell
       内特·朗 Nate Lang
       克里斯·马尔基 Chris Mulkey
       达蒙·冈普顿 Damon Gupton
       Suanne Spoke
       马科斯·卡锡 Max Kasch
       Charlie Ian
       杰森·布莱尔 Jayson Blair
       科菲·斯里博伊 Kofi Siriboe
       卡维塔帕蒂尔 Kavita Patil
       C.J. Vana
       塔里克·洛维 Tarik Lowe
       卡尔文·C·温布什 Calvin C. Winbush
       迈克尔·D·科恩 Michael D. Cohen
       艾普尔·格雷斯 April Grace
       马库斯·亨德森 Marcus Henderson
       亨利·G.桑德斯 Henry G. Sanders
       温迪·李 Wendee Lee
       米歇尔·拉夫 Michelle Ruff
◎标  签 音乐 | 励志 | 美国 | 胡想 | 长大 | 爵士 | 剧情 | 人性
◎简  介


  19岁少年安德鲁(迈尔斯·特勒 Miles Teller 饰)长大在单亲家庭,一心想成为顶级爵士乐鼓手。某晚他在黉舍练习时被魔鬼导师弗莱彻(J·K·西蒙斯 J.K. Simmons 饰)相中,进入正规乐队,同时也起头为追求完善支出价格。安德鲁越是刻苦练习,与内部天下越是隔膜。唯一了解他的是弗莱彻,但后者的急躁与喜怒无常扭曲了这段师生关系,更让安德鲁耳闻目击,连带本身的性情亦发生变化。最初当安德鲁终究登上纽约音乐厅的舞台,他才惊骇的发现本来弗莱彻一向等着将他打入灰尘......
  
  《爆裂鼓手》报告一位少年在严师督教下,以很是规手段应战自己的极限、追逐爵士乐鼓手梦的热血故事。仆人公酷爱打鼓,但过度的投入让他落空对音乐的初衷,进而演变成生命的负荷以及师徒间近乎疯魔的对决。电影不但要音乐人的苦痛,更让人看到传统励志背后的残暴真相。 《爆裂鼓手》获得第30届圣丹斯电影节最高声誉评审团奖。
◎获奖情况
  第87届奥斯卡金像奖 ?(2015)
  最好影片(提名) 杰森·布伦?/?戴维·兰开斯特?/?海伦·埃斯特布鲁克
  最好男配角 J·K·西蒙斯
  最好改编剧本(提名) 达米恩·查泽雷
  最好剪辑 汤姆·克罗斯
  最好混音 克雷格·曼恩?/?本·威尔金斯?/?托马斯·柯利
  
  第72届金球奖 ?(2015)
  电影类最好男配角 J·K·西蒙斯
  
  第39届日本电影学院奖 ?(2016)
  最好外语片(提名)
  
  第30届圣丹斯电影节 ?(2014)
  评审团大奖剧情片 达米恩·查泽雷
  观众奖剧情片 达米恩·查泽雷
  
  第21届美国演员工会奖 ?(2015)
  电影奖最好男配角 J·K·西蒙斯
  
  第67届美国编剧工会奖 ?(2015)
  电影奖最好原创剧本(提名) 达米恩·查泽雷
  
  第80届纽约影评人协会奖 ?(2014)
  最好男配角 J·K·西蒙斯
  
  第30届美国自力精神奖 ?(2015)
  最好影片(提名)
  最好导演(提名) 达米恩·查泽雷
  最好男配角 J·K·西蒙斯
  最好剪辑 汤姆·克罗斯
  
  第24届哥谭自力电影奖 ?(2014)
  最好男演员(提名) 迈尔斯·特勒
  
  第15届美国电影学会奖 ?(2014)
  年度佳片
  
  第13届华盛顿影评人协会奖 ?(2014)
  最好影片(提名)
  最好导演(提名) 达米恩·查泽雷
  最好男配角 J·K·西蒙斯
  最好原创剧本(提名) 达米恩·查泽雷
  最好剪辑(提名) 汤姆·克罗斯
  
  第35届波士顿影评人协会奖 ?(2014)
  最好男配角 J·K·西蒙斯
  
  第40届洛杉矶影评人协会奖 ?(2014)
  最好男配角 J·K·西蒙斯
  
  第27届芝加哥影评人协会奖 ?(2014)
  最好影片(提名)
  最好男配角 J·K·西蒙斯
  最好原创剧本(提名) 达米恩·查泽雷
  最好剪辑 汤姆·克罗斯
  最具潜力导演 达米恩·查泽雷
  
  第18届美国在线影评人协会奖 ?(2014)
  最好影片(提名)
  最好男配角(提名) J·K·西蒙斯
  最好原创剧本(提名) 达米恩·查泽雷
  最好剪辑(提名) 汤姆·克罗斯
  
  第5届豆瓣电影鑫像奖 ?(2015)
  鑫豆单元最好影片(外语)(提名)
  1. Video
  2. ID                                       : 1
  3. Format                                   : AVC
  4. Format/Info                              : Advanced Video Codec
  5. Format profile                           : [email protected]
  6. Format settings                          : CABAC / 5 Ref Frames
  7. Format settings, CABAC                   : Yes
  8. Format settings, Reference frames        : 5 frames
  9. Codec ID                                 : V_MPEG4/ISO/AVC
  10. Duration                                 : 1 h 46 min
  11. Bit rate                                 : 30.2 Mb/s
  12. Width                                    : 3 840 pixels
  13. Height                                   : 1 600 pixels
  14. Display aspect ratio                     : 2.40:1
  15. Frame rate mode                          : Constant
  16. Frame rate                               : 23.976 (24000/1001/189150) FPS
  17. Color space                              : YUV
  18. Chroma subsampling                       : 4:2:0
  19. Bit depth                                : 8 bits
  20. Scan type                                : Progressive
  21. Bits/(Pixel*Frame)                       : 0.205
  22. Stream size                              : 22.5 GiB (79%)
  23. Title                                    : Whiplash.2014.2160p.BluRay.x264.8bit.SDR.DTS-HD.MA.TrueHD.7.1.Atmos-SWTYBLZ
  24. Writing library                          : x264 core 157 r2935 545de2f
  25. Encoding settings                        : cabac=1 / ref=5 / deblock=1:-1:-1 / analyse=0x3:0x113 / me=umh / subme=10 / psy=1 / psy_rd=1.00:0.15 / mixed_ref=1 / me_range=48 / chroma_me=1 / trellis=2 / 8x8dct=1 / cqm=0 / deadzone=21,11 / fast_pskip=1 / chroma_qp_offset=-3 / threads=48 / lookahead_threads=4 / sliced_threads=0 / nr=0 / decimate=0 / interlaced=0 / bluray_compat=0 / constrained_intra=0 / bframes=3 / b_pyramid=2 / b_adapt=2 / b_bias=0 / direct=3 / weightb=1 / open_gop=0 / weightp=2 / keyint=250 / keyint_min=23 / scenecut=40 / intra_refresh=0 / rc_lookahead=50 / rc=crf / mbtree=1 / crf=18.0 / qcomp=0.60 / qpmin=0 / qpmax=69 / qpstep=4 / ip_ratio=1.40 / aq=1:1.00
  26. Default                                  : Yes
  27. Forced                                   : No
  28. Audio #1
  29. ID                                       : 2
  30. Format                                   : MLP FBA 16-ch
  31. Format/Info                              : Meridian Lossless Packing FBA with 16-channel presentation
  32. Commercial name                          : Dolby TrueHD with Dolby Atmos
  33. Codec ID                                 : A_TRUEHD
  34. Duration                                 : 1 h 46 min
  35. Bit rate mode                            : Variable
  36. Bit rate                                 : 3 032 kb/s
  37. Maximum bit rate                         : 5 253 kb/s
  38. Channel(s)                               : 8 channels
  39. Channel layout                           : L R C LFE Ls Rs Lb Rb
  40. Sampling rate                            : 48.0 kHz
  41. Frame rate                               : 1 200.000 FPS (40 SPF)
  42. Compression mode                         : Lossless
  43. Stream size                              : 2.26 GiB (8%)
  44. Title                                    : Whiplash.2014.2160p.BluRay.x264.8bit.SDR.DTS-HD.MA.TrueHD.7.1.Atmos-SWTYBLZ
  45. Language                                 : English
  46. Default                                  : Yes
  47. Forced                                   : No
  48. Number of dynamic objects                : 11
  49. Bed channel count                        : 1 channel
  50. Bed channel configuration                : LFE
  51. Audio #2
  52. ID                                       : 3
  53. Format                                   : DTS XLL
  54. Format/Info                              : Digital Theater Systems
  55. Commercial name                          : DTS-HD Master Audio
  56. Codec ID                                 : A_DTS
  57. Duration                                 : 1 h 46 min
  58. Bit rate mode                            : Variable
  59. Bit rate                                 : 4 226 kb/s
  60. Channel(s)                               : 8 channels
  61. Channel layout                           : C L R LFE Lb Rb Lss Rss
  62. Sampling rate                            : 48.0 kHz
  63. Frame rate                               : 93.750 FPS (512 SPF)
  64. Bit depth                                : 24 bits
  65. Compression mode                         : Lossless
  66. Stream size                              : 3.16 GiB (11%)
  67. Title                                    : Whiplash.2014.2160p.BluRay.x264.8bit.SDR.DTS-HD.MA.TrueHD.7.1.Atmos-SWTYBLZ
  68. Language                                 : English
  69. Default                                  : No
  70. Forced                                   : No
  71. Audio #3
  72. ID                                       : 4
  73. Format                                   : AC-3
  74. Format/Info                              : Audio Coding 3
  75. Commercial name                          : Dolby Digital
  76. Codec ID                                 : A_AC3
  77. Duration                                 : 1 h 46 min
  78. Bit rate mode                            : Constant
  79. Bit rate                                 : 640 kb/s
  80. Channel(s)                               : 6 channels
  81. Channel layout                           : L R C LFE Ls Rs
  82. Sampling rate                            : 48.0 kHz
  83. Frame rate                               : 31.250 FPS (1536 SPF)
  84. Compression mode                         : Lossy
  85. Stream size                              : 490 MiB (2%)
  86. Title                                    : Whiplash.2014.2160p.BluRay.x264.8bit.SDR.DTS-HD.MA.TrueHD.7.1.Atmos-SWTYBLZ
  87. Language                                 : English
  88. Service kind                             : Complete Main
  89. Default                                  : No
  90. Forced                                   : No
  91. Text #1
  92. ID                                       : 5
  93. Format                                   : UTF-8
  94. Codec ID                                 : S_TEXT/UTF8
  95. Codec ID/Info                            : UTF-8 Plain Text
  96. Duration                                 : 1 h 35 min
  97. Bit rate                                 : 44 b/s
  98. Count of elements                        : 889
  99. Stream size                              : 30.9 KiB (0%)
  100. Title                                    : English-SRT
  101. Language                                 : English
  102. Default                                  : Yes
  103. Forced                                   : No
  104. Text #2
  105. ID                                       : 6
  106. Format                                   : PGS
  107. Muxing mode                              : zlib
  108. Codec ID                                 : S_HDMV/PGS
  109. Codec ID/Info                            : Picture based subtitle format used on BDs/HD-DVDs
  110. Duration                                 : 1 h 35 min
  111. Bit rate                                 : 25.7 kb/s
  112. Count of elements                        : 1794
  113. Stream size                              : 17.5 MiB (0%)
  114. Title                                    : English-PGS
  115. Language                                 : English
  116. Default                                  : No
  117. Forced                                   : No
  118. Text #3
  119. ID                                       : 7
  120. Format                                   : PGS
  121. Muxing mode                              : zlib
  122. Codec ID                                 : S_HDMV/PGS
  123. Codec ID/Info                            : Picture based subtitle format used on BDs/HD-DVDs
  124. Duration                                 : 1 h 44 min
  125. Bit rate                                 : 26.3 kb/s
  126. Count of elements                        : 2065
  127. Stream size                              : 19.6 MiB (0%)
  128. Title                                    : English-SDH-PGS
  129. Language                                 : English
  130. Default                                  : No
  131. Forced                                   : No
  132. Text #4
  133. ID                                       : 8
  134. Format                                   : PGS
  135. Muxing mode                              : zlib
  136. Codec ID                                 : S_HDMV/PGS
  137. Codec ID/Info                            : Picture based subtitle format used on BDs/HD-DVDs
  138. Duration                                 : 1 h 41 min
  139. Bit rate                                 : 21.9 kb/s
  140. Count of elements                        : 1836
  141. Stream size                              : 15.9 MiB (0%)
  142. Title                                    : Bulgarian-PGS
  143. Language                                 : Bulgarian
  144. Default                                  : No
  145. Forced                                   : No
  146. Text #5
  147. ID                                       : 9
  148. Format                                   : PGS
  149. Muxing mode                              : zlib
  150. Codec ID                                 : S_HDMV/PGS
  151. Codec ID/Info                            : Picture based subtitle format used on BDs/HD-DVDs
  152. Duration                                 : 1 h 36 min
  153. Bit rate                                 : 19.6 kb/s
  154. Count of elements                        : 1950
  155. Stream size                              : 13.5 MiB (0%)
  156. Title                                    : Chinese-PGS
  157. Language                                 : Chinese
  158. Default                                  : No
  159. Forced                                   : No
  160. Text #6
  161. ID                                       : 10
  162. Format                                   : PGS
  163. Muxing mode                              : zlib
  164. Codec ID                                 : S_HDMV/PGS
  165. Codec ID/Info                            : Picture based subtitle format used on BDs/HD-DVDs
  166. Duration                                 : 1 h 36 min
  167. Bit rate                                 : 21.1 kb/s
  168. Count of elements                        : 1950
  169. Stream size                              : 14.5 MiB (0%)
  170. Title                                    : Chinese-PGS
  171. Language                                 : Chinese
  172. Default                                  : No
  173. Forced                                   : No
  174. Text #7
  175. ID                                       : 11
  176. Format                                   : PGS
  177. Muxing mode                              : zlib
  178. Codec ID                                 : S_HDMV/PGS
  179. Codec ID/Info                            : Picture based subtitle format used on BDs/HD-DVDs
  180. Duration                                 : 1 h 41 min
  181. Bit rate                                 : 17.4 kb/s
  182. Count of elements                        : 1800
  183. Stream size                              : 12.6 MiB (0%)
  184. Title                                    : Croatian-PGS
  185. Language                                 : Croatian
  186. Default                                  : No
  187. Forced                                   : No
  188. Text #8
  189. ID                                       : 12
  190. Format                                   : PGS
  191. Muxing mode                              : zlib
  192. Codec ID                                 : S_HDMV/PGS
  193. Codec ID/Info                            : Picture based subtitle format used on BDs/HD-DVDs
  194. Duration                                 : 1 h 45 min
  195. Bit rate                                 : 18.1 kb/s
  196. Count of elements                        : 1856
  197. Stream size                              : 13.7 MiB (0%)
  198. Title                                    : Czech-PGS
  199. Language                                 : Czech
  200. Default                                  : No
  201. Forced                                   : No
  202. Text #9
  203. ID                                       : 13
  204. Format                                   : PGS
  205. Muxing mode                              : zlib
  206. Codec ID                                 : S_HDMV/PGS
  207. Codec ID/Info                            : Picture based subtitle format used on BDs/HD-DVDs
  208. Duration                                 : 1 h 44 min
  209. Bit rate                                 : 19.6 kb/s
  210. Count of elements                        : 1560
  211. Stream size                              : 14.6 MiB (0%)
  212. Title                                    : Danish-PGS
  213. Language                                 : Danish
  214. Default                                  : No
  215. Forced                                   : No
  216. Text #10
  217. ID                                       : 14
  218. Format                                   : PGS
  219. Muxing mode                              : zlib
  220. Codec ID                                 : S_HDMV/PGS
  221. Codec ID/Info                            : Picture based subtitle format used on BDs/HD-DVDs
  222. Duration                                 : 1 h 35 min
  223. Bit rate                                 : 19.5 kb/s
  224. Count of elements                        : 1436
  225. Stream size                              : 13.3 MiB (0%)
  226. Title                                    : Dutch-PGS
  227. Language                                 : Dutch
  228. Default                                  : No
  229. Forced                                   : No
  230. Text #11
  231. ID                                       : 15
  232. Format                                   : PGS
  233. Muxing mode                              : zlib
  234. Codec ID                                 : S_HDMV/PGS
  235. Codec ID/Info                            : Picture based subtitle format used on BDs/HD-DVDs
  236. Duration                                 : 1 h 44 min
  237. Bit rate                                 : 18.2 kb/s
  238. Count of elements                        : 1716
  239. Stream size                              : 13.6 MiB (0%)
  240. Title                                    : Finnish-PGS
  241. Language                                 : Finnish
  242. Default                                  : No
  243. Forced                                   : No
  244. Text #12
  245. ID                                       : 16
  246. Format                                   : PGS
  247. Muxing mode                              : zlib
  248. Codec ID                                 : S_HDMV/PGS
  249. Codec ID/Info                            : Picture based subtitle format used on BDs/HD-DVDs
  250. Duration                                 : 1 h 44 min
  251. Bit rate                                 : 17.6 kb/s
  252. Count of elements                        : 1728
  253. Stream size                              : 13.1 MiB (0%)
  254. Title                                    : French-PGS
  255. Language                                 : French
  256. Default                                  : No
  257. Forced                                   : No
  258. Text #13
  259. ID                                       : 17
  260. Format                                   : PGS
  261. Muxing mode                              : zlib
  262. Codec ID                                 : S_HDMV/PGS
  263. Codec ID/Info                            : Picture based subtitle format used on BDs/HD-DVDs
  264. Duration                                 : 1 h 35 min
  265. Bit rate                                 : 26.3 kb/s
  266. Count of elements                        : 1714
  267. Stream size                              : 17.9 MiB (0%)
  268. Title                                    : German-PGS
  269. Language                                 : German
  270. Default                                  : No
  271. Forced                                   : No
  272. Text #14
  273. ID                                       : 18
  274. Format                                   : PGS
  275. Muxing mode                              : zlib
  276. Codec ID                                 : S_HDMV/PGS
  277. Codec ID/Info                            : Picture based subtitle format used on BDs/HD-DVDs
  278. Duration                                 : 1 h 39 min
  279. Bit rate                                 : 23.1 kb/s
  280. Count of elements                        : 1834
  281. Stream size                              : 16.4 MiB (0%)
  282. Title                                    : Greek-PGS
  283. Language                                 : Greek
  284. Default                                  : No
  285. Forced                                   : No
  286. Text #15
  287. ID                                       : 19
  288. Format                                   : PGS
  289. Muxing mode                              : zlib
  290. Codec ID                                 : S_HDMV/PGS
  291. Codec ID/Info                            : Picture based subtitle format used on BDs/HD-DVDs
  292. Duration                                 : 1 h 35 min
  293. Bit rate                                 : 19.2 kb/s
  294. Count of elements                        : 1832
  295. Stream size                              : 13.0 MiB (0%)
  296. Title                                    : Hindi-PGS
  297. Language                                 : Hindi
  298. Default                                  : No
  299. Forced                                   : No
  300. Text #16
  301. ID                                       : 20
  302. Format                                   : PGS
  303. Muxing mode                              : zlib
  304. Codec ID                                 : S_HDMV/PGS
  305. Codec ID/Info                            : Picture based subtitle format used on BDs/HD-DVDs
  306. Duration                                 : 1 h 44 min
  307. Bit rate                                 : 18.7 kb/s
  308. Count of elements                        : 1618
  309. Stream size                              : 13.9 MiB (0%)
  310. Title                                    : Hungarian-PGS
  311. Language                                 : Hungarian
  312. Default                                  : No
  313. Forced                                   : No
  314. Text #17
  315. ID                                       : 21
  316. Format                                   : PGS
  317. Muxing mode                              : zlib
  318. Codec ID                                 : S_HDMV/PGS
  319. Codec ID/Info                            : Picture based subtitle format used on BDs/HD-DVDs
  320. Duration                                 : 1 h 35 min
  321. Bit rate                                 : 25.0 kb/s
  322. Count of elements                        : 1818
  323. Stream size                              : 17.0 MiB (0%)
  324. Title                                    : Italian-PGS
  325. Language                                 : Italian
  326. Default                                  : No
  327. Forced                                   : No
  328. Text #18
  329. ID                                       : 22
  330. Format                                   : PGS
  331. Muxing mode                              : zlib
  332. Codec ID                                 : S_HDMV/PGS
  333. Codec ID/Info                            : Picture based subtitle format used on BDs/HD-DVDs
  334. Duration                                 : 1 h 44 min
  335. Bit rate                                 : 16.7 kb/s
  336. Count of elements                        : 1634
  337. Stream size                              : 12.4 MiB (0%)
  338. Title                                    : Norwegian-PGS
  339. Language                                 : Norwegian
  340. Default                                  : No
  341. Forced                                   : No
  342. Text #19
  343. ID                                       : 23
  344. Format                                   : PGS
  345. Muxing mode                              : zlib
  346. Codec ID                                 : S_HDMV/PGS
  347. Codec ID/Info                            : Picture based subtitle format used on BDs/HD-DVDs
  348. Duration                                 : 1 h 35 min
  349. Bit rate                                 : 19.4 kb/s
  350. Count of elements                        : 1770
  351. Stream size                              : 13.2 MiB (0%)
  352. Title                                    : Polish-PGS
  353. Language                                 : Polish
  354. Default                                  : No
  355. Forced                                   : No
  356. Text #20
  357. ID                                       : 24
  358. Format                                   : PGS
  359. Muxing mode                              : zlib
  360. Codec ID                                 : S_HDMV/PGS
  361. Codec ID/Info                            : Picture based subtitle format used on BDs/HD-DVDs
  362. Duration                                 : 1 h 45 min
  363. Bit rate                                 : 20.8 kb/s
  364. Count of elements                        : 1952
  365. Stream size                              : 15.7 MiB (0%)
  366. Title                                    : Portuguese-PGS
  367. Language                                 : Portuguese
  368. Default                                  : No
  369. Forced                                   : No
  370. Text #21
  371. ID                                       : 25
  372. Format                                   : PGS
  373. Muxing mode                              : zlib
  374. Codec ID                                 : S_HDMV/PGS
  375. Codec ID/Info                            : Picture based subtitle format used on BDs/HD-DVDs
  376. Duration                                 : 1 h 45 min
  377. Bit rate                                 : 21.3 kb/s
  378. Count of elements                        : 1834
  379. Stream size                              : 16.1 MiB (0%)
  380. Title                                    : Portuguese-PGS
  381. Language                                 : Portuguese
  382. Default                                  : No
  383. Forced                                   : No
  384. Text #22
  385. ID                                       : 26
  386. Format                                   : PGS
  387. Muxing mode                              : zlib
  388. Codec ID                                 : S_HDMV/PGS
  389. Codec ID/Info                            : Picture based subtitle format used on BDs/HD-DVDs
  390. Duration                                 : 1 h 35 min
  391. Bit rate                                 : 22.0 kb/s
  392. Count of elements                        : 1900
  393. Stream size                              : 15.0 MiB (0%)
  394. Title                                    : Romanian-PGS
  395. Language                                 : Romanian
  396. Default                                  : No
  397. Forced                                   : No
  398. Text #23
  399. ID                                       : 27
  400. Format                                   : PGS
  401. Muxing mode                              : zlib
  402. Codec ID                                 : S_HDMV/PGS
  403. Codec ID/Info                            : Picture based subtitle format used on BDs/HD-DVDs
  404. Duration                                 : 1 h 41 min
  405. Bit rate                                 : 20.0 kb/s
  406. Count of elements                        : 1858
  407. Stream size                              : 14.6 MiB (0%)
  408. Title                                    : Serbian-PGS
  409. Language                                 : Serbian
  410. Default                                  : No
  411. Forced                                   : No
  412. Text #24
  413. ID                                       : 28
  414. Format                                   : PGS
  415. Muxing mode                              : zlib
  416. Codec ID                                 : S_HDMV/PGS
  417. Codec ID/Info                            : Picture based subtitle format used on BDs/HD-DVDs
  418. Duration                                 : 1 h 44 min
  419. Bit rate                                 : 19.0 kb/s
  420. Count of elements                        : 1586
  421. Stream size                              : 14.2 MiB (0%)
  422. Title                                    : Slovak-PGS
  423. Language                                 : Slovak
  424. Default                                  : No
  425. Forced                                   : No
  426. Text #25
  427. ID                                       : 29
  428. Format                                   : PGS
  429. Muxing mode                              : zlib
  430. Codec ID                                 : S_HDMV/PGS
  431. Codec ID/Info                            : Picture based subtitle format used on BDs/HD-DVDs
  432. Duration                                 : 1 h 41 min
  433. Bit rate                                 : 22.3 kb/s
  434. Count of elements                        : 1880
  435. Stream size                              : 16.2 MiB (0%)
  436. Title                                    : Slovenian-PGS
  437. Language                                 : Slovenian
  438. Default                                  : No
  439. Forced                                   : No
  440. Text #26
  441. ID                                       : 30
  442. Format                                   : PGS
  443. Muxing mode                              : zlib
  444. Codec ID                                 : S_HDMV/PGS
  445. Codec ID/Info                            : Picture based subtitle format used on BDs/HD-DVDs
  446. Duration                                 : 1 h 44 min
  447. Bit rate                                 : 18.7 kb/s
  448. Count of elements                        : 1950
  449. Stream size                              : 14.0 MiB (0%)
  450. Title                                    : Spanish-PGS
  451. Language                                 : Spanish
  452. Default                                  : No
  453. Forced                                   : No
  454. Text #27
  455. ID                                       : 31
  456. Format                                   : PGS
  457. Muxing mode                              : zlib
  458. Codec ID                                 : S_HDMV/PGS
  459. Codec ID/Info                            : Picture based subtitle format used on BDs/HD-DVDs
  460. Duration                                 : 1 h 45 min
  461. Bit rate                                 : 21.0 kb/s
  462. Count of elements                        : 2002
  463. Stream size                              : 15.9 MiB (0%)
  464. Title                                    : Spanish-PGS
  465. Language                                 : Spanish
  466. Default                                  : No
  467. Forced                                   : No
  468. Text #28
  469. ID                                       : 32
  470. Format                                   : PGS
  471. Muxing mode                              : zlib
  472. Codec ID                                 : S_HDMV/PGS
  473. Codec ID/Info                            : Picture based subtitle format used on BDs/HD-DVDs
  474. Duration                                 : 1 h 44 min
  475. Bit rate                                 : 17.6 kb/s
  476. Count of elements                        : 1574
  477. Stream size                              : 13.1 MiB (0%)
  478. Title                                    : Swedish-PGS
  479. Language                                 : Swedish
  480. Default                                  : No
  481. Forced                                   : No
  482. Text #29
  483. ID                                       : 33
  484. Format                                   : PGS
  485. Muxing mode                              : zlib
  486. Codec ID                                 : S_HDMV/PGS
  487. Codec ID/Info                            : Picture based subtitle format used on BDs/HD-DVDs
  488. Duration                                 : 1 h 44 min
  489. Bit rate                                 : 23.0 kb/s
  490. Count of elements                        : 1824
  491. Stream size                              : 17.1 MiB (0%)
  492. Title                                    : Turkish-PGS
  493. Language                                 : Turkish
  494. Default                                  : No
  495. Forced                                   : No
  496. Menu
  497. 00:00:00.000                             : en:Chapter 1
  498. 00:07:02.922                             : en:Chapter 2
  499. 00:14:45.551                             : en:Chapter 3
  500. 00:24:37.476                             : en:Chapter 4
  501. 00:30:17.190                             : en:Chapter 5
  502. 00:35:55.070                             : en:Chapter 6
  503. 00:43:42.453                             : en:Chapter 7
  504. 00:47:06.407                             : en:Chapter 8
  505. 00:53:23.575                             : en:Chapter 9
  506. 01:02:48.598                             : en:Chapter 10
  507. 01:10:41.654                             : en:Chapter 11
  508. 01:14:14.700                             : en:Chapter 12
  509. 01:17:59.884                             : en:Chapter 13
  510. 01:23:17.201                             : en:Chapter 14
  511. 01:25:39.384                             : en:Chapter 15
  512. 01:32:07.313                             : en:Chapter 16
  513. 01:42:42.156                             : en:Chapter 17
复制代码







                                       
                                       

                                       
                                       
                                       




回复

使用道具 举报

懒得打字嘛,点击右侧快捷回复 【右侧内容,后台自定义】
您需要登录后才可以回帖 登录 | 立即加入

本版积分规则

Archiver|小黑屋| 蓝光电影网 |网站地图

Copyright © 2021 Comsenz Inc. Powered by 蓝光电影网

蓝光电影网

本站内容由用户自主分享和转载自互联网,转载目的在于传递更多信息,并不代表本网赞同其观点和对其真实性负责。

如有侵权、违反国家法律政策行为,请联系我们,我们会第一时间及时清除和处理!

举报反馈邮箱:[email protected]

快速回复 返回顶部 返回列表