找回密码

蓝光电影网

查看: 191|回复: 1

[2160p] 僵尸世界大战/地球末日战 World.War.Z.2013.2160p.STAN.WEBRip.DDP5.1.x265-AJP69 11.33GB

[复制链接]
蓝光币
1084
发表于 2020-9-22 17:56:17 | 显示全部楼层 |阅读模式


◎译  名 僵尸天下大战/地球末日战(港)/末日之战(台)
◎片  名 World War Z
◎年  代 2013
◎产  地 美国
◎类  别 行动 / 科幻 / 可骇
◎语  言 英语,西班牙语,希伯来语,阿拉伯语
◎上映日期 2013-06-02(伦敦首映) / 2013-06-21(美国)
◎IMDb评分  7/10 from 591328 users
◎IMDb链接  https://www.imdb.com/title/tt0816711/
◎豆瓣评分 7.5/10 from 210443 users
◎豆瓣链接 https://movie.douban.com/subject/2132473/
◎片  长 116分钟
◎导  演 马克·福斯特 Marc Forster
◎编  剧 马修·迈克尔·卡纳汉 Matthew Michael Carnahan / 德鲁·高达 Drew Goddard / 达蒙·林德洛夫 Damon Lindelof / J·迈克尔·斯特拉辛斯基 J. Michael Straczynski / 马克斯·布鲁克斯 Max Brooks
◎主  演 布拉德·皮特 Brad Pitt
       米瑞·伊诺丝 Mireille Enos
       马修·福克斯 Matthew Fox
       埃里克·韦斯特 Eric West
       大卫·摩斯 David Morse
       詹姆斯·戴尔 James Badge Dale
       伊莱耶斯·加贝尔 Elyes Gabel
       莫里兹·布雷多 Moritz Bleibtreu
       斯特林·杰里斯 Sterling Jerins
       达妮埃拉·凯尔泰斯 Daniella Kertesz
       大卫·安德鲁斯 David Andrews
       金斯利·本-阿迪尔 Kingsley Ben-Adir
       皮耶尔弗兰切斯科·法维诺 Pierfrancesco Favino
       康斯坦丁·哈宾斯基 Konstantin Khabensky
       克里斯蒂安·孔特雷拉斯 Christian Contreras
       约翰·麦克米兰 John MacMillan
       鲁迪·博肯 Ludi Boeken
       安吉·K·亚当斯 Aggy K. Adams
       格里高利·菲托西 Grégory Fitoussi
       伊万·卡马拉斯 Iván Kamarás
       米希尔·赫伊斯曼 Michiel Huisman
       乔纳森·霍华德 Jonathan Howard
       露西·拉塞尔 Lucy Russell
       彼得·卡帕尔迪 Peter Capaldi
       鲁丝·内伽 Ruth Negga
       法纳·莫科纳 Fana Mokoena
       法布里齐奥·扎卡里·奇诺 Fabrizio Zacharee Guido
◎标  签 丧尸 | 美国 | 僵尸 | 灾难 | 科幻 | 惊悚 | 可骇 | 行动
◎简  介


  费城一个毫无征象的安好早晨,前结合国观察员盖瑞·雷恩(布拉德·皮特 Brad Pitt 饰)驾车载着妻子凯伦(米瑞·伊诺丝 Mireille Enos 饰)和两个女儿蕾切尔(Abigail Hargrove 饰)、康妮(Sterling Jerins 饰)外出。谁知原本欢畅的氛围很快变成发急与灭亡所替换,连环的爆炸,惊骇逃散的人群,无序的车祸以及啃咬他人的丧尸,富贵大城市转眼沦亡。盖瑞费尽九牛二虎之力带着妻女逃生,终极逃到结合国副秘书长地点的航母上,进而得知包括美国总统在内的数名大国领袖均已灭亡,丧尸病毒业已舒展全球。为了阻止天下扑灭,格里无法受命,和来自哈佛的病毒学博士法斯巴克(Elyes Gabel 饰)前往病毒的泉源之地寻觅消除危机的法子。
  
  这是一场几近完全没有希望且布满磨难的征程,天下命运危在旦夕……
◎获奖情况
  第23届MTV电影奖 ?(2014)
  MTV电影奖最好惊骇戏表演(提名) 布拉德·皮特
  
  第61届美国音效剪辑协会奖 ?(2014)
  金卷轴奖最好配乐剪辑(提名) 凯文·麦基弗?/?JohnFinklea
  
  第19届美国批评家挑选电影奖 ?(2014)
  行动片最好男配角(提名) 布拉德·皮特
  最好科幻/可骇片(提名)
  
  第18届金卫星奖 ?(2014)
  电影部分最好视觉结果(提名) 斯科特·法勒?/?安德鲁·R·琼斯?/?杰西卡·诺曼?/?MattJohnson
  
  第17届好莱坞电影奖 ?(2013)
  年度电影(提名) 马克·福斯特
  
  第15届美国青少年挑选奖 ?(2013)
  最好暑期行动片(提名)
  
  第4届豆瓣电影鑫像奖 ?(2014)
  鑫豆单元最好科幻/行动片(提名)
  1. Video
  2. ID                                       : 1
  3. Format                                   : HEVC
  4. Format/Info                              : High Efficiency Video Coding
  5. Format profile                           : [email protected]@High
  6. Codec ID                                 : V_MPEGH/ISO/HEVC
  7. Duration                                 : 1 h 56 min
  8. Bit rate                                 : 13.5 Mb/s
  9. Width                                    : 3 840 pixels
  10. Height                                   : 2 160 pixels
  11. Display aspect ratio                     : 16:9
  12. Frame rate mode                          : Constant
  13. Frame rate                               : 23.976 (24000/1001/189150) FPS
  14. Color space                              : YUV
  15. Chroma subsampling                       : 4:2:0
  16. Bit depth                                : 8 bits
  17. Bits/(Pixel*Frame)                       : 0.068
  18. Stream size                              : 11.0 GiB (97%)
  19. Default                                  : Yes
  20. Forced                                   : No
  21. Color range                              : Limited
  22. Color primaries                          : BT.709
  23. Transfer characteristics                 : BT.709
  24. Matrix coefficients                      : BT.709
  25. Audio
  26. ID                                       : 2
  27. Format                                   : E-AC-3
  28. Format/Info                              : Enhanced AC-3
  29. Commercial name                          : Dolby Digital Plus
  30. Codec ID                                 : A_EAC3
  31. Duration                                 : 1 h 56 min
  32. Bit rate mode                            : Constant
  33. Bit rate                                 : 448 kb/s
  34. Channel(s)                               : 6 channels
  35. Channel layout                           : L R C LFE Ls Rs
  36. Sampling rate                            : 48.0 kHz
  37. Frame rate                               : 31.250 FPS (1536 SPF)
  38. Compression mode                         : Lossy
  39. Stream size                              : 372 MiB (3%)
  40. Language                                 : English
  41. Service kind                             : Complete Main
  42. Default                                  : Yes
  43. Forced                                   : No
  44. Text
  45. ID                                       : 3
  46. Format                                   : UTF-8
  47. Codec ID                                 : S_TEXT/UTF8
  48. Codec ID/Info                            : UTF-8 Plain Text
  49. Duration                                 : 1 h 46 min
  50. Bit rate                                 : 58 b/s
  51. Count of elements                        : 1497
  52. Stream size                              : 45.5 KiB (0%)
  53. Title                                    : SDH
  54. Language                                 : English
  55. Default                                  : No
  56. Forced                                   : No
  57. Menu
  58. 01:48:47.000                             : en:Credits
复制代码






                                       
                                       

                                       
                                       
                                       




回复

使用道具 举报

蓝光币
62
发表于 2021-12-30 22:42:09 | 显示全部楼层
稀缺资源啊,感谢楼主
回复 支持 反对

使用道具 举报

懒得打字嘛,点击右侧快捷回复 【右侧内容,后台自定义】
您需要登录后才可以回帖 登录 | 立即加入

本版积分规则

Archiver|小黑屋| 蓝光电影网 |网站地图

Copyright © 2021 Comsenz Inc. Powered by 蓝光电影网

蓝光电影网

本站内容由用户自主分享和转载自互联网,转载目的在于传递更多信息,并不代表本网赞同其观点和对其真实性负责。

如有侵权、违反国家法律政策行为,请联系我们,我们会第一时间及时清除和处理!

举报反馈邮箱:[email protected]

快速回复 返回顶部 返回列表