找回密码

蓝光电影网

查看: 68|回复: 0

[2160p] 亿万富翁/大富翁 Kajillionaire.2020.HDR.2160p.WEB.H265-NAISU 10.96GB

[复制链接]
蓝光币
1082
发表于 2020-10-24 19:38:55 | 显示全部楼层 |阅读模式


◎译  名 亿万富翁/豪富翁/超亿万富翁
◎片  名 Kajillionaire
◎年  代 2020
◎产  地 美国
◎类  别 剧情 / 犯罪
◎语  言 英语
◎上映日期 2020-01-25(圣丹斯电影节) / 2020-09-25(美国)
◎IMDb评分  6.4/10 from 2372 users
◎IMDb链接  https://www.imdb.com/title/tt8143990/
◎豆瓣评分 7.1/10 from 79 users
◎豆瓣链接 https://movie.douban.com/subject/30172002/
◎片  长 106分钟
◎导  演 米兰达·裘丽 Miranda July
◎编  剧 米兰达·裘丽 Miranda July
◎主  演 埃文·蕾切尔·伍德 Evan Rachel Wood
       吉娜·罗德里格兹 Gina Rodriguez
       德博拉·温格 Debra Winger
       理查德·詹金斯 Richard Jenkins
       达明·乔伊·伦道夫 Da'Vine Joy Randolph
       戴安娜·玛丽亚·里瓦 Diana Maria Riva
       马克·伊瓦涅 Mark Ivanir
       亚当·巴特利 Adam Bartley
       斯蒂夫·朴 Steve Park
       尼基·卡斯蒂略 Nikki Castillo
       戴维·尤里 David Ury
       埃琳娜·坎贝尔-马丁内斯 Elena Campbell-Martinez
       伊恩·卡塞尔伯里 Ian Casselberry
       贝琪·贝克 Betsy Baker
       布兰顿·莫拉莱斯 Brandon Morales
       本·康尼斯伯格 Ben Konigsberg
       马修·福斯特 Matthew Foster
       伊桑·乔什·李 Ethan Josh Lee
       安德鲁·霍克斯 Andrew Hawkes
       杰弗瑞·尼克拉斯·布朗 Jeffrey Nicholas Brown
       Michael Twaine
       米兰达·裘丽 Miranda July
◎标  签 2020 | 美国 | 剧情 | 犯罪 | EvanRachelWood | 美国电影 | MirandaJuly | Miranda_July
◎简  介


  这部电影是多媒体艺术家米兰达·裘丽的新片,它是一部关于骗子家庭的原创笑剧。骗子Theresa和Robert花了26年时候把女儿Old Dolio(德妹饰演)带大,让她捉住一切机遇行骗和盗窃。但当怙恃把一个素昧生平的女人梅兰妮请来做计划中的工作时,家里的平常生活就变得不一般了。梅兰妮性情泼辣心爱,倾覆了Old Dolio的家庭和天下观。Old Dolio渴望传统家庭的暖和,而梅兰妮却享用着欺骗犯的刺激生活。
  1. Video
  2. ID                                       : 1
  3. Format                                   : HEVC
  4. Format/Info                              : High Efficiency Video Coding
  5. Format profile                           : Main [email protected]@Main
  6. Codec ID                                 : V_MPEGH/ISO/HEVC
  7. Duration                                 : 1 h 44 min
  8. Bit rate                                 : 14.3 Mb/s
  9. Width                                    : 3 840 pixels
  10. Height                                   : 2 160 pixels
  11. Display aspect ratio                     : 16:9
  12. Frame rate mode                          : Constant
  13. Frame rate                               : 23.976 (24000/1001/189150) FPS
  14. Color space                              : YUV
  15. Chroma subsampling                       : 4:2:0 (Type 2)
  16. Bit depth                                : 10 bits
  17. Bits/(Pixel*Frame)                       : 0.072
  18. Stream size                              : 10.5 GiB (96%)
  19. Default                                  : Yes
  20. Forced                                   : No
  21. Color range                              : Limited
  22. Color primaries                          : BT.2020
  23. Transfer characteristics                 : PQ
  24. Matrix coefficients                      : BT.2020 non-constant
  25. Maximum Content Light Level              : 568 cd/m2
  26. Maximum Frame-Average Light Level        : 148 cd/m2
  27. Audio
  28. ID                                       : 2
  29. Format                                   : E-AC-3
  30. Format/Info                              : Enhanced AC-3
  31. Commercial name                          : Dolby Digital Plus
  32. Codec ID                                 : A_EAC3
  33. Duration                                 : 1 h 44 min
  34. Bit rate mode                            : Constant
  35. Bit rate                                 : 256 kb/s
  36. Channel(s)                               : 6 channels
  37. Channel layout                           : L R C LFE Ls Rs
  38. Sampling rate                            : 48.0 kHz
  39. Frame rate                               : 31.250 FPS (1536 SPF)
  40. Compression mode                         : Lossy
  41. Stream size                              : 192 MiB (2%)
  42. Language                                 : English
  43. Service kind                             : Complete Main
  44. Default                                  : Yes
  45. Forced                                   : No
  46. Text
  47. ID                                       : 3
  48. Format                                   : UTF-8
  49. Codec ID                                 : S_TEXT/UTF8
  50. Codec ID/Info                            : UTF-8 Plain Text
  51. Language                                 : English
  52. Default                                  : No
  53. Forced                                   : No
复制代码



                                       
                                       

                                       
                                       
                                       




回复

使用道具 举报

懒得打字嘛,点击右侧快捷回复 【右侧内容,后台自定义】
您需要登录后才可以回帖 登录 | 立即加入

本版积分规则

Archiver|小黑屋| 蓝光电影网 |网站地图

Copyright © 2021 Comsenz Inc. Powered by 蓝光电影网

蓝光电影网

本站内容由用户自主分享和转载自互联网,转载目的在于传递更多信息,并不代表本网赞同其观点和对其真实性负责。

如有侵权、违反国家法律政策行为,请联系我们,我们会第一时间及时清除和处理!

举报反馈邮箱:[email protected]

快速回复 返回顶部 返回列表