找回密码

蓝光电影网

查看: 119|回复: 0

[2160p] 战争机器 War.Machine.2017.2160p.NF.WEB-DL.x265.10bit.HDR.DD5.1-PLAYREADY 13.28GB

[复制链接]
蓝光币
1084
发表于 2020-10-19 19:31:57 | 显示全部楼层 |阅读模式


◎译  名 战争机械/The Operators
◎片  名 War Machine
◎年  代 2017
◎产  地 美国
◎类  别 剧情 / 笑剧 / 战争
◎语  言 英语
◎上映日期 2017-05-26(美国)
◎IMDb评分  6/10 from 40824 users
◎IMDb链接  https://www.imdb.com/title/tt4758646/
◎豆瓣评分 6.1/10 from 4452 users
◎豆瓣链接 https://movie.douban.com/subject/11518990/
◎片  长 121分钟
◎导  演 大卫·米奇欧德 David Mich?d
◎编  剧 大卫·米奇欧德 David Mich?d / 迈克尔·黑斯廷斯 Michael Hastings
◎主  演 布拉德·皮特 Brad Pitt
       安东尼·海斯 Anthony Hayes
       约翰·马加罗 John Magaro
       安东尼·迈克尔·豪尔 Anthony Michael Hall
       艾莫里·科恩 Emory Cohen
       托弗·戈瑞斯 Topher Grace
       丹尼尔·贝茨 Daniel Betts
       艾蒙·汉道奇 Aymen Hamdouchi
       RJ·赛勒 RJ Cyler
       阿兰·卢克 Alan Ruck
       尼古拉斯·琼斯 Nicholas Jones
       威尔·保尔特 Will Poulter
       勒凯斯·斯坦菲尔德 Lakeith Stanfield
       本·金斯利 Ben Kingsley
       梅格·提利 Meg Tilly
       蒂尔达·斯文顿 Tilda Swinton
       罗素·克劳 Russell Crowe
       迪诺·布加迪 Deano Bugatti
       霍珀·潘 Hopper Penn
       斯科特·麦克纳里 Scoot McNairy
       蒂姆·唐尼 Tim Downie
       拉斯科·阿特金斯 Lasco Atkins
       豪尔赫·莱昂·马丁内斯 Jorge Leon Martinez
◎标  签 战争 | 美国 | 黑色诙谐 | 2017 | 政治 | Netflix | 剧情 | 笑剧
◎简  介


  《战争机械》改编自已故记者迈克尔·哈斯汀斯的畅销书《操纵者:阿富汗战争的可怕内幕》,影片将以黑色诙谐的形式聚焦美国军工结合体。原著中的焦点人物为以美国前任驻阿富汗美军最高批示官斯坦利·麦克里斯特尔为原型的四星上将。据悉,布拉德·皮特将饰演该脚色,他策划并策动了阿富汗战争。为了以全新方式赢得这场“不成能”的战争,将军与他的部属们可谓费尽血汗。他们一方面要主导国际同盟,掌控军事需求以及华盛顿的军事政策,还要满足媒体的报道需求,更要花费精神“治理战争”——要不时辰刻与身在疆场中的人连结联系。
◎获奖情况
  第22届金卫星奖 ?(2018)
  电视部分最好迷你剧/电视电影(提名)
  电视部分最好男配角(提名) 勒凯斯·斯坦菲尔德
  电视部分最好电视电影(提名)
  1. Video
  2. ID                                       : 1
  3. Format                                   : HEVC
  4. Format/Info                              : High Efficiency Video Coding
  5. Format profile                           : Main [email protected]@Main
  6. HDR format                               : SMPTE ST 2086, HDR10 compatible
  7. Codec ID                                 : V_MPEGH/ISO/HEVC
  8. Duration                                 : 2 h 1 min
  9. Bit rate                                 : 15.2 Mb/s
  10. Width                                    : 3 840 pixels
  11. Height                                   : 2 160 pixels
  12. Display aspect ratio                     : 16:9
  13. Frame rate mode                          : Constant
  14. Frame rate                               : 24.000 FPS
  15. Color space                              : YUV
  16. Chroma subsampling                       : 4:2:0 (Type 2)
  17. Bit depth                                : 10 bits
  18. Bits/(Pixel*Frame)                       : 0.076
  19. Stream size                              : 12.9 GiB (97%)
  20. Default                                  : Yes
  21. Forced                                   : No
  22. Color range                              : Limited
  23. Color primaries                          : BT.2020
  24. Transfer characteristics                 : PQ
  25. Matrix coefficients                      : BT.2020 non-constant
  26. Mastering display color primaries        : Display P3
  27. Mastering display luminance              : min: 0.0050 cd/m2, max: 4000 cd/m2
  28. Maximum Content Light Level              : 1374 cd/m2
  29. Maximum Frame-Average Light Level        : 562 cd/m2
  30. Audio
  31. ID                                       : 2
  32. Format                                   : AC-3
  33. Format/Info                              : Audio Coding 3
  34. Commercial name                          : Dolby Digital
  35. Codec ID                                 : A_AC3
  36. Duration                                 : 2 h 2 min
  37. Bit rate mode                            : Constant
  38. Bit rate                                 : 384 kb/s
  39. Channel(s)                               : 6 channels
  40. Channel layout                           : L R C LFE Ls Rs
  41. Sampling rate                            : 48.0 kHz
  42. Frame rate                               : 31.250 FPS (1536 SPF)
  43. Compression mode                         : Lossy
  44. Stream size                              : 337 MiB (2%)
  45. Language                                 : English
  46. Service kind                             : Complete Main
  47. Default                                  : Yes
  48. Forced                                   : No
  49. Encoded date                             : UTC 2017-05-13 00:12:44
  50. Text #1
  51. ID                                       : 3
  52. Format                                   : UTF-8
  53. Codec ID                                 : S_TEXT/UTF8
  54. Codec ID/Info                            : UTF-8 Plain Text
  55. Duration                                 : 1 h 54 min
  56. Bit rate                                 : 100 b/s
  57. Count of elements                        : 1801
  58. Stream size                              : 84.2 KiB (0%)
  59. Title                                    : English
  60. Language                                 : English
  61. Default                                  : Yes
  62. Forced                                   : No
  63. Text #2
  64. ID                                       : 4
  65. Format                                   : UTF-8
  66. Codec ID                                 : S_TEXT/UTF8
  67. Codec ID/Info                            : UTF-8 Plain Text
  68. Duration                                 : 2 h 1 min
  69. Bit rate                                 : 172 b/s
  70. Count of elements                        : 1572
  71. Stream size                              : 154 KiB (0%)
  72. Title                                    : Arabic
  73. Language                                 : Arabic
  74. Default                                  : No
  75. Forced                                   : No
  76. Text #3
  77. ID                                       : 5
  78. Format                                   : UTF-8
  79. Codec ID                                 : S_TEXT/UTF8
  80. Codec ID/Info                            : UTF-8 Plain Text
  81. Duration                                 : 2 h 1 min
  82. Bit rate                                 : 58 b/s
  83. Count of elements                        : 1571
  84. Stream size                              : 52.4 KiB (0%)
  85. Title                                    : Chinese (Simplified)
  86. Language                                 : Chinese
  87. Default                                  : No
  88. Forced                                   : No
  89. Text #4
  90. ID                                       : 6
  91. Format                                   : UTF-8
  92. Codec ID                                 : S_TEXT/UTF8
  93. Codec ID/Info                            : UTF-8 Plain Text
  94. Duration                                 : 2 h 1 min
  95. Bit rate                                 : 58 b/s
  96. Count of elements                        : 1574
  97. Stream size                              : 51.6 KiB (0%)
  98. Title                                    : Chinese (Traditional)
  99. Language                                 : Chinese
  100. Default                                  : No
  101. Forced                                   : No
  102. Text #5
  103. ID                                       : 7
  104. Format                                   : UTF-8
  105. Codec ID                                 : S_TEXT/UTF8
  106. Codec ID/Info                            : UTF-8 Plain Text
  107. Duration                                 : 2 h 1 min
  108. Bit rate                                 : 79 b/s
  109. Count of elements                        : 1462
  110. Stream size                              : 70.6 KiB (0%)
  111. Title                                    : Danish
  112. Language                                 : Danish
  113. Default                                  : No
  114. Forced                                   : No
  115. Text #6
  116. ID                                       : 8
  117. Format                                   : UTF-8
  118. Codec ID                                 : S_TEXT/UTF8
  119. Codec ID/Info                            : UTF-8 Plain Text
  120. Duration                                 : 2 h 1 min
  121. Bit rate                                 : 68 b/s
  122. Count of elements                        : 1326
  123. Stream size                              : 60.6 KiB (0%)
  124. Title                                    : Dutch
  125. Language                                 : Dutch
  126. Default                                  : No
  127. Forced                                   : No
  128. Text #7
  129. ID                                       : 9
  130. Format                                   : UTF-8
  131. Codec ID                                 : S_TEXT/UTF8
  132. Codec ID/Info                            : UTF-8 Plain Text
  133. Duration                                 : 2 h 1 min
  134. Bit rate                                 : 82 b/s
  135. Count of elements                        : 1503
  136. Stream size                              : 73.7 KiB (0%)
  137. Title                                    : German
  138. Language                                 : German
  139. Default                                  : No
  140. Forced                                   : No
  141. Text #8
  142. ID                                       : 10
  143. Format                                   : UTF-8
  144. Codec ID                                 : S_TEXT/UTF8
  145. Codec ID/Info                            : UTF-8 Plain Text
  146. Duration                                 : 2 h 1 min
  147. Bit rate                                 : 120 b/s
  148. Count of elements                        : 1581
  149. Stream size                              : 107 KiB (0%)
  150. Title                                    : Greek
  151. Language                                 : Greek
  152. Default                                  : No
  153. Forced                                   : No
  154. Text #9
  155. ID                                       : 11
  156. Format                                   : UTF-8
  157. Codec ID                                 : S_TEXT/UTF8
  158. Codec ID/Info                            : UTF-8 Plain Text
  159. Duration                                 : 2 h 1 min
  160. Bit rate                                 : 72 b/s
  161. Count of elements                        : 1461
  162. Stream size                              : 64.1 KiB (0%)
  163. Title                                    : Finnish
  164. Language                                 : Finnish
  165. Default                                  : No
  166. Forced                                   : No
  167. Text #10
  168. ID                                       : 12
  169. Format                                   : UTF-8
  170. Codec ID                                 : S_TEXT/UTF8
  171. Codec ID/Info                            : UTF-8 Plain Text
  172. Duration                                 : 2 h 1 min
  173. Bit rate                                 : 76 b/s
  174. Count of elements                        : 1537
  175. Stream size                              : 68.0 KiB (0%)
  176. Title                                    : French
  177. Language                                 : French
  178. Default                                  : No
  179. Forced                                   : No
  180. Text #11
  181. ID                                       : 13
  182. Format                                   : UTF-8
  183. Codec ID                                 : S_TEXT/UTF8
  184. Codec ID/Info                            : UTF-8 Plain Text
  185. Duration                                 : 1 h 54 min
  186. Bit rate                                 : 177 b/s
  187. Count of elements                        : 1725
  188. Stream size                              : 150 KiB (0%)
  189. Title                                    : Hindi
  190. Language                                 : Hindi
  191. Default                                  : No
  192. Forced                                   : No
  193. Text #12
  194. ID                                       : 14
  195. Format                                   : UTF-8
  196. Codec ID                                 : S_TEXT/UTF8
  197. Codec ID/Info                            : UTF-8 Plain Text
  198. Duration                                 : 1 h 54 min
  199. Bit rate                                 : 121 b/s
  200. Count of elements                        : 1575
  201. Stream size                              : 102 KiB (0%)
  202. Default                                  : No
  203. Forced                                   : No
  204. Text #13
  205. ID                                       : 15
  206. Format                                   : UTF-8
  207. Codec ID                                 : S_TEXT/UTF8
  208. Codec ID/Info                            : UTF-8 Plain Text
  209. Duration                                 : 2 h 1 min
  210. Bit rate                                 : 80 b/s
  211. Count of elements                        : 1761
  212. Stream size                              : 72.0 KiB (0%)
  213. Title                                    : Indonesian
  214. Language                                 : Indonesian
  215. Default                                  : No
  216. Forced                                   : No
  217. Text #14
  218. ID                                       : 16
  219. Format                                   : UTF-8
  220. Codec ID                                 : S_TEXT/UTF8
  221. Codec ID/Info                            : UTF-8 Plain Text
  222. Duration                                 : 2 h 1 min
  223. Bit rate                                 : 78 b/s
  224. Count of elements                        : 1567
  225. Stream size                              : 69.5 KiB (0%)
  226. Title                                    : Italian
  227. Language                                 : Italian
  228. Default                                  : No
  229. Forced                                   : No
  230. Text #15
  231. ID                                       : 17
  232. Format                                   : UTF-8
  233. Codec ID                                 : S_TEXT/UTF8
  234. Codec ID/Info                            : UTF-8 Plain Text
  235. Duration                                 : 2 h 1 min
  236. Bit rate                                 : 66 b/s
  237. Count of elements                        : 1548
  238. Stream size                              : 59.0 KiB (0%)
  239. Title                                    : Japanese
  240. Language                                 : Japanese
  241. Default                                  : No
  242. Forced                                   : No
  243. Text #16
  244. ID                                       : 18
  245. Format                                   : UTF-8
  246. Codec ID                                 : S_TEXT/UTF8
  247. Codec ID/Info                            : UTF-8 Plain Text
  248. Duration                                 : 2 h 1 min
  249. Bit rate                                 : 75 b/s
  250. Count of elements                        : 1577
  251. Stream size                              : 66.8 KiB (0%)
  252. Title                                    : Korean
  253. Language                                 : Korean
  254. Default                                  : No
  255. Forced                                   : No
  256. Text #17
  257. ID                                       : 19
  258. Format                                   : UTF-8
  259. Codec ID                                 : S_TEXT/UTF8
  260. Codec ID/Info                            : UTF-8 Plain Text
  261. Duration                                 : 2 h 1 min
  262. Bit rate                                 : 75 b/s
  263. Count of elements                        : 1508
  264. Stream size                              : 67.3 KiB (0%)
  265. Title                                    : Norwegian
  266. Language                                 : Norwegian
  267. Default                                  : No
  268. Forced                                   : No
  269. Text #18
  270. ID                                       : 20
  271. Format                                   : UTF-8
  272. Codec ID                                 : S_TEXT/UTF8
  273. Codec ID/Info                            : UTF-8 Plain Text
  274. Duration                                 : 2 h 1 min
  275. Bit rate                                 : 75 b/s
  276. Count of elements                        : 1547
  277. Stream size                              : 66.8 KiB (0%)
  278. Title                                    : Polish
  279. Language                                 : Polish
  280. Default                                  : No
  281. Forced                                   : No
  282. Text #19
  283. ID                                       : 21
  284. Format                                   : UTF-8
  285. Codec ID                                 : S_TEXT/UTF8
  286. Codec ID/Info                            : UTF-8 Plain Text
  287. Duration                                 : 2 h 1 min
  288. Bit rate                                 : 80 b/s
  289. Count of elements                        : 1566
  290. Stream size                              : 71.5 KiB (0%)
  291. Title                                    : Portuguese (Brazilian)
  292. Language                                 : Portuguese
  293. Default                                  : No
  294. Forced                                   : No
  295. Text #20
  296. ID                                       : 22
  297. Format                                   : UTF-8
  298. Codec ID                                 : S_TEXT/UTF8
  299. Codec ID/Info                            : UTF-8 Plain Text
  300. Duration                                 : 2 h 1 min
  301. Bit rate                                 : 82 b/s
  302. Count of elements                        : 1550
  303. Stream size                              : 73.6 KiB (0%)
  304. Title                                    : Portuguese (European)
  305. Language                                 : Portuguese
  306. Default                                  : No
  307. Forced                                   : No
  308. Text #21
  309. ID                                       : 23
  310. Format                                   : UTF-8
  311. Codec ID                                 : S_TEXT/UTF8
  312. Codec ID/Info                            : UTF-8 Plain Text
  313. Duration                                 : 2 h 1 min
  314. Bit rate                                 : 72 b/s
  315. Count of elements                        : 1601
  316. Stream size                              : 64.8 KiB (0%)
  317. Title                                    : Romanian
  318. Language                                 : Romanian
  319. Default                                  : No
  320. Forced                                   : No
  321. Text #22
  322. ID                                       : 24
  323. Format                                   : UTF-8
  324. Codec ID                                 : S_TEXT/UTF8
  325. Codec ID/Info                            : UTF-8 Plain Text
  326. Duration                                 : 2 h 1 min
  327. Bit rate                                 : 80 b/s
  328. Count of elements                        : 1563
  329. Stream size                              : 71.4 KiB (0%)
  330. Title                                    : Spanish (European)
  331. Language                                 : Spanish
  332. Default                                  : No
  333. Forced                                   : No
  334. Text #23
  335. ID                                       : 25
  336. Format                                   : UTF-8
  337. Codec ID                                 : S_TEXT/UTF8
  338. Codec ID/Info                            : UTF-8 Plain Text
  339. Duration                                 : 2 h 1 min
  340. Bit rate                                 : 81 b/s
  341. Count of elements                        : 1565
  342. Stream size                              : 72.1 KiB (0%)
  343. Title                                    : Spanish (Latin America)
  344. Language                                 : Spanish
  345. Default                                  : No
  346. Forced                                   : No
  347. Text #24
  348. ID                                       : 26
  349. Format                                   : UTF-8
  350. Codec ID                                 : S_TEXT/UTF8
  351. Codec ID/Info                            : UTF-8 Plain Text
  352. Duration                                 : 2 h 1 min
  353. Bit rate                                 : 76 b/s
  354. Count of elements                        : 1529
  355. Stream size                              : 68.5 KiB (0%)
  356. Title                                    : Swedish
  357. Language                                 : Swedish
  358. Default                                  : No
  359. Forced                                   : No
  360. Text #25
  361. ID                                       : 27
  362. Format                                   : UTF-8
  363. Codec ID                                 : S_TEXT/UTF8
  364. Codec ID/Info                            : UTF-8 Plain Text
  365. Duration                                 : 2 h 1 min
  366. Bit rate                                 : 168 b/s
  367. Count of elements                        : 1568
  368. Stream size                              : 150 KiB (0%)
  369. Title                                    : Thai
  370. Language                                 : Thai
  371. Default                                  : No
  372. Forced                                   : No
  373. Text #26
  374. ID                                       : 28
  375. Format                                   : UTF-8
  376. Codec ID                                 : S_TEXT/UTF8
  377. Codec ID/Info                            : UTF-8 Plain Text
  378. Duration                                 : 2 h 1 min
  379. Bit rate                                 : 79 b/s
  380. Count of elements                        : 1560
  381. Stream size                              : 71.0 KiB (0%)
  382. Title                                    : Turkish
  383. Language                                 : Turkish
  384. Default                                  : No
  385. Forced                                   : No
  386. Text #27
  387. ID                                       : 29
  388. Format                                   : UTF-8
  389. Codec ID                                 : S_TEXT/UTF8
  390. Codec ID/Info                            : UTF-8 Plain Text
  391. Duration                                 : 2 h 1 min
  392. Bit rate                                 : 91 b/s
  393. Count of elements                        : 1562
  394. Stream size                              : 81.8 KiB (0%)
  395. Title                                    : Vietnamese
  396. Language                                 : Vietnamese
  397. Default                                  : No
  398. Forced                                   : No
复制代码



                                       
                                       

                                       
                                       
                                       




回复

使用道具 举报

懒得打字嘛,点击右侧快捷回复 【右侧内容,后台自定义】
您需要登录后才可以回帖 登录 | 立即加入

本版积分规则

Archiver|小黑屋| 蓝光电影网 |网站地图

Copyright © 2021 Comsenz Inc. Powered by 蓝光电影网

蓝光电影网

本站内容由用户自主分享和转载自互联网,转载目的在于传递更多信息,并不代表本网赞同其观点和对其真实性负责。

如有侵权、违反国家法律政策行为,请联系我们,我们会第一时间及时清除和处理!

举报反馈邮箱:[email protected]

快速回复 返回顶部 返回列表