找回密码

蓝光电影网

查看: 164|回复: 0

[2160p] 匹诺曹/木偶奇遇记 Pinocchio.2019.ITALIAN.2160p.BluRay.x264.8bit.SDR.DTS-HD.MA.5.1-SWTYBLZ 29.54GB

[复制链接]
蓝光币
1080
发表于 2020-10-18 20:29:07 | 显示全部楼层 |阅读模式


◎译  名 匹诺曹/木偶奇遇记/皮诺丘的奇异旅程(台)
◎片  名 Pinocchio
◎年  代 2019
◎产  地 意大利,法国,英国
◎类  别 奇异
◎语  言 意大利语
◎上映日期 2019-12-19(意大利)
◎IMDb评分  6.3/10 from 4744 users
◎IMDb链接  https://www.imdb.com/title/tt8333746/
◎豆瓣评分 6.7/10 from 5221 users
◎豆瓣链接 https://movie.douban.com/subject/26886204/
◎片  长 124分钟
◎导  演 马提欧·加洛尼 Matteo Garrone
◎编  剧 卡洛·科洛迪 Carlo Collodi / 马提欧·加洛尼 Matteo Garrone / 马西莫·切可里尼 Massimo Ceccherini
◎主  演 费德里科·伊帕迪 Federico Ielapi
       罗伯托·贝尼尼 Roberto Benigni
       罗科·帕帕莱奥 Rocco Papaleo
       马西莫·切可里尼 Massimo Ceccherini
       玛丽恩·瓦科特 Marine Vacth
       吉吉·普罗耶蒂 Gigi Proietti
       阿利达·巴尔达里·卡拉布里亚 Alida Baldari Calabria
       Alessio Di Domenicantonio
       达维德·马洛塔 Davide Marotta
       保罗·格拉齐西 Paolo Graziosi
       马西米利亚诺·加洛 Massimiliano Gallo
       詹弗兰科·加洛 Gianfranco Gallo
       特科·切里奥 Teco Celio
       尼诺?斯卡迪纳 Nino Scardina
       毛里齐奥·隆巴迪 Maurizio Lombardi
       纪尧姆·德洛内 Guillaume Delaunay
       吉格欧·莫拉 Gigio Morra
       Ciro Petrone
       Barbara Enrichi
       马尔切洛·丰特 Marcello Fonte
       马蒂尔达·德·安杰利斯 Matilda De Angelis
◎标  签 童话 | 奇异 | 意大利 | 温情 | 意大利电影 | 改编 | 2019 | 马提欧.加洛尼
◎简  介


  意大利真人版《匹诺曹》,故事围绕一个老木匠与他雕镂的小木偶匹诺曹展开。
◎获奖情况
  第65届意大利大卫奖 ?(2020)
  最好影片(提名)
  最好导演(提名) 马提欧·加洛尼
  最好改编剧本(提名) 马提欧·加洛尼?/?马西莫·切可里尼
  最好女配角(提名) 阿利达·巴尔达里·卡拉布里亚
  最好男配角(提名) 罗伯托·贝尼尼
  最好摄影(提名)
  最好音乐(提名)
  最好美术设想
  最好打扮设想
  最好化装
  最好剪辑(提名)
  最好音效(提名)
  最好视觉结果
  1. Video
  2. ID                                       : 1
  3. Format                                   : AVC
  4. Format/Info                              : Advanced Video Codec
  5. Format profile                           : [email protected]
  6. Format settings                          : CABAC / 5 Ref Frames
  7. Format settings, CABAC                   : Yes
  8. Format settings, Reference frames        : 5 frames
  9. Codec ID                                 : V_MPEG4/ISO/AVC
  10. Duration                                 : 2 h 5 min
  11. Bit rate                                 : 30.7 Mb/s
  12. Width                                    : 3 840 pixels
  13. Height                                   : 1 612 pixels
  14. Display aspect ratio                     : 2.40:1
  15. Frame rate mode                          : Constant
  16. Frame rate                               : 24.000 FPS
  17. Color space                              : YUV
  18. Chroma subsampling                       : 4:2:0
  19. Bit depth                                : 8 bits
  20. Scan type                                : Progressive
  21. Bits/(Pixel*Frame)                       : 0.207
  22. Stream size                              : 26.8 GiB (91%)
  23. Title                                    : Pinocchio.2019.ITALIAN.2160p.BluRay.x264.8bit.SDR.DTS-HD.MA.5.1-SWTYBLZ
  24. Writing library                          : x264 core 157 r2935 545de2f
  25. Encoding settings                        : cabac=1 / ref=5 / deblock=1:-1:-1 / analyse=0x3:0x113 / me=umh / subme=10 / psy=1 / psy_rd=1.00:0.15 / mixed_ref=1 / me_range=48 / chroma_me=1 / trellis=2 / 8x8dct=1 / cqm=0 / deadzone=21,11 / fast_pskip=1 / chroma_qp_offset=-3 / threads=36 / lookahead_threads=3 / sliced_threads=0 / nr=0 / decimate=0 / interlaced=0 / bluray_compat=0 / constrained_intra=0 / bframes=3 / b_pyramid=2 / b_adapt=2 / b_bias=0 / direct=3 / weightb=1 / open_gop=0 / weightp=2 / keyint=250 / keyint_min=24 / scenecut=40 / intra_refresh=0 / rc_lookahead=50 / rc=crf / mbtree=1 / crf=18.0 / qcomp=0.60 / qpmin=0 / qpmax=69 / qpstep=4 / ip_ratio=1.40 / aq=1:1.00
  26. Language                                 : Italian
  27. Default                                  : Yes
  28. Forced                                   : No

  29. Audio #1
  30. ID                                       : 2
  31. ID in the original source medium         : 4353 (0x1101)
  32. Format                                   : DTS XLL
  33. Format/Info                              : Digital Theater Systems
  34. Commercial name                          : DTS-HD Master Audio
  35. Codec ID                                 : A_DTS
  36. Duration                                 : 2 h 5 min
  37. Bit rate mode                            : Variable
  38. Bit rate                                 : 2 330 kb/s
  39. Channel(s)                               : 6 channels
  40. Channel layout                           : C L R Ls Rs LFE
  41. Sampling rate                            : 48.0 kHz
  42. Frame rate                               : 93.750 FPS (512 SPF)
  43. Bit depth                                : 16 bits
  44. Compression mode                         : Lossless
  45. Stream size                              : 2.04 GiB (7%)
  46. Title                                    : Pinocchio.2019.ITALIAN.2160p.BluRay.x264.8bit.SDR.DTS-HD.MA.5.1-SWTYBLZ
  47. Language                                 : Italian
  48. Default                                  : Yes
  49. Forced                                   : No
  50. Original source medium                   : Blu-ray

  51. Audio #2
  52. ID                                       : 3
  53. Format                                   : AC-3
  54. Format/Info                              : Audio Coding 3
  55. Commercial name                          : Dolby Digital
  56. Codec ID                                 : A_AC3
  57. Duration                                 : 2 h 5 min
  58. Bit rate mode                            : Constant
  59. Bit rate                                 : 640 kb/s
  60. Channel(s)                               : 6 channels
  61. Channel layout                           : L R C LFE Ls Rs
  62. Sampling rate                            : 48.0 kHz
  63. Frame rate                               : 31.250 FPS (1536 SPF)
  64. Compression mode                         : Lossy
  65. Stream size                              : 573 MiB (2%)
  66. Title                                    : Pinocchio.2019.ITALIAN.2160p.BluRay.x264.8bit.SDR.DTS-HD.MA.5.1-SWTYBLZ
  67. Language                                 : Italian
  68. Service kind                             : Complete Main
  69. Default                                  : No
  70. Forced                                   : No

  71. Text #1
  72. ID                                       : 4
  73. Format                                   : UTF-8
  74. Codec ID                                 : S_TEXT/UTF8
  75. Codec ID/Info                            : UTF-8 Plain Text
  76. Duration                                 : 1 h 54 min
  77. Bit rate                                 : 49 b/s
  78. Count of elements                        : 1298
  79. Stream size                              : 41.7 KiB (0%)
  80. Title                                    : English-SRT
  81. Language                                 : English
  82. Default                                  : Yes
  83. Forced                                   : No

  84. Text #2
  85. ID                                       : 5
  86. ID in the original source medium         : 4768 (0x12A0)
  87. Format                                   : PGS
  88. Muxing mode                              : zlib
  89. Codec ID                                 : S_HDMV/PGS
  90. Codec ID/Info                            : Picture based subtitle format used on BDs/HD-DVDs
  91. Duration                                 : 1 h 52 min
  92. Bit rate                                 : 34.4 kb/s
  93. Count of elements                        : 3402
  94. Stream size                              : 27.8 MiB (0%)
  95. Title                                    : German-PGS
  96. Language                                 : German
  97. Default                                  : No
  98. Forced                                   : No
  99. Original source medium                   : Blu-ray

  100. Menu
  101. 00:00:00.000                             : en:Chapter 01
  102. 00:11:25.916                             : en:Chapter 02
  103. 00:20:42.916                             : en:Chapter 03
  104. 00:31:30.083                             : en:Chapter 04
  105. 00:40:53.250                             : en:Chapter 05
  106. 00:50:47.791                             : en:Chapter 06
  107. 00:59:33.833                             : en:Chapter 07
  108. 01:10:38.208                             : en:Chapter 08
  109. 01:19:59.875                             : en:Chapter 09
  110. 01:29:35.250                             : en:Chapter 10
  111. 01:40:35.583                             : en:Chapter 11
  112. 01:52:54.583                             : en:Chapter 12
复制代码










                                       
                                       

                                       
                                       
                                       




回复

使用道具 举报

懒得打字嘛,点击右侧快捷回复 【右侧内容,后台自定义】
您需要登录后才可以回帖 登录 | 立即加入

本版积分规则

Archiver|小黑屋| 蓝光电影网 |网站地图

Copyright © 2021 Comsenz Inc. Powered by 蓝光电影网

蓝光电影网

本站内容由用户自主分享和转载自互联网,转载目的在于传递更多信息,并不代表本网赞同其观点和对其真实性负责。

如有侵权、违反国家法律政策行为,请联系我们,我们会第一时间及时清除和处理!

举报反馈邮箱:[email protected]

快速回复 返回顶部 返回列表