找回密码

蓝光电影网

查看: 84|回复: 0

[2160p] 匹诺曹/木偶奇遇记 Pinocchio.2019.ITALIAN.2160p.BluRay.x265.10bit.SDR.DTS-HD.MA.5.1-SWTYBLZ 31.54GB

[复制链接]
蓝光币
1078
发表于 2020-10-18 20:27:33 | 显示全部楼层 |阅读模式


◎译  名 匹诺曹/木偶奇遇记/皮诺丘的奇异旅程(台)
◎片  名 Pinocchio
◎年  代 2019
◎产  地 意大利,法国,英国
◎类  别 奇异
◎语  言 意大利语
◎上映日期 2019-12-19(意大利)
◎IMDb评分  6.3/10 from 4744 users
◎IMDb链接  https://www.imdb.com/title/tt8333746/
◎豆瓣评分 6.7/10 from 5221 users
◎豆瓣链接 https://movie.douban.com/subject/26886204/
◎片  长 124分钟
◎导  演 马提欧·加洛尼 Matteo Garrone
◎编  剧 卡洛·科洛迪 Carlo Collodi / 马提欧·加洛尼 Matteo Garrone / 马西莫·切可里尼 Massimo Ceccherini
◎主  演 费德里科·伊帕迪 Federico Ielapi
       罗伯托·贝尼尼 Roberto Benigni
       罗科·帕帕莱奥 Rocco Papaleo
       马西莫·切可里尼 Massimo Ceccherini
       玛丽恩·瓦科特 Marine Vacth
       吉吉·普罗耶蒂 Gigi Proietti
       阿利达·巴尔达里·卡拉布里亚 Alida Baldari Calabria
       Alessio Di Domenicantonio
       达维德·马洛塔 Davide Marotta
       保罗·格拉齐西 Paolo Graziosi
       马西米利亚诺·加洛 Massimiliano Gallo
       詹弗兰科·加洛 Gianfranco Gallo
       特科·切里奥 Teco Celio
       尼诺?斯卡迪纳 Nino Scardina
       毛里齐奥·隆巴迪 Maurizio Lombardi
       纪尧姆·德洛内 Guillaume Delaunay
       吉格欧·莫拉 Gigio Morra
       Ciro Petrone
       Barbara Enrichi
       马尔切洛·丰特 Marcello Fonte
       马蒂尔达·德·安杰利斯 Matilda De Angelis
◎标  签 童话 | 奇异 | 意大利 | 温情 | 意大利电影 | 改编 | 2019 | 马提欧.加洛尼
◎简  介


  意大利真人版《匹诺曹》,故事围绕一个老木匠与他雕镂的小木偶匹诺曹展开。
◎获奖情况
  第65届意大利大卫奖 ?(2020)
  最好影片(提名)
  最好导演(提名) 马提欧·加洛尼
  最好改编剧本(提名) 马提欧·加洛尼?/?马西莫·切可里尼
  最好女配角(提名) 阿利达·巴尔达里·卡拉布里亚
  最好男配角(提名) 罗伯托·贝尼尼
  最好摄影(提名)
  最好音乐(提名)
  最好美术设想
  最好打扮设想
  最好化装
  最好剪辑(提名)
  最好音效(提名)
  最好视觉结果
  1. Video
  2. ID                                       : 1
  3. Format                                   : HEVC
  4. Format/Info                              : High Efficiency Video Coding
  5. Format profile                           : Main [email protected]@High
  6. Codec ID                                 : V_MPEGH/ISO/HEVC
  7. Duration                                 : 2 h 5 min
  8. Bit rate                                 : 32.9 Mb/s
  9. Width                                    : 3 840 pixels
  10. Height                                   : 1 612 pixels
  11. Display aspect ratio                     : 2.40:1
  12. Frame rate mode                          : Constant
  13. Frame rate                               : 24.000 FPS
  14. Color space                              : YUV
  15. Chroma subsampling                       : 4:2:0
  16. Bit depth                                : 10 bits
  17. Bits/(Pixel*Frame)                       : 0.222
  18. Stream size                              : 28.8 GiB (92%)
  19. Title                                    : Pinocchio.2019.ITALIAN.2160p.BluRay.x265.10bit.SDR.DTS-HD.MA.5.1-SWTYBLZ
  20. Writing library                          : x265 3.0ed72af837053:[Windows][GCC 8.2.0][64 bit] 10bit
  21. Encoding settings                        : cpuid=1111039 / frame-threads=6 / numa-pools=40 / wpp / no-pmode / no-pme / no-psnr / no-ssim / log-level=2 / input-csp=1 / input-res=3840x1612 / interlace=0 / total-frames=180217 / level-idc=51 / high-tier=1 / uhd-bd=0 / ref=3 / no-allow-non-conformance / repeat-headers / annexb / aud / hrd / info / hash=0 / no-temporal-layers / no-open-gop / min-keyint=1 / keyint=24 / gop-lookahead=0 / bframes=4 / b-adapt=2 / b-pyramid / bframe-bias=0 / rc-lookahead=25 / lookahead-slices=4 / scenecut=40 / radl=0 / no-splice / no-intra-refresh / ctu=64 / min-cu-size=8 / no-rect / no-amp / max-tu-size=32 / tu-inter-depth=1 / tu-intra-depth=1 / limit-tu=0 / rdoq-level=0 / dynamic-rd=0.00 / no-ssim-rd / signhide / no-tskip / nr-intra=0 / nr-inter=0 / no-constrained-intra / strong-intra-smoothing / max-merge=2 / limit-refs=3 / no-limit-modes / me=1 / subme=2 / merange=57 / temporal-mvp / weightp / no-weightb / no-analyze-src-pics / deblock=0:0 / no-sao / no-sao-non-deblock / rd=3 / no-early-skip / rskip / no-fast-intra / no-tskip-fast / no-cu-lossless / no-b-intra / no-splitrd-skip / rdpenalty=0 / psy-rd=2.00 / psy-rdoq=0.00 / no-rd-refine / no-lossless / cbqpoffs=0 / crqpoffs=0 / rc=crf / crf=16.0 / qcomp=0.60 / qpstep=4 / stats-write=0 / stats-read=0 / vbv-maxrate=160000 / vbv-bufsize=160000 / vbv-init=0.9 / crf-max=0.0 / crf-min=0.0 / ipratio=1.40 / pbratio=1.30 / aq-mode=1 / aq-strength=1.00 / cutree / zone-count=0 / no-strict-cbr / qg-size=32 / no-rc-grain / qpmax=69 / qpmin=0 / no-const-vbv / sar=1 / overscan=0 / videoformat=5 / range=0 / colorprim=2 / transfer=2 / colormatrix=2 / chromaloc=0 / display-window=0 / max-cll=0,0 / min-luma=0 / max-luma=1023 / log2-max-poc-lsb=8 / vui-timing-info / vui-hrd-info / slices=1 / opt-qp-pps / opt-ref-list-length-pps / no-multi-pass-opt-rps / scenecut-bias=0.05 / no-opt-cu-delta-qp / no-aq-motion / no-hdr / no-hdr-opt / no-dhdr10-opt / no-idr-recovery-sei / analysis-reuse-level=5 / scale-factor=0 / refine-intra=0 / refine-inter=0 / refine-mv=0 / refine-ctu-distortion=0 / no-limit-sao / ctu-info=0 / no-lowpass-dct / refine-analysis-type=0 / copy-pic=1 / max-ausize-factor=1.0 / no-dynamic-refine / no-single-sei / no-hevc-aq / qp-adaptation-range=1.00
  22. Default                                  : Yes
  23. Forced                                   : No

  24. Audio #1
  25. ID                                       : 2
  26. ID in the original source medium         : 4353 (0x1101)
  27. Format                                   : DTS XLL
  28. Format/Info                              : Digital Theater Systems
  29. Commercial name                          : DTS-HD Master Audio
  30. Codec ID                                 : A_DTS
  31. Duration                                 : 2 h 5 min
  32. Bit rate mode                            : Variable
  33. Bit rate                                 : 2 330 kb/s
  34. Channel(s)                               : 6 channels
  35. Channel layout                           : C L R Ls Rs LFE
  36. Sampling rate                            : 48.0 kHz
  37. Frame rate                               : 93.750 FPS (512 SPF)
  38. Bit depth                                : 16 bits
  39. Compression mode                         : Lossless
  40. Stream size                              : 2.04 GiB (6%)
  41. Title                                    : Pinocchio.2019.ITALIAN.2160p.BluRay.x265.10bit.SDR.DTS-HD.MA.5.1-SWTYBLZ
  42. Language                                 : Italian
  43. Default                                  : Yes
  44. Forced                                   : No
  45. Original source medium                   : Blu-ray

  46. Audio #2
  47. ID                                       : 3
  48. Format                                   : AC-3
  49. Format/Info                              : Audio Coding 3
  50. Commercial name                          : Dolby Digital
  51. Codec ID                                 : A_AC3
  52. Duration                                 : 2 h 5 min
  53. Bit rate mode                            : Constant
  54. Bit rate                                 : 640 kb/s
  55. Channel(s)                               : 6 channels
  56. Channel layout                           : L R C LFE Ls Rs
  57. Sampling rate                            : 48.0 kHz
  58. Frame rate                               : 31.250 FPS (1536 SPF)
  59. Compression mode                         : Lossy
  60. Stream size                              : 573 MiB (2%)
  61. Title                                    : Pinocchio.2019.ITALIAN.2160p.BluRay.x265.10bit.SDR.DTS-HD.MA.5.1-SWTYBLZ
  62. Language                                 : Italian
  63. Service kind                             : Complete Main
  64. Default                                  : No
  65. Forced                                   : No

  66. Text #1
  67. ID                                       : 4
  68. Format                                   : UTF-8
  69. Codec ID                                 : S_TEXT/UTF8
  70. Codec ID/Info                            : UTF-8 Plain Text
  71. Duration                                 : 1 h 54 min
  72. Bit rate                                 : 49 b/s
  73. Count of elements                        : 1298
  74. Stream size                              : 41.7 KiB (0%)
  75. Title                                    : English-SRT
  76. Language                                 : English
  77. Default                                  : Yes
  78. Forced                                   : No

  79. Text #2
  80. ID                                       : 5
  81. ID in the original source medium         : 4768 (0x12A0)
  82. Format                                   : PGS
  83. Muxing mode                              : zlib
  84. Codec ID                                 : S_HDMV/PGS
  85. Codec ID/Info                            : Picture based subtitle format used on BDs/HD-DVDs
  86. Duration                                 : 1 h 52 min
  87. Bit rate                                 : 34.4 kb/s
  88. Count of elements                        : 3402
  89. Stream size                              : 27.8 MiB (0%)
  90. Title                                    : German-PGS
  91. Language                                 : German
  92. Default                                  : No
  93. Forced                                   : No
  94. Original source medium                   : Blu-ray

  95. Menu
  96. 00:00:00.000                             : en:Chapter 01
  97. 00:11:25.916                             : en:Chapter 02
  98. 00:20:42.916                             : en:Chapter 03
  99. 00:31:30.083                             : en:Chapter 04
  100. 00:40:53.250                             : en:Chapter 05
  101. 00:50:47.791                             : en:Chapter 06
  102. 00:59:33.833                             : en:Chapter 07
  103. 01:10:38.208                             : en:Chapter 08
  104. 01:19:59.875                             : en:Chapter 09
  105. 01:29:35.250                             : en:Chapter 10
  106. 01:40:35.583                             : en:Chapter 11
  107. 01:52:54.583                             : en:Chapter 12
复制代码









                                       
                                       

                                       
                                       
                                       




回复

使用道具 举报

懒得打字嘛,点击右侧快捷回复 【右侧内容,后台自定义】
您需要登录后才可以回帖 登录 | 立即加入

本版积分规则

Archiver|小黑屋| 蓝光电影网 |网站地图

Copyright © 2021 Comsenz Inc. Powered by 蓝光电影网

蓝光电影网

本站内容由用户自主分享和转载自互联网,转载目的在于传递更多信息,并不代表本网赞同其观点和对其真实性负责。

如有侵权、违反国家法律政策行为,请联系我们,我们会第一时间及时清除和处理!

举报反馈邮箱:[email protected]

快速回复 返回顶部 返回列表