找回密码

蓝光电影网

查看: 191|回复: 0

[UHD.HEVC] 太空炮弹/宇宙奇航 Spaceballs.1987.2160p.BluRay.REMUX.HEVC.DTS-HD.MA.5.1-FGT 49.42GB

[复制链接]
蓝光币
1080
发表于 2021-4-9 13:48:43 | 显示全部楼层 |阅读模式


◎译  名 太空炮弹/宇宙奇航/星战外传之痴人星球/星战歪传之太空炮弹
◎片  名 Spaceballs
◎年  代 1987
◎产  地 美国
◎类  别 笑剧 / 科幻 / 冒险
◎语  言 英语
◎上映日期 1987-06-24
◎IMDb评分  7.1/10 from 173219 users
◎IMDb链接  https://www.imdb.com/title/tt0094012/
◎豆瓣评分 6.8/10 from 975 users
◎豆瓣链接 https://movie.douban.com/subject/1296158/
◎片  长 96 分钟
◎导  演 梅尔·布鲁克斯 Mel Brooks
◎编  剧 梅尔·布鲁克斯 Mel Brooks / 托马斯·米汉 Thomas Meehan
◎主  演 梅尔·布鲁克斯 Mel Brooks
       约翰·坎迪 John Candy
       里克·莫拉尼斯 Rick Moranis
       比尔·普尔曼 Bill Pullman
       达芙妮·祖尼加 Daphne Zuniga
       鲁迪·德卢卡 Rudy De Luca
       托马斯·米汉 Thomas Meehan
◎标  签 笑剧 | 科幻 | 美国 | 恶搞 | 1987 | 美国电影 | MelBrooks | 1980s
◎简  介


  在很久之前的悠远星系中,“炮弹一族”因其魁首的愚蠢,耗尽了自己星球的大气,因而计划夺取邻近的朱迪亚星球的纯洁空气。在朱迪亚星球维斯帕公主(达芙妮?祖尼加 Daphne Zuniga 饰)婚礼前夜,炮弹族总统斯古(梅尔?布鲁克斯 Mel Brooks 饰)派出黑帽子大人率领巨型战舰绑架维斯帕,以威胁朱迪亚方面就范。维斯帕拒绝没有恋爱的婚姻挑选逃婚,却堕入了炮弹族巨舰的追击,这时,由于欠高利贷在太空中奔逃的太空牛仔“孤星”(比尔?普尔曼 Bill Pullman 饰)与半人半狗的同伴巴夫受朱迪亚国王所托,出头将维斯帕救走。炮弹族岂肯善罢甘休,正邪势力在太空上演了又一场苦战……
  1. Video
  2. ID                                       : 1
  3. ID in the original source medium         : 4113 (0x1011)
  4. Format                                   : HEVC
  5. Format/Info                              : High Efficiency Video Coding
  6. Format profile                           : Main [email protected]@High
  7. HDR format                               : SMPTE ST 2086, HDR10 compatible
  8. Codec ID                                 : V_MPEGH/ISO/HEVC
  9. Duration                                 : 1 h 36 min
  10. Bit rate                                 : 66.9 Mb/s
  11. Width                                    : 3 840 pixels
  12. Height                                   : 2 160 pixels
  13. Display aspect ratio                     : 16:9
  14. Frame rate mode                          : Constant
  15. Frame rate                               : 23.976 (24000/1001/189150) FPS
  16. Color space                              : YUV
  17. Chroma subsampling                       : 4:2:0 (Type 2)
  18. Bit depth                                : 10 bits
  19. Bits/(Pixel*Frame)                       : 0.336
  20. Stream size                              : 44.9 GiB (91%)
  21. Language                                 : English
  22. Default                                  : No
  23. Forced                                   : No
  24. Color range                              : Limited
  25. Color primaries                          : BT.2020
  26. Transfer characteristics                 : PQ
  27. Matrix coefficients                      : BT.2020 non-constant
  28. Mastering display color primaries        : Display P3
  29. Mastering display luminance              : min: 0.0050 cd/m2, max: 4000 cd/m2
  30. Maximum Content Light Level              : 9972 cd/m2
  31. Maximum Frame-Average Light Level        : 589 cd/m2
  32. Original source medium                   : Blu-ray
  33. Audio #1
  34. ID                                       : 2
  35. ID in the original source medium         : 4352 (0x1100)
  36. Format                                   : DTS XLL
  37. Format/Info                              : Digital Theater Systems
  38. Commercial name                          : DTS-HD Master Audio
  39. Codec ID                                 : A_DTS
  40. Duration                                 : 1 h 36 min
  41. Bit rate mode                            : Variable
  42. Bit rate                                 : 3 814 kb/s
  43. Channel(s)                               : 6 channels
  44. Channel layout                           : C L R Ls Rs LFE
  45. Sampling rate                            : 48.0 kHz
  46. Frame rate                               : 93.750 FPS (512 SPF)
  47. Bit depth                                : 24 bits
  48. Compression mode                         : Lossless
  49. Stream size                              : 2.56 GiB (5%)
  50. Title                                    : DTS-HD MA 5.1
  51. Language                                 : English
  52. Default                                  : Yes
  53. Forced                                   : No
  54. Original source medium                   : Blu-ray
  55. Audio #2
  56. ID                                       : 3
  57. Format                                   : AC-3
  58. Format/Info                              : Audio Coding 3
  59. Commercial name                          : Dolby Digital
  60. Codec ID                                 : A_AC3
  61. Duration                                 : 1 h 36 min
  62. Bit rate mode                            : Constant
  63. Bit rate                                 : 640 kb/s
  64. Channel(s)                               : 6 channels
  65. Channel layout                           : L R C LFE Ls Rs
  66. Sampling rate                            : 48.0 kHz
  67. Frame rate                               : 31.250 FPS (1536 SPF)
  68. Compression mode                         : Lossy
  69. Stream size                              : 440 MiB (1%)
  70. Title                                    : DD 5.1
  71. Language                                 : English
  72. Service kind                             : Complete Main
  73. Default                                  : No
  74. Forced                                   : No
  75. Audio #3
  76. ID                                       : 4
  77. ID in the original source medium         : 4353 (0x1101)
  78. Format                                   : DTS XLL
  79. Format/Info                              : Digital Theater Systems
  80. Commercial name                          : DTS-HD Master Audio
  81. Codec ID                                 : A_DTS
  82. Duration                                 : 1 h 36 min
  83. Bit rate mode                            : Variable
  84. Bit rate                                 : 2 000 kb/s
  85. Channel(s)                               : 2 channels
  86. Channel layout                           : L R
  87. Sampling rate                            : 48.0 kHz
  88. Frame rate                               : 93.750 FPS (512 SPF)
  89. Bit depth                                : 24 bits
  90. Compression mode                         : Lossless
  91. Stream size                              : 1.34 GiB (3%)
  92. Title                                    : DTS-HD MA 2.0
  93. Language                                 : English
  94. Default                                  : No
  95. Forced                                   : No
  96. Original source medium                   : Blu-ray
  97. Audio #4
  98. ID                                       : 5
  99. ID in the original source medium         : 4354 (0x1102)
  100. Format                                   : AC-3
  101. Format/Info                              : Audio Coding 3
  102. Commercial name                          : Dolby Digital
  103. Codec ID                                 : A_AC3
  104. Duration                                 : 1 h 36 min
  105. Bit rate mode                            : Constant
  106. Bit rate                                 : 192 kb/s
  107. Channel(s)                               : 2 channels
  108. Channel layout                           : L R
  109. Sampling rate                            : 48.0 kHz
  110. Frame rate                               : 31.250 FPS (1536 SPF)
  111. Compression mode                         : Lossy
  112. Stream size                              : 132 MiB (0%)
  113. Title                                    : DD 2.0
  114. Language                                 : English
  115. Service kind                             : Complete Main
  116. Default                                  : No
  117. Forced                                   : No
  118. Original source medium                   : Blu-ray
  119. Text #1
  120. ID                                       : 6
  121. Format                                   : UTF-8
  122. Codec ID                                 : S_TEXT/UTF8
  123. Codec ID/Info                            : UTF-8 Plain Text
  124. Duration                                 : 1 h 26 min
  125. Bit rate                                 : 58 b/s
  126. Count of elements                        : 1168
  127. Stream size                              : 37.5 KiB (0%)
  128. Title                                    : English-SRT
  129. Language                                 : English
  130. Default                                  : Yes
  131. Forced                                   : No
  132. Text #2
  133. ID                                       : 7
  134. ID in the original source medium         : 4768 (0x12A0)
  135. Format                                   : PGS
  136. Muxing mode                              : zlib
  137. Codec ID                                 : S_HDMV/PGS
  138. Codec ID/Info                            : Picture based subtitle format used on BDs/HD-DVDs
  139. Duration                                 : 1 h 26 min
  140. Bit rate                                 : 37.2 kb/s
  141. Count of elements                        : 2336
  142. Stream size                              : 23.1 MiB (0%)
  143. Title                                    : English-PGS
  144. Language                                 : English
  145. Default                                  : No
  146. Forced                                   : No
  147. Original source medium                   : Blu-ray
  148. Menu
  149. 00:00:00.000                             : en:Chapter 01
  150. 00:09:37.577                             : en:Chapter 02
  151. 00:18:24.103                             : en:Chapter 03
  152. 00:26:49.608                             : en:Chapter 04
  153. 00:34:55.093                             : en:Chapter 05
  154. 00:42:07.525                             : en:Chapter 06
  155. 00:50:55.052                             : en:Chapter 07
  156. 00:58:24.501                             : en:Chapter 08
  157. 01:08:50.126                             : en:Chapter 09
  158. 01:16:30.586                             : en:Chapter 10
  159. 01:24:29.064                             : en:Chapter 11
  160. 01:30:55.450                             : en:Chapter 12
  161. 01:36:11.766                             : en:Chapter 13
复制代码



                                       
                                       

                                       
                                       
                                       




回复

使用道具 举报

懒得打字嘛,点击右侧快捷回复 【右侧内容,后台自定义】
您需要登录后才可以回帖 登录 | 立即加入

本版积分规则

Archiver|小黑屋| 蓝光电影网 |网站地图

Copyright © 2021 Comsenz Inc. Powered by 蓝光电影网

蓝光电影网

本站内容由用户自主分享和转载自互联网,转载目的在于传递更多信息,并不代表本网赞同其观点和对其真实性负责。

如有侵权、违反国家法律政策行为,请联系我们,我们会第一时间及时清除和处理!

举报反馈邮箱:[email protected]

快速回复 返回顶部 返回列表