找回密码

蓝光电影网

查看: 99|回复: 0

[2160p] 爱与怪物 Love.and.Monsters.2020.2160p.WEB.H265-NAISU 11.67GB

[复制链接]
蓝光币
1080
发表于 2020-10-18 20:09:48 | 显示全部楼层 |阅读模式


◎译  名 爱与怪物/Monster Problems/怪物题目
◎片  名 Love and Monsters
◎年  代 2020
◎产  地 美国
◎类  别 冒险
◎语  言 英语
◎上映日期 2020-10-16(美国)
◎IMDb评分  7.2/10 from 1820 users
◎IMDb链接  https://www.imdb.com/title/tt2222042/
◎豆瓣评分 7.4/10 from 229 users
◎豆瓣链接 https://movie.douban.com/subject/21349338/
◎导  演 迈克尔·马修斯 Michael Matthews
◎编  剧 布莱恩·达菲尔德 Brian Duffield / 马修·罗宾逊 Matthew Robinson
◎主  演 迪伦·奥布莱恩 Dylan O'Brien
       梅拉妮·萨内蒂 Melanie Zanetti
       迈克尔·鲁克 Michael Rooker
       杰西卡·亨维克 Jessica Henwick
       艾伦·霍尔曼 Ellen Hollman
       阿玛莉·沃德 Amali Ward
       阿丽亚娜·格林布拉特 Ariana Greenblatt
       丹尼尔·尤因 Daniel Ewing
       达米安·加维 Damien Garvey
       塔斯尼姆·罗克 Tasneem Roc
       拉里·塞达尔 Larry Cedar
       坦蒂·莱特 Tandi Wright
       特克赫·图哈卡 Te Kohe Tuhaka
       米莉亚玛·史姑娘 Miriama Smith
       安德鲁·布坎南 Andrew Buchanan
       托马斯·坎贝尔 Thomas Campbell
◎标  签 怪物 | 科幻 | 奇异 | 美国 | 2020 | 美国电影 | 电影 | 迪伦·奥布莱恩
◎简  介


  影片据称气概连系《僵尸之地》和约翰·修斯的青少年电影,报告一场“怪物末日”迫使一切人类转到地下殖民地居住,此事务7年后,男主Joel Dawson(奥布莱恩)目击身旁的幸存者们都成双成对了,他也想和自己的梦中女孩Aimee(亨维克)在一路。为此,Dawson勇敢地去到地表,并和一只勇敢的狗狗及两小我(鲁克和Greenblatt)成了队友,在他们的帮助下,Dawson要尽力穿越怪兽横行的后末世,寻觅真爱。
  1. Video
  2. ID                                       : 1
  3. Format                                   : HEVC
  4. Format/Info                              : High Efficiency Video Coding
  5. Format profile                           : [email protected]@Main
  6. Codec ID                                 : V_MPEGH/ISO/HEVC
  7. Duration                                 : 1 h 48 min
  8. Bit rate                                 : 14.6 Mb/s
  9. Width                                    : 3 840 pixels
  10. Height                                   : 2 160 pixels
  11. Display aspect ratio                     : 16:9
  12. Frame rate mode                          : Constant
  13. Frame rate                               : 23.976 (24000/1001/189150) FPS
  14. Color space                              : YUV
  15. Chroma subsampling                       : 4:2:0
  16. Bit depth                                : 8 bits
  17. Bits/(Pixel*Frame)                       : 0.074
  18. Stream size                              : 11.1 GiB (96%)
  19. Default                                  : Yes
  20. Forced                                   : No
  21. Color range                              : Limited
  22. Color primaries                          : BT.709
  23. Transfer characteristics                 : BT.709
  24. Matrix coefficients                      : BT.709
  25. Audio
  26. ID                                       : 2
  27. Format                                   : E-AC-3
  28. Format/Info                              : Enhanced AC-3
  29. Commercial name                          : Dolby Digital Plus
  30. Codec ID                                 : A_EAC3
  31. Duration                                 : 1 h 48 min
  32. Bit rate mode                            : Constant
  33. Bit rate                                 : 256 kb/s
  34. Channel(s)                               : 6 channels
  35. Channel layout                           : L R C LFE Ls Rs
  36. Sampling rate                            : 48.0 kHz
  37. Frame rate                               : 31.250 FPS (1536 SPF)
  38. Compression mode                         : Lossy
  39. Stream size                              : 199 MiB (2%)
  40. Language                                 : English
  41. Service kind                             : Complete Main
  42. Default                                  : Yes
  43. Forced                                   : No
  44. Text
  45. ID                                       : 3
  46. Format                                   : UTF-8
  47. Codec ID                                 : S_TEXT/UTF8
  48. Codec ID/Info                            : UTF-8 Plain Text
  49. Language                                 : English
  50. Default                                  : No
  51. Forced                                   : No
复制代码





                                       
                                       

                                       
                                       
                                       




回复

使用道具 举报

懒得打字嘛,点击右侧快捷回复 【右侧内容,后台自定义】
您需要登录后才可以回帖 登录 | 立即加入

本版积分规则

Archiver|小黑屋| 蓝光电影网 |网站地图

Copyright © 2021 Comsenz Inc. Powered by 蓝光电影网

蓝光电影网

本站内容由用户自主分享和转载自互联网,转载目的在于传递更多信息,并不代表本网赞同其观点和对其真实性负责。

如有侵权、违反国家法律政策行为,请联系我们,我们会第一时间及时清除和处理!

举报反馈邮箱:[email protected]

快速回复 返回顶部 返回列表