找回密码

蓝光电影网

查看: 97|回复: 0

[2160p] 花木兰/木兰传说 Mulan.2020.HDR.2160p.WEB.h265-FREEHK 13.43GB

[复制链接]
蓝光币
1082
发表于 2020-10-17 21:15:36 | 显示全部楼层 |阅读模式


◎译  名 花木兰/木兰传闻/花木兰真人版/迪士尼真人版花木兰
◎片  名 Mulan
◎年  代 2020
◎产  地 美国,中国大陆
◎类  别 剧情 / 行动 / 奇异 / 冒险 / 古装
◎语  言 英语,汉语普通话
◎上映日期 2020-09-04(美国收集) / 2020-09-11(中国大陆)
◎IMDb评分  5.4/10 from 62344 users
◎IMDb链接  https://www.imdb.com/title/tt4566758/
◎豆瓣评分 5.0/10 from 218744 users
◎豆瓣链接 https://movie.douban.com/subject/26357307/
◎片  长 115分钟
◎导  演 妮琪·卡罗 Niki Caro
◎编  剧 劳伦·希内克 Lauren Hynek / 里克·杰法 Rick Jaffa / 伊丽莎白·马丁 Elizabeth Martin / 阿曼达·斯尔沃 Amanda Silver
◎主  演 刘亦菲 Yifei Liu
       甄子丹 Donnie Yen
       巩俐 Li Gong
       李连杰 Jet Li
       李截 Jason Scott Lee
       安柚鑫 Yoson An
       马泰 Tzi Ma
       赵家玲 Rosalind Chao
       郑佩佩 Pei-pei Cheng
       温明娜 Ming-Na Wen
       曾晓童 Xana Tang
       袁文忠 Ron Yuan
       唐辰瀛 Chen Tang
       道阿·茂阿 Doua Moua
       黄谷悦 Jimmy Wong
       尼尔森·李 Nelson Lee
       李勋 Hoon Lee
       饶雪晶 Crystal Rao
       袁之正 Roger Yuan
       仁成外桥 Jen Sung Outerbridge
       加里·扬 Gary Young
       欧文·邝 Owen Kwong
       乌特卡什·安邦德卡尔 Utkarsh Ambudkar
       钱姆·艾希勒珀拉 Chum Ehelepola
       大卫·T·林 David T·Lim
       詹森·郑 Jenson Cheng
       Jun Yu
◎标  签 花木兰 | 刘亦菲 | 迪士尼 | 真人版 | Disney | 美国 | 古装 | 电影
◎简  介


  迪士尼影业声誉出品《花木兰》由备受赞誉的电影导演妮基·卡罗执导,将中国传奇战士的史诗故事全新显现。影片报告了一位无所害怕的年轻女子义无返顾为家国而战,成为中国史上最著名的巨大勇士之一。当天子命令境内每个家庭必须有一位男丁应召出征,抵抗北方来犯者入侵,身世军戎之家的长女花木兰,自告奋勇,替病痛缠身的父亲应征参军。她女扮男装假名“花军”,一路历经考验,把握自己心里的气力,激起实在的潜能。经过这段传奇过程,她将成为一位名誉的勇士,不但赢得国家的认可,更赢得父亲的自豪。
◎获奖情况
  第6届豆瓣电影年度榜单 ?(2019)
  最值得期待的外语电影(提名)
  1. Video
  2. ID                                       : 1
  3. Format                                   : HEVC
  4. Format/Info                              : High Efficiency Video Coding
  5. Format profile                           : Main [email protected]@High
  6. HDR format                               : SMPTE ST 2086, HDR10 compatible
  7. Codec ID                                 : V_MPEGH/ISO/HEVC
  8. Duration                                 : 1 h 55 min
  9. Bit rate                                 : 15.8 Mb/s
  10. Width                                    : 3 840 pixels
  11. Height                                   : 2 160 pixels
  12. Display aspect ratio                     : 16:9
  13. Frame rate mode                          : Constant
  14. Frame rate                               : 23.976 (24000/1001/189150) FPS
  15. Color space                              : YUV
  16. Chroma subsampling                       : 4:2:0
  17. Bit depth                                : 10 bits
  18. Bits/(Pixel*Frame)                       : 0.079
  19. Stream size                              : 12.7 GiB (95%)
  20. Language                                 : English
  21. Default                                  : Yes
  22. Forced                                   : No
  23. Color range                              : Limited
  24. Color primaries                          : BT.2020
  25. Transfer characteristics                 : PQ
  26. Matrix coefficients                      : BT.2020 non-constant
  27. Mastering display color primaries        : Display P3
  28. Mastering display luminance              : min: 0.0000 cd/m2, max: 1000 cd/m2
  29. Audio
  30. ID                                       : 2
  31. Format                                   : E-AC-3 JOC
  32. Format/Info                              : Enhanced AC-3 with Joint Object Coding
  33. Commercial name                          : Dolby Digital Plus with Dolby Atmos
  34. Codec ID                                 : A_EAC3
  35. Duration                                 : 1 h 55 min
  36. Bit rate mode                            : Constant
  37. Bit rate                                 : 768 kb/s
  38. Channel(s)                               : 6 channels
  39. Channel layout                           : L R C LFE Ls Rs
  40. Sampling rate                            : 48.0 kHz
  41. Frame rate                               : 31.250 FPS (1536 SPF)
  42. Compression mode                         : Lossy
  43. Stream size                              : 633 MiB (5%)
  44. Language                                 : English
  45. Service kind                             : Complete Main
  46. Default                                  : Yes
  47. Forced                                   : No
  48. Complexity index                         : 16
  49. Number of dynamic objects                : 15
  50. Bed channel count                        : 1 channel
  51. Bed channel configuration                : LFE
  52. Text #1
  53. ID                                       : 3
  54. Format                                   : UTF-8
  55. Codec ID                                 : S_TEXT/UTF8
  56. Codec ID/Info                            : UTF-8 Plain Text
  57. Duration                                 : 1 h 50 min
  58. Bit rate                                 : 36 b/s
  59. Count of elements                        : 1150
  60. Stream size                              : 29.5 KiB (0%)
  61. Title                                    : English (SDH)
  62. Language                                 : English
  63. Default                                  : No
  64. Forced                                   : No
  65. Text #2
  66. ID                                       : 4
  67. Format                                   : UTF-8
  68. Codec ID                                 : S_TEXT/UTF8
  69. Codec ID/Info                            : UTF-8 Plain Text
  70. Duration                                 : 1 h 54 min
  71. Bit rate                                 : 26 b/s
  72. Count of elements                        : 632
  73. Stream size                              : 21.8 KiB (0%)
  74. Title                                    : Dansk
  75. Language                                 : Danish
  76. Default                                  : No
  77. Forced                                   : No
  78. Text #3
  79. ID                                       : 5
  80. Format                                   : UTF-8
  81. Codec ID                                 : S_TEXT/UTF8
  82. Codec ID/Info                            : UTF-8 Plain Text
  83. Duration                                 : 1 h 54 min
  84. Bit rate                                 : 27 b/s
  85. Count of elements                        : 933
  86. Stream size                              : 23.3 KiB (0%)
  87. Title                                    : Deutsch
  88. Language                                 : German
  89. Default                                  : No
  90. Forced                                   : No
  91. Text #4
  92. ID                                       : 6
  93. Format                                   : UTF-8
  94. Codec ID                                 : S_TEXT/UTF8
  95. Codec ID/Info                            : UTF-8 Plain Text
  96. Duration                                 : 1 h 54 min
  97. Bit rate                                 : 28 b/s
  98. Count of elements                        : 785
  99. Stream size                              : 23.5 KiB (0%)
  100. Title                                    : Espa?ol
  101. Language                                 : Spanish
  102. Default                                  : No
  103. Forced                                   : No
  104. Text #5
  105. ID                                       : 7
  106. Format                                   : UTF-8
  107. Codec ID                                 : S_TEXT/UTF8
  108. Codec ID/Info                            : UTF-8 Plain Text
  109. Duration                                 : 1 h 43 min
  110. Bit rate                                 : 31 b/s
  111. Count of elements                        : 783
  112. Stream size                              : 24.0 KiB (0%)
  113. Title                                    : Espa?ol (Latinoamericano)
  114. Language                                 : Spanish
  115. Default                                  : No
  116. Forced                                   : No
  117. Text #6
  118. ID                                       : 8
  119. Format                                   : UTF-8
  120. Codec ID                                 : S_TEXT/UTF8
  121. Codec ID/Info                            : UTF-8 Plain Text
  122. Duration                                 : 1 h 54 min
  123. Bit rate                                 : 27 b/s
  124. Count of elements                        : 785
  125. Stream size                              : 22.8 KiB (0%)
  126. Title                                    : Suomi
  127. Language                                 : Finnish
  128. Default                                  : No
  129. Forced                                   : No
  130. Text #7
  131. ID                                       : 9
  132. Format                                   : UTF-8
  133. Codec ID                                 : S_TEXT/UTF8
  134. Codec ID/Info                            : UTF-8 Plain Text
  135. Duration                                 : 1 h 54 min
  136. Bit rate                                 : 28 b/s
  137. Count of elements                        : 771
  138. Stream size                              : 24.1 KiB (0%)
  139. Title                                    : Fran?ais
  140. Language                                 : French
  141. Default                                  : No
  142. Forced                                   : No
  143. Text #8
  144. ID                                       : 10
  145. Format                                   : UTF-8
  146. Codec ID                                 : S_TEXT/UTF8
  147. Codec ID/Info                            : UTF-8 Plain Text
  148. Duration                                 : 1 h 54 min
  149. Bit rate                                 : 29 b/s
  150. Count of elements                        : 806
  151. Stream size                              : 25.0 KiB (0%)
  152. Title                                    : Fran?ais (Canadien)
  153. Language                                 : French
  154. Default                                  : No
  155. Forced                                   : No
  156. Text #9
  157. ID                                       : 11
  158. Format                                   : UTF-8
  159. Codec ID                                 : S_TEXT/UTF8
  160. Codec ID/Info                            : UTF-8 Plain Text
  161. Duration                                 : 1 h 54 min
  162. Bit rate                                 : 28 b/s
  163. Count of elements                        : 784
  164. Stream size                              : 23.5 KiB (0%)
  165. Title                                    : Italiano
  166. Language                                 : Italian
  167. Default                                  : No
  168. Forced                                   : No
  169. Text #10
  170. ID                                       : 12
  171. Format                                   : UTF-8
  172. Codec ID                                 : S_TEXT/UTF8
  173. Codec ID/Info                            : UTF-8 Plain Text
  174. Duration                                 : 1 h 54 min
  175. Bit rate                                 : 25 b/s
  176. Count of elements                        : 699
  177. Stream size                              : 21.0 KiB (0%)
  178. Title                                    : Nederlands
  179. Language                                 : Dutch
  180. Default                                  : No
  181. Forced                                   : No
  182. Text #11
  183. ID                                       : 13
  184. Format                                   : UTF-8
  185. Codec ID                                 : S_TEXT/UTF8
  186. Codec ID/Info                            : UTF-8 Plain Text
  187. Duration                                 : 1 h 54 min
  188. Bit rate                                 : 26 b/s
  189. Count of elements                        : 784
  190. Stream size                              : 21.8 KiB (0%)
  191. Title                                    : Norsk
  192. Language                                 : Norwegian
  193. Default                                  : No
  194. Forced                                   : No
  195. Text #12
  196. ID                                       : 14
  197. Format                                   : UTF-8
  198. Codec ID                                 : S_TEXT/UTF8
  199. Codec ID/Info                            : UTF-8 Plain Text
  200. Duration                                 : 1 h 54 min
  201. Bit rate                                 : 28 b/s
  202. Count of elements                        : 785
  203. Stream size                              : 23.5 KiB (0%)
  204. Title                                    : Português
  205. Language                                 : Portuguese
  206. Default                                  : No
  207. Forced                                   : No
  208. Text #13
  209. ID                                       : 15
  210. Format                                   : UTF-8
  211. Codec ID                                 : S_TEXT/UTF8
  212. Codec ID/Info                            : UTF-8 Plain Text
  213. Duration                                 : 1 h 54 min
  214. Bit rate                                 : 27 b/s
  215. Count of elements                        : 784
  216. Stream size                              : 23.2 KiB (0%)
  217. Title                                    : Português (Brasil)
  218. Language                                 : Portuguese
  219. Default                                  : No
  220. Forced                                   : No
  221. Text #14
  222. ID                                       : 16
  223. Format                                   : UTF-8
  224. Codec ID                                 : S_TEXT/UTF8
  225. Codec ID/Info                            : UTF-8 Plain Text
  226. Duration                                 : 1 h 54 min
  227. Bit rate                                 : 26 b/s
  228. Count of elements                        : 700
  229. Stream size                              : 22.0 KiB (0%)
  230. Title                                    : Svenska
  231. Language                                 : Swedish
  232. Default                                  : No
  233. Forced                                   : No
复制代码



                                       
                                       

                                       
                                       
                                       




回复

使用道具 举报

懒得打字嘛,点击右侧快捷回复 【右侧内容,后台自定义】
您需要登录后才可以回帖 登录 | 立即加入

本版积分规则

Archiver|小黑屋| 蓝光电影网 |网站地图

Copyright © 2021 Comsenz Inc. Powered by 蓝光电影网

蓝光电影网

本站内容由用户自主分享和转载自互联网,转载目的在于传递更多信息,并不代表本网赞同其观点和对其真实性负责。

如有侵权、违反国家法律政策行为,请联系我们,我们会第一时间及时清除和处理!

举报反馈邮箱:[email protected]

快速回复 返回顶部 返回列表