找回密码

蓝光电影网

查看: 200|回复: 0

[UHD.HEVC] 范妮·莱的解救 Fanny.Lye.Deliverd.2019.EXTENDED.2160p.BluRay.REMUX.HEVC.DTS-HD.MA.5.1-FGT 57.13GB

[复制链接]
蓝光币
1082
发表于 2021-4-3 20:11:29 | 显示全部楼层 |阅读模式


◎译  名 范妮·莱的解救/The Delivered/范妮·莱德
◎片  名 Fanny Lye Deliver'd
◎年  代 2019
◎产  地 英国,德国
◎类  别 剧情 / 惊悚 / 历史
◎语  言 英语
◎上映日期 2019-10-10(伦敦电影节) / 2020-06-26(英国)
◎IMDb评分  6.2/10 from 851 users
◎IMDb链接  https://www.imdb.com/title/tt5686112/
◎豆瓣评分 6.4/10 from 108 users
◎豆瓣链接 https://movie.douban.com/subject/26785812/
◎片  长 112分钟
◎导  演 托马斯·克雷 Thomas Clay
◎编  剧 托马斯·克雷 Thomas Clay
◎主  演 玛克辛·皮克 Maxine Peake
       查尔斯·丹斯 Charles Dance
       弗莱迪·福克斯 Freddie Fox
       塔尼娅·雷诺兹 Tanya Reynolds
       彼得·麦克唐纳德 Peter McDonald
       佩里·菲茨帕特里克 Perry Fitzpatrick
       肯尼斯·克拉德 Kenneth Collard
◎标  签 英国 | 2019 | 名著改编 | 2019伦敦电影节 | FreddieFox | 英國電影 | UK | 历史
◎简  介


  Shooting has wrapped on Fanny Lye Deliver’d, a period drama starring Maxine Peake (The Theory of Everything), Charles Dance (Game of Thrones) and Freddie Fox (The Riot Club). The cast also includes Tanya Reynolds in her first feature film role and Peter McDonald (The Stag).
  
  Shot over ten weeks on location in Shropshire, England, the film is written and directed by Thomas Clay and produced by Zorana Piggott (Couple In A Hole), Rob Cannan (The Lovers and the Despot) and Philippe Bober. The late Joseph Lang, Clay’s long-time producer, receives a posthumous producing credit.
  
  Set in 1657 on an isolated farm in Shropshire, the story follows Fanny Lye (Peake) as she learns to transcend her oppressive marriage and discovers a new world of possibility.
  
  Living a life of puritan stricture with husband John Lye (Dance) and young son Arthur, Fanny Lye’s world is shaken by the unexpected arrival of two strangers in need - a young couple (Fox, Reynolds) closely pursued by a ruthless sheriff (McDonald) and his deputy.
  
  “Fanny Lye Deliver’d is a unique and compelling historical drama, closer in spirit to a western, or a modern thriller, than a traditional English period piece”, said producer Piggott.
  
  “First and foremost it is a gripping story, a simple, exciting narrative brought to life with incredibly powerful and compelling performances and Thomas’ unique vision.”
  
  It marks Clay’s third feature film. His debut, The Great Ecstasy of Robert Carmichael, screened at Cannes’ Critics’ Week in 2005 while his follow-up, Soi Cowboy, shot on location in Thailand, premiered at Cannes in Un Certain Regard in 2008.
  
  A Pull Back Camera production in co-production with Essential Filmproduktion (Germany), Fanny Lye Deliver’d is funded by the BFI, Creative England and the West Midlands Production Fund with support from Filmstiftung NRW, Medienboard Berlin Brandenburg and ZDF.
  
  Coproduction Office is handling world sales.
◎获奖情况
  第49届鹿特丹国际电影节 ?(2020)
  大银幕奖(提名) 托马斯·克雷
  1. Video
  2. ID                                       : 1
  3. ID in the original source medium         : 4113 (0x1011)
  4. Format                                   : HEVC
  5. Format/Info                              : High Efficiency Video Coding
  6. Format profile                           : Main [email protected]@High
  7. HDR format                               : SMPTE ST 2086, HDR10 compatible
  8. Codec ID                                 : V_MPEGH/ISO/HEVC
  9. Duration                                 : 2 h 9 min
  10. Bit rate                                 : 58.7 Mb/s
  11. Width                                    : 3 840 pixels
  12. Height                                   : 2 160 pixels
  13. Display aspect ratio                     : 16:9
  14. Frame rate mode                          : Constant
  15. Frame rate                               : 23.976 (24000/1001/189150) FPS
  16. Color space                              : YUV
  17. Chroma subsampling                       : 4:2:0 (Type 2)
  18. Bit depth                                : 10 bits
  19. Bits/(Pixel*Frame)                       : 0.295
  20. Stream size                              : 53.1 GiB (93%)
  21. Language                                 : English
  22. Default                                  : No
  23. Forced                                   : No
  24. Color range                              : Limited
  25. Color primaries                          : BT.2020
  26. Transfer characteristics                 : PQ
  27. Matrix coefficients                      : BT.2020 non-constant
  28. Mastering display color primaries        : BT.2020
  29. Mastering display luminance              : min: 0.0001 cd/m2, max: 1000 cd/m2
  30. Original source medium                   : Blu-ray
  31. Audio #1
  32. ID                                       : 2
  33. ID in the original source medium         : 4352 (0x1100)
  34. Format                                   : DTS XLL
  35. Format/Info                              : Digital Theater Systems
  36. Commercial name                          : DTS-HD Master Audio
  37. Codec ID                                 : A_DTS
  38. Duration                                 : 2 h 9 min
  39. Bit rate mode                            : Variable
  40. Bit rate                                 : 3 455 kb/s
  41. Channel(s)                               : 6 channels
  42. Channel layout                           : C L R Ls Rs LFE
  43. Sampling rate                            : 48.0 kHz
  44. Frame rate                               : 93.750 FPS (512 SPF)
  45. Bit depth                                : 24 bits
  46. Compression mode                         : Lossless
  47. Stream size                              : 3.13 GiB (5%)
  48. Title                                    : DTS-HD MA 5.1
  49. Language                                 : English
  50. Default                                  : Yes
  51. Forced                                   : No
  52. Original source medium                   : Blu-ray
  53. Audio #2
  54. ID                                       : 3
  55. Format                                   : AC-3
  56. Format/Info                              : Audio Coding 3
  57. Commercial name                          : Dolby Digital
  58. Codec ID                                 : A_AC3
  59. Duration                                 : 2 h 9 min
  60. Bit rate mode                            : Constant
  61. Bit rate                                 : 640 kb/s
  62. Channel(s)                               : 6 channels
  63. Channel layout                           : L R C LFE Ls Rs
  64. Sampling rate                            : 48.0 kHz
  65. Frame rate                               : 31.250 FPS (1536 SPF)
  66. Compression mode                         : Lossy
  67. Stream size                              : 593 MiB (1%)
  68. Title                                    : DD 5.1
  69. Language                                 : English
  70. Service kind                             : Complete Main
  71. Default                                  : No
  72. Forced                                   : No
  73. Audio #3
  74. ID                                       : 4
  75. ID in the original source medium         : 4353 (0x1101)
  76. Format                                   : AC-3
  77. Format/Info                              : Audio Coding 3
  78. Commercial name                          : Dolby Digital
  79. Codec ID                                 : A_AC3
  80. Duration                                 : 2 h 9 min
  81. Bit rate mode                            : Constant
  82. Bit rate                                 : 384 kb/s
  83. Channel(s)                               : 6 channels
  84. Channel layout                           : L R C LFE Ls Rs
  85. Sampling rate                            : 48.0 kHz
  86. Frame rate                               : 31.250 FPS (1536 SPF)
  87. Compression mode                         : Lossy
  88. Stream size                              : 356 MiB (1%)
  89. Title                                    : DD 5.1
  90. Language                                 : English
  91. Service kind                             : Complete Main
  92. Default                                  : No
  93. Forced                                   : No
  94. Original source medium                   : Blu-ray
  95. Text #1
  96. ID                                       : 5
  97. Format                                   : UTF-8
  98. Codec ID                                 : S_TEXT/UTF8
  99. Codec ID/Info                            : UTF-8 Plain Text
  100. Duration                                 : 2 h 1 min
  101. Bit rate                                 : 39 b/s
  102. Count of elements                        : 1143
  103. Stream size                              : 35.1 KiB (0%)
  104. Title                                    : English-SRT
  105. Language                                 : English
  106. Default                                  : Yes
  107. Forced                                   : No
  108. Text #2
  109. ID                                       : 6
  110. ID in the original source medium         : 4768 (0x12A0)
  111. Format                                   : PGS
  112. Muxing mode                              : zlib
  113. Codec ID                                 : S_HDMV/PGS
  114. Codec ID/Info                            : Picture based subtitle format used on BDs/HD-DVDs
  115. Duration                                 : 2 h 4 min
  116. Bit rate                                 : 26.5 kb/s
  117. Count of elements                        : 2472
  118. Stream size                              : 23.5 MiB (0%)
  119. Title                                    : English-PGS
  120. Language                                 : English
  121. Default                                  : No
  122. Forced                                   : No
  123. Original source medium                   : Blu-ray
  124. Menu
  125. 00:00:00.000                             : en:Chapter 01
  126. 00:03:27.165                             : en:Chapter 02
  127. 00:09:14.804                             : en:Chapter 03
  128. 00:14:29.451                             : en:Chapter 04
  129. 00:20:14.379                             : en:Chapter 05
  130. 00:27:22.223                             : en:Chapter 06
  131. 00:34:35.823                             : en:Chapter 07
  132. 00:41:04.545                             : en:Chapter 08
  133. 00:46:07.639                             : en:Chapter 09
  134. 00:54:51.121                             : en:Chapter 10
  135. 01:07:40.681                             : en:Chapter 11
  136. 01:17:17.799                             : en:Chapter 12
  137. 01:23:08.274                             : en:Chapter 13
  138. 01:31:22.268                             : en:Chapter 14
  139. 01:35:18.379                             : en:Chapter 15
  140. 01:40:01.495                             : en:Chapter 16
  141. 01:45:29.072                             : en:Chapter 17
  142. 01:53:53.034                             : en:Chapter 18
  143. 01:58:26.432                             : en:Chapter 19
  144. 02:04:49.565                             : en:Chapter 20
复制代码



                                       
                                       

                                       
                                       
                                       




回复

使用道具 举报

懒得打字嘛,点击右侧快捷回复 【右侧内容,后台自定义】
您需要登录后才可以回帖 登录 | 立即加入

本版积分规则

Archiver|小黑屋| 蓝光电影网 |网站地图

Copyright © 2021 Comsenz Inc. Powered by 蓝光电影网

蓝光电影网

本站内容由用户自主分享和转载自互联网,转载目的在于传递更多信息,并不代表本网赞同其观点和对其真实性负责。

如有侵权、违反国家法律政策行为,请联系我们,我们会第一时间及时清除和处理!

举报反馈邮箱:[email protected]

快速回复 返回顶部 返回列表