找回密码

蓝光电影网

查看: 252|回复: 0

[UHD.HEVC] 核子航母遇险记/碧血长天 The.Final.Countdown.1980.2160p.BluRay.REMUX.HEVC.DTS-HD.MA.TrueHD.7.1.Atmos-FGT 63.94GB

[复制链接]
蓝光币
1084
发表于 2021-5-16 22:22:40 | 显示全部楼层 |阅读模式
[img][/img]

◎译  名 核子航母遇险记/碧血长天
◎片  名 The Final Countdown
◎年  代 1980
◎产  地 美国
◎类  别 剧情 / 科幻 / 战争 / 冒险
◎语  言 英语,日语,俄语
◎上映日期 1980-07-09
◎豆瓣评分 6.3/10 from 1227 users
◎豆瓣链接 https://movie.douban.com/subject/1295917/
◎片  长 103 分钟
◎导  演 唐·泰勒 Don Taylor
◎主  演 柯克·道格拉斯 Kirk Douglas
       马丁·辛 Martin Sheen
       凯瑟琳·罗斯 Katharine Ross
       Victor Mohica
       朗·奥尼尔 Ron O'Neal
       詹姆斯·法伦蒂洛 James Farentino
       吴顺泰 Soon-Tek Oh
◎标  签 科幻 | 战争 | 美国 | 穿越 | 二战 | 美国电影 | 1980 | 时候地道
◎简  介


  美国尼米兹号航空母舰在例行维修时,遭受希奇的风暴,忽然与美国承平洋舰队落空联系。在遭受日本“0”式侦察机和发现珍珠港泊满了二战前的战舰后,舰上官兵们才意想到,自己地点的航空母舰穿过期光地道,回到了二次天下大战前夜的珍珠港,舰上官兵进一步发现正要对珍珠港策动进犯、启发战真个日本航空母舰舰群,要末凭仗自己先辈的战役机和导弹对日本舰队争先策动打击,进而避免珍珠港惨遭浩劫,同时改变历史;要末阔别珍珠港让历史天真烂漫地成长。更令众人懊恼的是,他们救起的参议员在日本对珍珠港策动攻击前瞬间消失了。攻击迫在眉睫,他们不能不做出决定……
  1. Video
  2. ID                                       : 1
  3. ID in the original source medium         : 4113 (0x1011)
  4. Format                                   : HEVC
  5. Format/Info                              : High Efficiency Video Coding
  6. Format profile                           : Main [email protected]@High
  7. HDR format                               : SMPTE ST 2086, HDR10 compatible
  8. Codec ID                                 : V_MPEGH/ISO/HEVC
  9. Duration                                 : 1 h 42 min
  10. Bit rate                                 : 76.5 Mb/s
  11. Width                                    : 3 840 pixels
  12. Height                                   : 2 160 pixels
  13. Display aspect ratio                     : 16:9
  14. Frame rate mode                          : Constant
  15. Frame rate                               : 23.976 (24000/1001/189150) FPS
  16. Color space                              : YUV
  17. Chroma subsampling                       : 4:2:0 (Type 2)
  18. Bit depth                                : 10 bits
  19. Bits/(Pixel*Frame)                       : 0.385
  20. Stream size                              : 54.8 GiB (86%)
  21. Language                                 : English
  22. Default                                  : No
  23. Forced                                   : No
  24. Color range                              : Limited
  25. Color primaries                          : BT.2020
  26. Transfer characteristics                 : PQ
  27. Matrix coefficients                      : BT.2020 non-constant
  28. Mastering display color primaries        : BT.2020
  29. Mastering display luminance              : min: 0.0001 cd/m2, max: 1000 cd/m2
  30. Maximum Content Light Level              : 1000 cd/m2
  31. Maximum Frame-Average Light Level        : 536 cd/m2
  32. Original source medium                   : Blu-ray
  33. Audio #1
  34. ID                                       : 2
  35. ID in the original source medium         : 4352 (0x1100)
  36. Format                                   : MLP FBA 16-ch
  37. Format/Info                              : Meridian Lossless Packing FBA with 16-channel presentation
  38. Commercial name                          : Dolby TrueHD with Dolby Atmos
  39. Codec ID                                 : A_TRUEHD
  40. Duration                                 : 1 h 42 min
  41. Bit rate mode                            : Variable
  42. Bit rate                                 : 4 288 kb/s
  43. Maximum bit rate                         : 6 795 kb/s
  44. Channel(s)                               : 8 channels
  45. Channel layout                           : L R C LFE Ls Rs Lb Rb
  46. Sampling rate                            : 48.0 kHz
  47. Frame rate                               : 1 200.000 FPS (40 SPF)
  48. Bit depth                                : 24 bits
  49. Compression mode                         : Lossless
  50. Stream size                              : 3.07 GiB (5%)
  51. Title                                    : TrueHD 7.1 Atmos
  52. Language                                 : English
  53. Default                                  : Yes
  54. Forced                                   : No
  55. Original source medium                   : Blu-ray
  56. Number of dynamic objects                : 11
  57. Bed channel count                        : 1 channel
  58. Bed channel configuration                : LFE
  59. Audio #2
  60. ID                                       : 3
  61. Format                                   : DTS XLL
  62. Format/Info                              : Digital Theater Systems
  63. Commercial name                          : DTS-HD Master Audio
  64. Codec ID                                 : A_DTS
  65. Duration                                 : 1 h 42 min
  66. Bit rate mode                            : Variable
  67. Bit rate                                 : 4 174 kb/s
  68. Channel(s)                               : 8 channels
  69. Channel layout                           : C L R LFE Lb Rb Lss Rss
  70. Sampling rate                            : 48.0 kHz
  71. Frame rate                               : 93.750 FPS (512 SPF)
  72. Bit depth                                : 24 bits
  73. Compression mode                         : Lossless
  74. Stream size                              : 2.99 GiB (5%)
  75. Title                                    : DTS-HD MA 7.1
  76. Language                                 : English
  77. Default                                  : No
  78. Forced                                   : No
  79. Audio #3
  80. ID                                       : 4
  81. ID in the original source medium         : 4352 (0x1100)
  82. Format                                   : AC-3
  83. Format/Info                              : Audio Coding 3
  84. Commercial name                          : Dolby Digital
  85. Format settings                          : Dolby Surround EX
  86. Codec ID                                 : A_AC3
  87. Duration                                 : 1 h 42 min
  88. Bit rate mode                            : Constant
  89. Bit rate                                 : 640 kb/s
  90. Channel(s)                               : 6 channels
  91. Channel layout                           : L R C LFE Ls Rs
  92. Sampling rate                            : 48.0 kHz
  93. Frame rate                               : 31.250 FPS (1536 SPF)
  94. Compression mode                         : Lossy
  95. Stream size                              : 470 MiB (1%)
  96. Title                                    : DD 5.1
  97. Language                                 : English
  98. Service kind                             : Complete Main
  99. Default                                  : No
  100. Forced                                   : No
  101. Original source medium                   : Blu-ray
  102. Audio #4
  103. ID                                       : 5
  104. ID in the original source medium         : 4354 (0x1102)
  105. Format                                   : DTS XLL
  106. Format/Info                              : Digital Theater Systems
  107. Commercial name                          : DTS-HD Master Audio
  108. Codec ID                                 : A_DTS
  109. Duration                                 : 1 h 42 min
  110. Bit rate mode                            : Variable
  111. Bit rate                                 : 1 716 kb/s
  112. Channel(s)                               : 2 channels
  113. Channel layout                           : L R
  114. Sampling rate                            : 48.0 kHz
  115. Frame rate                               : 93.750 FPS (512 SPF)
  116. Bit depth                                : 16 bits
  117. Compression mode                         : Lossless
  118. Stream size                              : 1.23 GiB (2%)
  119. Title                                    : DTS-HD MA 2.0
  120. Language                                 : English
  121. Default                                  : No
  122. Forced                                   : No
  123. Original source medium                   : Blu-ray
  124. Audio #5
  125. ID                                       : 6
  126. ID in the original source medium         : 4355 (0x1103)
  127. Format                                   : DTS XLL
  128. Format/Info                              : Digital Theater Systems
  129. Commercial name                          : DTS-HD Master Audio
  130. Codec ID                                 : A_DTS
  131. Duration                                 : 1 h 42 min
  132. Bit rate mode                            : Variable
  133. Bit rate                                 : 1 571 kb/s
  134. Channel(s)                               : 2 channels
  135. Channel layout                           : L R
  136. Sampling rate                            : 48.0 kHz
  137. Frame rate                               : 93.750 FPS (512 SPF)
  138. Bit depth                                : 16 bits
  139. Compression mode                         : Lossless
  140. Stream size                              : 1.13 GiB (2%)
  141. Title                                    : DTS-HD MA 2.0
  142. Language                                 : French
  143. Default                                  : No
  144. Forced                                   : No
  145. Original source medium                   : Blu-ray
  146. Audio #6
  147. ID                                       : 7
  148. ID in the original source medium         : 4356 (0x1104)
  149. Format                                   : AC-3
  150. Format/Info                              : Audio Coding 3
  151. Commercial name                          : Dolby Digital
  152. Codec ID                                 : A_AC3
  153. Duration                                 : 1 h 42 min
  154. Bit rate mode                            : Constant
  155. Bit rate                                 : 192 kb/s
  156. Channel(s)                               : 2 channels
  157. Channel layout                           : L R
  158. Sampling rate                            : 48.0 kHz
  159. Frame rate                               : 31.250 FPS (1536 SPF)
  160. Compression mode                         : Lossy
  161. Stream size                              : 141 MiB (0%)
  162. Title                                    : DD 2.0
  163. Language                                 : English
  164. Service kind                             : Complete Main
  165. Default                                  : No
  166. Forced                                   : No
  167. Original source medium                   : Blu-ray
  168. Text #1
  169. ID                                       : 8
  170. Format                                   : UTF-8
  171. Codec ID                                 : S_TEXT/UTF8
  172. Codec ID/Info                            : UTF-8 Plain Text
  173. Duration                                 : 1 h 38 min
  174. Bit rate                                 : 55 b/s
  175. Count of elements                        : 1019
  176. Stream size                              : 40.1 KiB (0%)
  177. Title                                    : English-SRT
  178. Language                                 : English
  179. Default                                  : Yes
  180. Forced                                   : No
  181. Text #2
  182. ID                                       : 9
  183. ID in the original source medium         : 4768 (0x12A0)
  184. Format                                   : PGS
  185. Muxing mode                              : zlib
  186. Codec ID                                 : S_HDMV/PGS
  187. Codec ID/Info                            : Picture based subtitle format used on BDs/HD-DVDs
  188. Duration                                 : 1 h 39 min
  189. Bit rate                                 : 39.4 kb/s
  190. Count of elements                        : 2178
  191. Stream size                              : 28.0 MiB (0%)
  192. Title                                    : English-PGS
  193. Language                                 : English
  194. Default                                  : No
  195. Forced                                   : No
  196. Original source medium                   : Blu-ray
  197. Text #3
  198. ID                                       : 10
  199. ID in the original source medium         : 4769 (0x12A1)
  200. Format                                   : PGS
  201. Muxing mode                              : zlib
  202. Codec ID                                 : S_HDMV/PGS
  203. Codec ID/Info                            : Picture based subtitle format used on BDs/HD-DVDs
  204. Duration                                 : 1 h 38 min
  205. Bit rate                                 : 37.6 kb/s
  206. Count of elements                        : 1954
  207. Stream size                              : 26.6 MiB (0%)
  208. Title                                    : French-PGS
  209. Language                                 : French
  210. Default                                  : No
  211. Forced                                   : No
  212. Original source medium                   : Blu-ray
  213. Text #4
  214. ID                                       : 11
  215. ID in the original source medium         : 4770 (0x12A2)
  216. Format                                   : PGS
  217. Muxing mode                              : zlib
  218. Codec ID                                 : S_HDMV/PGS
  219. Codec ID/Info                            : Picture based subtitle format used on BDs/HD-DVDs
  220. Duration                                 : 1 h 38 min
  221. Bit rate                                 : 32.4 kb/s
  222. Count of elements                        : 1952
  223. Stream size                              : 22.9 MiB (0%)
  224. Title                                    : Spanish-PGS
  225. Language                                 : Spanish
  226. Default                                  : No
  227. Forced                                   : No
  228. Original source medium                   : Blu-ray
  229. Menu
  230. 00:00:00.000                             : Chapter 01
  231. 00:06:57.125                             : Chapter 02
  232. 00:10:52.109                             : Chapter 03
  233. 00:15:12.119                             : Chapter 04
  234. 00:19:50.814                             : Chapter 05
  235. 00:23:25.737                             : Chapter 06
  236. 00:30:14.604                             : Chapter 07
  237. 00:36:14.088                             : Chapter 08
  238. 00:42:36.303                             : Chapter 09
  239. 00:47:14.790                             : Chapter 10
  240. 00:51:47.771                             : Chapter 11
  241. 00:56:46.903                             : Chapter 12
  242. 01:04:07.426                             : Chapter 13
  243. 01:12:58.707                             : Chapter 14
  244. 01:17:36.985                             : Chapter 15
  245. 01:22:06.087                             : Chapter 16
  246. 01:24:40.784                             : Chapter 17
  247. 01:27:42.882                             : Chapter 18
  248. 01:34:05.681                             : Chapter 19
  249. 01:39:51.610                             : Chapter 20
复制代码




                                       
                                       

                                       
                                       
                                       




回复

使用道具 举报

懒得打字嘛,点击右侧快捷回复 【右侧内容,后台自定义】
您需要登录后才可以回帖 登录 | 立即加入

本版积分规则

Archiver|小黑屋| 蓝光电影网 |网站地图

Copyright © 2021 Comsenz Inc. Powered by 蓝光电影网

蓝光电影网

本站内容由用户自主分享和转载自互联网,转载目的在于传递更多信息,并不代表本网赞同其观点和对其真实性负责。

如有侵权、违反国家法律政策行为,请联系我们,我们会第一时间及时清除和处理!

举报反馈邮箱:[email protected]

快速回复 返回顶部 返回列表