找回密码

蓝光电影网

查看: 73|回复: 0

[2160p] 收税人 The.Tax.Collector.2020.2160p.BluRay.x265.10bit.SDR.DTS-HD.MA.5.1-SWTYBLZ 16.86GB

[复制链接]
蓝光币
1082
发表于 2020-10-8 10:19:58 | 显示全部楼层 |阅读模式


◎译  名 收税人/Tax Collector/收账人
◎片  名 The Tax Collector
◎年  代 2020
◎产  地 美国
◎类  别 剧情 / 惊悚 / 犯罪
◎语  言 英语
◎上映日期 2020-08-07(美国)
◎IMDb评分  4.7/10 from 5919 users
◎IMDb链接  https://www.imdb.com/title/tt8461224/
◎豆瓣评分 4.7/10 from 259 users
◎豆瓣链接 https://movie.douban.com/subject/30254296/
◎片  长 95分钟
◎导  演 大卫·阿耶 David Ayer
◎编  剧 大卫·阿耶 David Ayer
◎主  演 希亚·拉博夫 Shia LaBeouf
       拉娜·帕瑞娅 Lana Parrilla
       辛西娅·卡蒙娜 Cinthya Carmona
       艾尔皮迪娅·卡里洛 Elpidia Carrillo
       乔治·洛佩兹 George Lopez
       切尔茜·兰顿 Chelsea Rendon
       诺埃米·冈萨雷斯 Noemi Gonzalez
       布兰登·舒博 Brendan Schaub
       雷内?莫兰 Rene Moran
       胡安·卡洛斯·坎图 Juan Carlos Cantu
       鲍比·索托 Bobby Soto
       兰迪·冈萨雷斯 Randy Gonzalez
       奎因·厄利 Quinn Early
◎标  签 犯罪 | 黑帮 | 美国 | 2020 | 行动 | 剧情 | 电影 | 惊悚
◎简  介


  Shia LaBeouf将与David Ayer再度合作《收税人》。
  
  电影报告男配角大卫·奎瓦斯(David Cuevas),他是一个垂青家庭的汉子,但工作却是为洛城黑帮高层收税的收账人。他与同伴Creeper穿越于城市之间收账,用各类方式逼人们掏钱,而欠账的则会遭到残暴的报复。但是,一位昔日仇敌的归来让奎瓦斯所爱的一切都堕入危险当中。
  1. Video
  2. ID                                       : 1
  3. Format                                   : HEVC
  4. Format/Info                              : High Efficiency Video Coding
  5. Format profile                           : Main [email protected]@High
  6. Codec ID                                 : V_MPEGH/ISO/HEVC
  7. Duration                                 : 1 h 35 min
  8. Bit rate                                 : 21.1 Mb/s
  9. Width                                    : 3 840 pixels
  10. Height                                   : 2 076 pixels
  11. Display aspect ratio                     : 1.85:1
  12. Frame rate mode                          : Constant
  13. Frame rate                               : 24.000 FPS
  14. Color space                              : YUV
  15. Chroma subsampling                       : 4:2:0
  16. Bit depth                                : 10 bits
  17. Bits/(Pixel*Frame)                       : 0.110
  18. Stream size                              : 14.1 GiB (84%)
  19. Title                                    : The.Tax.Collector.2020.2160p.BluRay.x265.10bit.SDR.DTS-HD.MA.5.1-SWTYBLZ
  20. Writing library                          : x265 3.0ed72af837053:[Windows][GCC 8.2.0][64 bit] 10bit
  21. Encoding settings                        : cpuid=1111039 / frame-threads=6 / numa-pools=40 / wpp / no-pmode / no-pme / no-psnr / no-ssim / log-level=2 / input-csp=1 / input-res=3840x2076 / interlace=0 / total-frames=137150 / level-idc=51 / high-tier=1 / uhd-bd=0 / ref=3 / no-allow-non-conformance / repeat-headers / annexb / aud / hrd / info / hash=0 / no-temporal-layers / no-open-gop / min-keyint=1 / keyint=24 / gop-lookahead=0 / bframes=4 / b-adapt=2 / b-pyramid / bframe-bias=0 / rc-lookahead=25 / lookahead-slices=4 / scenecut=40 / radl=0 / no-splice / no-intra-refresh / ctu=64 / min-cu-size=8 / no-rect / no-amp / max-tu-size=32 / tu-inter-depth=1 / tu-intra-depth=1 / limit-tu=0 / rdoq-level=0 / dynamic-rd=0.00 / no-ssim-rd / signhide / no-tskip / nr-intra=0 / nr-inter=0 / no-constrained-intra / strong-intra-smoothing / max-merge=2 / limit-refs=3 / no-limit-modes / me=1 / subme=2 / merange=57 / temporal-mvp / weightp / no-weightb / no-analyze-src-pics / deblock=0:0 / no-sao / no-sao-non-deblock / rd=3 / no-early-skip / rskip / no-fast-intra / no-tskip-fast / no-cu-lossless / no-b-intra / no-splitrd-skip / rdpenalty=0 / psy-rd=2.00 / psy-rdoq=0.00 / no-rd-refine / no-lossless / cbqpoffs=0 / crqpoffs=0 / rc=crf / crf=16.0 / qcomp=0.60 / qpstep=4 / stats-write=0 / stats-read=0 / vbv-maxrate=160000 / vbv-bufsize=160000 / vbv-init=0.9 / crf-max=0.0 / crf-min=0.0 / ipratio=1.40 / pbratio=1.30 / aq-mode=1 / aq-strength=1.00 / cutree / zone-count=0 / no-strict-cbr / qg-size=32 / no-rc-grain / qpmax=69 / qpmin=0 / no-const-vbv / sar=1 / overscan=0 / videoformat=5 / range=0 / colorprim=2 / transfer=2 / colormatrix=2 / chromaloc=0 / display-window=0 / max-cll=0,0 / min-luma=0 / max-luma=1023 / log2-max-poc-lsb=8 / vui-timing-info / vui-hrd-info / slices=1 / opt-qp-pps / opt-ref-list-length-pps / no-multi-pass-opt-rps / scenecut-bias=0.05 / no-opt-cu-delta-qp / no-aq-motion / no-hdr / no-hdr-opt / no-dhdr10-opt / no-idr-recovery-sei / analysis-reuse-level=5 / scale-factor=0 / refine-intra=0 / refine-inter=0 / refine-mv=0 / refine-ctu-distortion=0 / no-limit-sao / ctu-info=0 / no-lowpass-dct / refine-analysis-type=0 / copy-pic=1 / max-ausize-factor=1.0 / no-dynamic-refine / no-single-sei / no-hevc-aq / qp-adaptation-range=1.00
  22. Language                                 : English
  23. Default                                  : Yes
  24. Forced                                   : No
  25. Audio #1
  26. ID                                       : 2
  27. ID in the original source medium         : 4352 (0x1100)
  28. Format                                   : DTS XLL
  29. Format/Info                              : Digital Theater Systems
  30. Commercial name                          : DTS-HD Master Audio
  31. Codec ID                                 : A_DTS
  32. Duration                                 : 1 h 35 min
  33. Bit rate mode                            : Variable
  34. Bit rate                                 : 3 427 kb/s
  35. Channel(s)                               : 6 channels
  36. Channel layout                           : C L R Ls Rs LFE
  37. Sampling rate                            : 48.0 kHz
  38. Frame rate                               : 93.750 FPS (512 SPF)
  39. Bit depth                                : 24 bits
  40. Compression mode                         : Lossless
  41. Stream size                              : 2.28 GiB (14%)
  42. Title                                    : The.Tax.Collector.2020.2160p.BluRay.x265.10bit.SDR.DTS-HD.MA.5.1-SWTYBLZ
  43. Language                                 : English
  44. Default                                  : Yes
  45. Forced                                   : No
  46. Original source medium                   : Blu-ray
  47. Audio #2
  48. ID                                       : 3
  49. Format                                   : AC-3
  50. Format/Info                              : Audio Coding 3
  51. Commercial name                          : Dolby Digital
  52. Codec ID                                 : A_AC3
  53. Duration                                 : 1 h 35 min
  54. Bit rate mode                            : Constant
  55. Bit rate                                 : 640 kb/s
  56. Channel(s)                               : 6 channels
  57. Channel layout                           : L R C LFE Ls Rs
  58. Sampling rate                            : 48.0 kHz
  59. Frame rate                               : 31.250 FPS (1536 SPF)
  60. Compression mode                         : Lossy
  61. Stream size                              : 436 MiB (3%)
  62. Title                                    : The.Tax.Collector.2020.2160p.BluRay.x265.10bit.SDR.DTS-HD.MA.5.1-SWTYBLZ
  63. Language                                 : English
  64. Service kind                             : Complete Main
  65. Default                                  : No
  66. Forced                                   : No
  67. Text #1
  68. ID                                       : 4
  69. Format                                   : UTF-8
  70. Codec ID                                 : S_TEXT/UTF8
  71. Codec ID/Info                            : UTF-8 Plain Text
  72. Duration                                 : 1 h 14 min
  73. Bit rate                                 : 4 b/s
  74. Count of elements                        : 81
  75. Stream size                              : 2.21 KiB (0%)
  76. Title                                    : English-FORCED-SRT
  77. Language                                 : English
  78. Default                                  : Yes
  79. Forced                                   : Yes
  80. Text #2
  81. ID                                       : 5
  82. Format                                   : UTF-8
  83. Codec ID                                 : S_TEXT/UTF8
  84. Codec ID/Info                            : UTF-8 Plain Text
  85. Duration                                 : 1 h 28 min
  86. Bit rate                                 : 60 b/s
  87. Count of elements                        : 1278
  88. Stream size                              : 39.1 KiB (0%)
  89. Title                                    : English-SRT
  90. Language                                 : English
  91. Default                                  : No
  92. Forced                                   : No
  93. Text #3
  94. ID                                       : 6
  95. ID in the original source medium         : 4608 (0x1200)
  96. Format                                   : PGS
  97. Muxing mode                              : zlib
  98. Codec ID                                 : S_HDMV/PGS
  99. Codec ID/Info                            : Picture based subtitle format used on BDs/HD-DVDs
  100. Duration                                 : 1 h 14 min
  101. Bit rate                                 : 1 745 b/s
  102. Count of elements                        : 162
  103. Stream size                              : 951 KiB (0%)
  104. Title                                    : English-FORCED-PGS
  105. Language                                 : English
  106. Default                                  : No
  107. Forced                                   : No
  108. Original source medium                   : Blu-ray
  109. Text #4
  110. ID                                       : 7
  111. ID in the original source medium         : 4609 (0x1201)
  112. Format                                   : PGS
  113. Muxing mode                              : zlib
  114. Codec ID                                 : S_HDMV/PGS
  115. Codec ID/Info                            : Picture based subtitle format used on BDs/HD-DVDs
  116. Duration                                 : 1 h 28 min
  117. Bit rate                                 : 26.7 kb/s
  118. Count of elements                        : 2692
  119. Stream size                              : 16.9 MiB (0%)
  120. Title                                    : English-PGS
  121. Language                                 : English
  122. Default                                  : No
  123. Forced                                   : No
  124. Original source medium                   : Blu-ray
  125. Text #5
  126. ID                                       : 8
  127. ID in the original source medium         : 4610 (0x1202)
  128. Format                                   : PGS
  129. Muxing mode                              : zlib
  130. Codec ID                                 : S_HDMV/PGS
  131. Codec ID/Info                            : Picture based subtitle format used on BDs/HD-DVDs
  132. Duration                                 : 1 h 28 min
  133. Bit rate                                 : 20.8 kb/s
  134. Count of elements                        : 2264
  135. Stream size                              : 13.1 MiB (0%)
  136. Title                                    : Spanish-PGS
  137. Language                                 : Spanish
  138. Default                                  : No
  139. Forced                                   : No
  140. Original source medium                   : Blu-ray
  141. Menu
  142. 00:00:00.000                             : en:Chapter 01
  143. 00:12:39.625                             : en:Chapter 02
  144. 00:25:28.041                             : en:Chapter 03
  145. 00:36:20.541                             : en:Chapter 04
  146. 00:48:56.083                             : en:Chapter 05
  147. 01:00:03.041                             : en:Chapter 06
  148. 01:15:27.833                             : en:Chapter 07
  149. 01:30:18.750                             : en:Chapter 08
复制代码









                                       
                                       

                                       
                                       
                                       




回复

使用道具 举报

懒得打字嘛,点击右侧快捷回复 【右侧内容,后台自定义】
您需要登录后才可以回帖 登录 | 立即加入

本版积分规则

Archiver|小黑屋| 蓝光电影网 |网站地图

Copyright © 2021 Comsenz Inc. Powered by 蓝光电影网

蓝光电影网

本站内容由用户自主分享和转载自互联网,转载目的在于传递更多信息,并不代表本网赞同其观点和对其真实性负责。

如有侵权、违反国家法律政策行为,请联系我们,我们会第一时间及时清除和处理!

举报反馈邮箱:[email protected]

快速回复 返回顶部 返回列表