找回密码

蓝光电影网

查看: 350|回复: 1

[2160p] 梦之安魂曲/噩梦挽歌 Requiem.for.a.Dream.2000.2160p.BluRay.x264.8bit.SDR.DTS-HD.MA.TrueHD.7.1.Atmos-SWTYBLZ 59.03GB

[复制链接]
蓝光币
1082
发表于 2020-11-10 20:05:01 | 显示全部楼层 |阅读模式


◎译  名 梦之安魂曲/噩梦挽歌(台)/梦的挽歌/迷上瘾(港)
◎片  名 Requiem for a Dream
◎年  代 2000
◎产  地 美国
◎类  别 剧情
◎语  言 英语
◎上映日期 2000-05-14(戛纳电影节) / 2000-12-15(美国)
◎IMDb评分  8.3/10 from 755688 users
◎IMDb链接  https://www.imdb.com/title/tt0180093/
◎豆瓣评分 8.7/10 from 167506 users
◎豆瓣链接 https://movie.douban.com/subject/1292270/
◎片  长 102分钟
◎导  演 达伦·阿伦诺夫斯基 Darren Aronofsky
◎编  剧 小胡伯特·塞尔比 Hubert Selby Jr. / 达伦·阿伦诺夫斯基 Darren Aronofsky
◎主  演 艾伦·伯斯汀 Ellen Burstyn
       杰瑞德·莱托 Jared Leto
       詹妮弗·康纳利 Jennifer Connelly
       马龙·韦恩斯 Marlon Wayans
       克里斯托弗·麦克唐纳 Christopher McDonald
       露易丝·拉塞尔 Louise Lasser
       玛西娅·让·库尔茨 Marcia Jean Kurtz
       珍妮特·萨诺 Janet Sarno
       苏珊妮·谢泼德 Suzanne Shepherd
       夏洛特·阿罗诺夫斯基 Charlotte Aronofsky
       马克·马戈利斯 Mark Margolis
       迈克尔·卡切克 Michael Kaycheck
       杰克·奥康耐 Jack O'Connell
       斯科特·富兰克林 Scott Franklin
       亚伯拉罕·阿罗诺夫斯基 Abraham Aronofsky
       欧嘉·梅雷迪斯 Olga Merediz
       本·申克曼 Ben Shenkman
       凯斯·大卫 Keith David
       迪伦·贝克 Dylan Baker
       肖恩·奥哈根 Shaun O'Hagan
       比尔·布尔 Bill Buell
       吉米·雷·威克斯 Jimmie Ray Weeks
       斯坦利·B·赫尔曼 Stanley B. Herman
       达伦·阿伦诺夫斯基 Darren Aronofsky
       肖恩·格莱特 Sean Gullette
◎标  签 黑色 | 毒品 | 美国 | 剧情 | 人性 | 美国电影 | Cult | 2000
◎简  介


  哈瑞(杰瑞德·莱托 Jared Leto 饰)和玛丽安(詹妮弗·康纳利 Jennifer Connelly 饰)相互相爱,胡想着开个打扮店,胡想着有个美好的明天。但是他们都离不开毒品,并想着以销毒赚得第一桶金。哈瑞的母亲是个完全的电视迷,最大的胡想是上电视,为此掉臂年老吞食减肥药。由于药品里的毒品成份,她渐渐上了瘾。哈瑞的朋友狄龙(马龙·韦恩斯 Marlon Wayans 饰)一样是个瘾君子,为了挣大钱加入了黑社会。为了胡想,他们尽力着,却一步步深陷毒品难以自拔。 哈瑞的胳膊因注射毒品传染而被割去;玛丽安为了毒品出售精神和自负;哈瑞的母亲终极住进了精神医院受尽熬煎;狄龙锒铛入狱。当视野变得模糊,梦在悠远处呼唤,丢失的人该以怎样的姿势抚慰自己的灵魂。
◎获奖情况
  第73届奥斯卡金像奖 ?(2001)
  最好女配角(提名) 艾伦·伯斯汀
  
  第58届金球奖 ?(2001)
  电影类剧情片最好女配角(提名) 艾伦·伯斯汀
  
  第1届美国电影学会奖 ?(2000)
  年度佳片
  1. Video
  2. ID                                       : 1
  3. Format                                   : AVC
  4. Format/Info                              : Advanced Video Codec
  5. Format profile                           : [email protected]
  6. Format settings                          : CABAC / 5 Ref Frames
  7. Format settings, CABAC                   : Yes
  8. Format settings, Reference frames        : 5 frames
  9. Codec ID                                 : V_MPEG4/ISO/AVC
  10. Duration                                 : 1 h 41 min
  11. Bit rate                                 : 74.1 Mb/s
  12. Width                                    : 3 840 pixels
  13. Height                                   : 2 076 pixels
  14. Display aspect ratio                     : 1.85:1
  15. Frame rate mode                          : Constant
  16. Frame rate                               : 23.976 (24000/1001/189150) FPS
  17. Color space                              : YUV
  18. Chroma subsampling                       : 4:2:0
  19. Bit depth                                : 8 bits
  20. Scan type                                : Progressive
  21. Bits/(Pixel*Frame)                       : 0.388
  22. Stream size                              : 52.6 GiB (90%)
  23. Title                                    : Requiem.for.a.Dream.2000.2160p.BluRay.x264.8bit.SDR.DTS-HD.MA.TrueHD.7.1.Atmos-SWTYBLZ
  24. Writing library                          : x264 core 157 r2935 545de2f
  25. Encoding settings                        : cabac=1 / ref=5 / deblock=1:-1:-1 / analyse=0x3:0x113 / me=umh / subme=10 / psy=1 / psy_rd=1.00:0.15 / mixed_ref=1 / me_range=48 / chroma_me=1 / trellis=2 / 8x8dct=1 / cqm=0 / deadzone=21,11 / fast_pskip=1 / chroma_qp_offset=-3 / threads=48 / lookahead_threads=4 / sliced_threads=0 / nr=0 / decimate=0 / interlaced=0 / bluray_compat=0 / constrained_intra=0 / bframes=3 / b_pyramid=2 / b_adapt=2 / b_bias=0 / direct=3 / weightb=1 / open_gop=0 / weightp=2 / keyint=250 / keyint_min=23 / scenecut=40 / intra_refresh=0 / rc_lookahead=50 / rc=crf / mbtree=1 / crf=18.0 / qcomp=0.60 / qpmin=0 / qpmax=69 / qpstep=4 / ip_ratio=1.40 / aq=1:1.00
  26. Default                                  : Yes
  27. Forced                                   : No
  28. Audio #1
  29. ID                                       : 2
  30. Format                                   : MLP FBA 16-ch
  31. Format/Info                              : Meridian Lossless Packing FBA with 16-channel presentation
  32. Commercial name                          : Dolby TrueHD with Dolby Atmos
  33. Codec ID                                 : A_TRUEHD
  34. Duration                                 : 1 h 41 min
  35. Bit rate mode                            : Variable
  36. Bit rate                                 : 3 831 kb/s
  37. Maximum bit rate                         : 6 300 kb/s
  38. Channel(s)                               : 8 channels
  39. Channel layout                           : L R C LFE Ls Rs Lb Rb
  40. Sampling rate                            : 48.0 kHz
  41. Frame rate                               : 1 200.000 FPS (40 SPF)
  42. Compression mode                         : Lossless
  43. Stream size                              : 2.72 GiB (5%)
  44. Title                                    : Requiem.for.a.Dream.2000.2160p.BluRay.x264.8bit.SDR.DTS-HD.MA.TrueHD.7.1.Atmos-SWTYBLZ
  45. Language                                 : English
  46. Default                                  : Yes
  47. Forced                                   : No
  48. Number of dynamic objects                : 15
  49. Bed channel count                        : 1 channel
  50. Bed channel configuration                : LFE
  51. Audio #2
  52. ID                                       : 3
  53. Format                                   : DTS XLL
  54. Format/Info                              : Digital Theater Systems
  55. Commercial name                          : DTS-HD Master Audio
  56. Codec ID                                 : A_DTS
  57. Duration                                 : 1 h 41 min
  58. Bit rate mode                            : Variable
  59. Bit rate                                 : 4 091 kb/s
  60. Channel(s)                               : 8 channels
  61. Channel layout                           : C L R LFE Lb Rb Lss Rss
  62. Sampling rate                            : 48.0 kHz
  63. Frame rate                               : 93.750 FPS (512 SPF)
  64. Bit depth                                : 24 bits
  65. Compression mode                         : Lossless
  66. Stream size                              : 2.90 GiB (5%)
  67. Title                                    : Requiem.for.a.Dream.2000.2160p.BluRay.x264.8bit.SDR.DTS-HD.MA.TrueHD.7.1.Atmos-SWTYBLZ
  68. Language                                 : English
  69. Default                                  : No
  70. Forced                                   : No
  71. Audio #3
  72. ID                                       : 4
  73. Format                                   : AC-3
  74. Format/Info                              : Audio Coding 3
  75. Commercial name                          : Dolby Digital
  76. Codec ID                                 : A_AC3
  77. Duration                                 : 1 h 41 min
  78. Bit rate mode                            : Constant
  79. Bit rate                                 : 640 kb/s
  80. Channel(s)                               : 6 channels
  81. Channel layout                           : L R C LFE Ls Rs
  82. Sampling rate                            : 48.0 kHz
  83. Frame rate                               : 31.250 FPS (1536 SPF)
  84. Compression mode                         : Lossy
  85. Stream size                              : 465 MiB (1%)
  86. Title                                    : Requiem.for.a.Dream.2000.2160p.BluRay.x264.8bit.SDR.DTS-HD.MA.TrueHD.7.1.Atmos-SWTYBLZ
  87. Language                                 : English
  88. Service kind                             : Complete Main
  89. Default                                  : No
  90. Forced                                   : No
  91. Text #1
  92. ID                                       : 5
  93. Format                                   : UTF-8
  94. Codec ID                                 : S_TEXT/UTF8
  95. Codec ID/Info                            : UTF-8 Plain Text
  96. Duration                                 : 1 h 36 min
  97. Bit rate                                 : 51 b/s
  98. Count of elements                        : 1122
  99. Stream size                              : 36.3 KiB (0%)
  100. Title                                    : English-SRT
  101. Language                                 : English
  102. Default                                  : Yes
  103. Forced                                   : No
  104. Text #2
  105. ID                                       : 6
  106. Format                                   : PGS
  107. Muxing mode                              : zlib
  108. Codec ID                                 : S_HDMV/PGS
  109. Codec ID/Info                            : Picture based subtitle format used on BDs/HD-DVDs
  110. Duration                                 : 1 h 36 min
  111. Bit rate                                 : 30.4 kb/s
  112. Count of elements                        : 2286
  113. Stream size                              : 21.0 MiB (0%)
  114. Title                                    : English-PGS
  115. Language                                 : English
  116. Default                                  : No
  117. Forced                                   : No
  118. Text #3
  119. ID                                       : 7
  120. Format                                   : PGS
  121. Muxing mode                              : zlib
  122. Codec ID                                 : S_HDMV/PGS
  123. Codec ID/Info                            : Picture based subtitle format used on BDs/HD-DVDs
  124. Duration                                 : 1 h 36 min
  125. Bit rate                                 : 36.0 kb/s
  126. Count of elements                        : 2742
  127. Stream size                              : 24.9 MiB (0%)
  128. Title                                    : English-SDH-PGS
  129. Language                                 : English
  130. Default                                  : No
  131. Forced                                   : No
  132. Text #4
  133. ID                                       : 8
  134. Format                                   : PGS
  135. Muxing mode                              : zlib
  136. Codec ID                                 : S_HDMV/PGS
  137. Codec ID/Info                            : Picture based subtitle format used on BDs/HD-DVDs
  138. Duration                                 : 1 h 36 min
  139. Bit rate                                 : 37.8 kb/s
  140. Count of elements                        : 1566
  141. Stream size                              : 26.1 MiB (0%)
  142. Title                                    : German-PGS
  143. Language                                 : German
  144. Default                                  : No
  145. Forced                                   : No
  146. Text #5
  147. ID                                       : 9
  148. Format                                   : PGS
  149. Muxing mode                              : zlib
  150. Codec ID                                 : S_HDMV/PGS
  151. Codec ID/Info                            : Picture based subtitle format used on BDs/HD-DVDs
  152. Duration                                 : 1 h 36 min
  153. Bit rate                                 : 18.7 kb/s
  154. Count of elements                        : 1838
  155. Stream size                              : 12.9 MiB (0%)
  156. Title                                    : Korean-PGS
  157. Language                                 : Korean
  158. Default                                  : No
  159. Forced                                   : No
  160. Text #6
  161. ID                                       : 10
  162. Format                                   : PGS
  163. Muxing mode                              : zlib
  164. Codec ID                                 : S_HDMV/PGS
  165. Codec ID/Info                            : Picture based subtitle format used on BDs/HD-DVDs
  166. Duration                                 : 1 h 40 min
  167. Bit rate                                 : 25.9 kb/s
  168. Count of elements                        : 2346
  169. Stream size                              : 18.6 MiB (0%)
  170. Title                                    : Spanish-PGS
  171. Language                                 : Spanish
  172. Default                                  : No
  173. Forced                                   : No
  174. Menu
  175. 00:00:00.000                             : en:Tuning Up
  176. 00:05:30.705                             : en:Dreams
  177. 00:09:06.629                             : en:The Winner
  178. 00:14:00.882                             : en:Juice
  179. 00:19:01.057                             : en:Thinking Thin
  180. 00:23:35.039                             : en:Dynamite
  181. 00:27:33.318                             : en:A Date
  182. 00:29:46.952                             : en:$
  183. 00:32:46.965                             : en:Sweet Alice
  184. 00:37:16.901                             : en:Hope
  185. 00:49:24.211                             : en:Hunger Cries
  186. 00:56:24.631                             : en:Apart
  187. 01:06:05.420                             : en:Fury
  188. 01:13:24.775                             : en:A Whack
  189. 01:21:01.231                             : en:False Hope
  190. 01:29:17.561                             : en:The Requiem
复制代码






                                       
                                       

                                       
                                       
                                       




回复

使用道具 举报

蓝光币
0
发表于 2021-11-26 21:23:13 | 显示全部楼层
thank for you share
回复 支持 反对

使用道具 举报

懒得打字嘛,点击右侧快捷回复 【右侧内容,后台自定义】
您需要登录后才可以回帖 登录 | 立即加入

本版积分规则

Archiver|小黑屋| 蓝光电影网 |网站地图

Copyright © 2021 Comsenz Inc. Powered by 蓝光电影网

蓝光电影网

本站内容由用户自主分享和转载自互联网,转载目的在于传递更多信息,并不代表本网赞同其观点和对其真实性负责。

如有侵权、违反国家法律政策行为,请联系我们,我们会第一时间及时清除和处理!

举报反馈邮箱:[email protected]

快速回复 返回顶部 返回列表