找回密码

蓝光电影网

查看: 106|回复: 0

[2160p] 假日约会/佳节限定恋人 Holidate.2020.2160p.NF.WEB-DL.x265.10bit.HDR.DDP5.1.Atmos-ABBiE 11.72GB

[复制链接]
蓝光币
1084
发表于 2020-11-6 20:45:16 | 显示全部楼层 |阅读模式


◎译  名 沐日约会/佳节限制情人(台)/节日情侣/节日限制之恋(港)
◎片  名 Holidate
◎年  代 2020
◎产  地 美国
◎类  别 笑剧 / 恋爱
◎语  言 英语
◎上映日期 2020-10-28(美国)
◎IMDb评分  6.1/10 from 12429 users
◎IMDb链接  https://www.imdb.com/title/tt9866072/
◎豆瓣评分 5.6/10 from 1118 users
◎豆瓣链接 https://movie.douban.com/subject/30477702/
◎片  长 103分钟
◎导  演 约翰·怀特塞尔 John Whitesell
◎主  演 艾玛·罗伯茨 Emma Roberts
       卢克·布雷西 Luke Bracey
       克里斯汀·肯诺恩斯 Kristin Chenoweth
       弗兰西丝·费舍 Frances Fisher
       安德鲁·巴切勒 Andrew Bachelor
       杰西卡·卡普肖 Jessica Capshaw
       曼尼什·达亚尔 Manish Dayal
       亚历克斯·莫法特 Alex Moffat
       吴辛惠 Cynthy Wu
       杰克·曼利 Jake Manley
       妮可拉·佩尔茨 Nicola Peltz
       丹·劳里亚 Dan Lauria
       艾米·卡里诺 Aimee Carrero
       卡洛斯·拉卡马拉 Carlos Lacamara
       米凯拉·霍沃 Mikaela Hoover
       卡尔·麦克道维尔 Carl McDowell
       杰西贾姆斯·洛科里埃 Jessejames Locorriere
       布鲁克·杰伊·泰勒 Brooke Jaye Taylor
       玛丽莎·达维拉 Marisa Davila
       乔纳森·巴伦 Jonathan Baron
       库尔特·岳 Kurt Yue
       Bill Medley
       詹妮弗·沃妮斯 Jennifer Warnes
       Marcella Detroit
       梅里·克莱顿 Merry Clayton
       Joe Pizzulo
       比利·斯洛特 Billy Slaughter
◎标  签 恋爱 | 笑剧 | 美国 | Netflix | 2020 | 艾玛·罗伯茨 | 节日 | EmmaRoberts
◎简  介


  艾玛·罗伯茨将主演Netflix恋爱笑剧新片《沐日约会》(Holidate),约翰·怀特塞尔(《天翻地覆》《马里布绑票案》)执导,Tiffany Paulsen(《神探南茜》)编写剧本。聚焦斯隆和杰克逊这两个一向单身的人,他们厌恶沐日,由于总是缺少另一半,这让他们不能不接管家人的评判,大概堕入粘人、为难的约会中。但是,在他们碰头以后,他们许诺在一年的假期庆贺活动中成为相互的朋友。
  1. Video
  2. ID                                       : 1
  3. Format                                   : HEVC
  4. Format/Info                              : High Efficiency Video Coding
  5. Format profile                           : Main [email protected]@Main
  6. HDR format                               : SMPTE ST 2086, HDR10 compatible
  7. Codec ID                                 : V_MPEGH/ISO/HEVC
  8. Duration                                 : 1 h 43 min
  9. Bit rate                                 : 15.5 Mb/s
  10. Width                                    : 3 840 pixels
  11. Height                                   : 2 160 pixels
  12. Display aspect ratio                     : 16:9
  13. Frame rate mode                          : Constant
  14. Frame rate                               : 24.000 FPS
  15. Color space                              : YUV
  16. Chroma subsampling                       : 4:2:0 (Type 2)
  17. Bit depth                                : 10 bits
  18. Bits/(Pixel*Frame)                       : 0.078
  19. Stream size                              : 11.2 GiB (95%)
  20. Default                                  : Yes
  21. Forced                                   : No
  22. Color range                              : Limited
  23. Color primaries                          : BT.2020
  24. Transfer characteristics                 : PQ
  25. Matrix coefficients                      : BT.2020 non-constant
  26. Mastering display color primaries        : Display P3
  27. Mastering display luminance              : min: 0.0050 cd/m2, max: 4000 cd/m2
  28. Maximum Content Light Level              : 2827 cd/m2
  29. Maximum Frame-Average Light Level        : 913 cd/m2
  30. Audio
  31. ID                                       : 2
  32. Format                                   : E-AC-3 JOC
  33. Format/Info                              : Enhanced AC-3 with Joint Object Coding
  34. Commercial name                          : Dolby Digital Plus with Dolby Atmos
  35. Codec ID                                 : A_EAC3
  36. Duration                                 : 1 h 44 min
  37. Bit rate mode                            : Constant
  38. Bit rate                                 : 768 kb/s
  39. Channel(s)                               : 6 channels
  40. Channel layout                           : L R C LFE Ls Rs
  41. Sampling rate                            : 48.0 kHz
  42. Frame rate                               : 31.250 FPS (1536 SPF)
  43. Compression mode                         : Lossy
  44. Stream size                              : 575 MiB (5%)
  45. Language                                 : English
  46. Service kind                             : Complete Main
  47. Default                                  : Yes
  48. Forced                                   : No
  49. Complexity index                         : 16
  50. Number of dynamic objects                : 15
  51. Bed channel count                        : 1 channel
  52. Bed channel configuration                : LFE
  53. Text #1
  54. ID                                       : 3
  55. Format                                   : UTF-8
  56. Codec ID                                 : S_TEXT/UTF8
  57. Codec ID/Info                            : UTF-8 Plain Text
  58. Duration                                 : 1 h 41 min
  59. Bit rate                                 : 91 b/s
  60. Count of elements                        : 2303
  61. Stream size                              : 67.9 KiB (0%)
  62. Title                                    : [CC]
  63. Language                                 : English
  64. Default                                  : Yes
  65. Forced                                   : No
  66. Text #2
  67. ID                                       : 4
  68. Format                                   : UTF-8
  69. Codec ID                                 : S_TEXT/UTF8
  70. Codec ID/Info                            : UTF-8 Plain Text
  71. Duration                                 : 1 h 42 min
  72. Bit rate                                 : 124 b/s
  73. Count of elements                        : 1517
  74. Stream size                              : 94.1 KiB (0%)
  75. Language                                 : Arabic
  76. Default                                  : No
  77. Forced                                   : No
  78. Text #3
  79. ID                                       : 5
  80. Format                                   : UTF-8
  81. Codec ID                                 : S_TEXT/UTF8
  82. Codec ID/Info                            : UTF-8 Plain Text
  83. Duration                                 : 1 h 42 min
  84. Bit rate                                 : 61 b/s
  85. Count of elements                        : 1802
  86. Stream size                              : 46.5 KiB (0%)
  87. Language                                 : Czech
  88. Default                                  : No
  89. Forced                                   : No
  90. Text #4
  91. ID                                       : 6
  92. Format                                   : UTF-8
  93. Codec ID                                 : S_TEXT/UTF8
  94. Codec ID/Info                            : UTF-8 Plain Text
  95. Duration                                 : 1 h 42 min
  96. Bit rate                                 : 60 b/s
  97. Count of elements                        : 1674
  98. Stream size                              : 45.8 KiB (0%)
  99. Language                                 : Danish
  100. Default                                  : No
  101. Forced                                   : No
  102. Text #5
  103. ID                                       : 7
  104. Format                                   : UTF-8
  105. Codec ID                                 : S_TEXT/UTF8
  106. Codec ID/Info                            : UTF-8 Plain Text
  107. Duration                                 : 1 h 42 min
  108. Bit rate                                 : 61 b/s
  109. Count of elements                        : 1841
  110. Stream size                              : 46.5 KiB (0%)
  111. Language                                 : German
  112. Default                                  : No
  113. Forced                                   : No
  114. Text #6
  115. ID                                       : 8
  116. Format                                   : UTF-8
  117. Codec ID                                 : S_TEXT/UTF8
  118. Codec ID/Info                            : UTF-8 Plain Text
  119. Duration                                 : 1 h 42 min
  120. Bit rate                                 : 109 b/s
  121. Count of elements                        : 1770
  122. Stream size                              : 82.7 KiB (0%)
  123. Language                                 : Greek
  124. Default                                  : No
  125. Forced                                   : No
  126. Text #7
  127. ID                                       : 9
  128. Format                                   : UTF-8
  129. Codec ID                                 : S_TEXT/UTF8
  130. Codec ID/Info                            : UTF-8 Plain Text
  131. Duration                                 : 1 h 42 min
  132. Bit rate                                 : 66 b/s
  133. Count of elements                        : 1729
  134. Stream size                              : 50.4 KiB (0%)
  135. Language                                 : Spanish
  136. Default                                  : No
  137. Forced                                   : No
  138. Text #8
  139. ID                                       : 10
  140. Format                                   : UTF-8
  141. Codec ID                                 : S_TEXT/UTF8
  142. Codec ID/Info                            : UTF-8 Plain Text
  143. Duration                                 : 1 h 42 min
  144. Bit rate                                 : 64 b/s
  145. Count of elements                        : 1785
  146. Stream size                              : 48.6 KiB (0%)
  147. Title                                    : European
  148. Language                                 : Spanish
  149. Default                                  : No
  150. Forced                                   : No
  151. Text #9
  152. ID                                       : 11
  153. Format                                   : UTF-8
  154. Codec ID                                 : S_TEXT/UTF8
  155. Codec ID/Info                            : UTF-8 Plain Text
  156. Duration                                 : 1 h 42 min
  157. Bit rate                                 : 58 b/s
  158. Count of elements                        : 1794
  159. Stream size                              : 43.8 KiB (0%)
  160. Language                                 : Finnish
  161. Default                                  : No
  162. Forced                                   : No
  163. Text #10
  164. ID                                       : 12
  165. Format                                   : UTF-8
  166. Codec ID                                 : S_TEXT/UTF8
  167. Codec ID/Info                            : UTF-8 Plain Text
  168. Duration                                 : 1 h 42 min
  169. Bit rate                                 : 62 b/s
  170. Count of elements                        : 1727
  171. Stream size                              : 47.0 KiB (0%)
  172. Language                                 : French
  173. Default                                  : No
  174. Forced                                   : No
  175. Text #11
  176. ID                                       : 13
  177. Format                                   : UTF-8
  178. Codec ID                                 : S_TEXT/UTF8
  179. Codec ID/Info                            : UTF-8 Plain Text
  180. Duration                                 : 1 h 42 min
  181. Bit rate                                 : 107 b/s
  182. Count of elements                        : 1816
  183. Stream size                              : 81.4 KiB (0%)
  184. Language                                 : Hebrew
  185. Default                                  : No
  186. Forced                                   : No
  187. Text #12
  188. ID                                       : 14
  189. Format                                   : UTF-8
  190. Codec ID                                 : S_TEXT/UTF8
  191. Codec ID/Info                            : UTF-8 Plain Text
  192. Duration                                 : 1 h 42 min
  193. Bit rate                                 : 190 b/s
  194. Count of elements                        : 1859
  195. Stream size                              : 143 KiB (0%)
  196. Language                                 : Hindi
  197. Default                                  : No
  198. Forced                                   : No
  199. Text #13
  200. ID                                       : 15
  201. Format                                   : UTF-8
  202. Codec ID                                 : S_TEXT/UTF8
  203. Codec ID/Info                            : UTF-8 Plain Text
  204. Duration                                 : 1 h 42 min
  205. Bit rate                                 : 66 b/s
  206. Count of elements                        : 1679
  207. Stream size                              : 49.9 KiB (0%)
  208. Language                                 : Hungarian
  209. Default                                  : No
  210. Forced                                   : No
  211. Text #14
  212. ID                                       : 16
  213. Format                                   : UTF-8
  214. Codec ID                                 : S_TEXT/UTF8
  215. Codec ID/Info                            : UTF-8 Plain Text
  216. Duration                                 : 1 h 42 min
  217. Bit rate                                 : 66 b/s
  218. Count of elements                        : 1821
  219. Stream size                              : 50.3 KiB (0%)
  220. Language                                 : Indonesian
  221. Default                                  : No
  222. Forced                                   : No
  223. Text #15
  224. ID                                       : 17
  225. Format                                   : UTF-8
  226. Codec ID                                 : S_TEXT/UTF8
  227. Codec ID/Info                            : UTF-8 Plain Text
  228. Duration                                 : 1 h 42 min
  229. Bit rate                                 : 66 b/s
  230. Count of elements                        : 1838
  231. Stream size                              : 49.8 KiB (0%)
  232. Language                                 : Italian
  233. Default                                  : No
  234. Forced                                   : No
  235. Text #16
  236. ID                                       : 18
  237. Format                                   : UTF-8
  238. Codec ID                                 : S_TEXT/UTF8
  239. Codec ID/Info                            : UTF-8 Plain Text
  240. Duration                                 : 1 h 42 min
  241. Bit rate                                 : 65 b/s
  242. Count of elements                        : 1563
  243. Stream size                              : 49.0 KiB (0%)
  244. Language                                 : Japanese
  245. Default                                  : No
  246. Forced                                   : No
  247. Text #17
  248. ID                                       : 19
  249. Format                                   : UTF-8
  250. Codec ID                                 : S_TEXT/UTF8
  251. Codec ID/Info                            : UTF-8 Plain Text
  252. Duration                                 : 1 h 42 min
  253. Bit rate                                 : 88 b/s
  254. Count of elements                        : 1800
  255. Stream size                              : 66.4 KiB (0%)
  256. Language                                 : Korean
  257. Default                                  : No
  258. Forced                                   : No
  259. Text #18
  260. ID                                       : 20
  261. Format                                   : UTF-8
  262. Codec ID                                 : S_TEXT/UTF8
  263. Codec ID/Info                            : UTF-8 Plain Text
  264. Duration                                 : 1 h 42 min
  265. Bit rate                                 : 65 b/s
  266. Count of elements                        : 1826
  267. Stream size                              : 49.6 KiB (0%)
  268. Language                                 : Malay
  269. Default                                  : No
  270. Forced                                   : No
  271. Text #19
  272. ID                                       : 21
  273. Format                                   : UTF-8
  274. Codec ID                                 : S_TEXT/UTF8
  275. Codec ID/Info                            : UTF-8 Plain Text
  276. Duration                                 : 1 h 42 min
  277. Bit rate                                 : 60 b/s
  278. Count of elements                        : 1476
  279. Stream size                              : 45.7 KiB (0%)
  280. Language                                 : Norwegian Bokmal
  281. Default                                  : No
  282. Forced                                   : No
  283. Text #20
  284. ID                                       : 22
  285. Format                                   : UTF-8
  286. Codec ID                                 : S_TEXT/UTF8
  287. Codec ID/Info                            : UTF-8 Plain Text
  288. Duration                                 : 1 h 42 min
  289. Bit rate                                 : 64 b/s
  290. Count of elements                        : 1639
  291. Stream size                              : 49.0 KiB (0%)
  292. Language                                 : Dutch
  293. Default                                  : No
  294. Forced                                   : No
  295. Text #21
  296. ID                                       : 23
  297. Format                                   : UTF-8
  298. Codec ID                                 : S_TEXT/UTF8
  299. Codec ID/Info                            : UTF-8 Plain Text
  300. Duration                                 : 1 h 42 min
  301. Bit rate                                 : 60 b/s
  302. Count of elements                        : 1862
  303. Stream size                              : 45.7 KiB (0%)
  304. Language                                 : Polish
  305. Default                                  : No
  306. Forced                                   : No
  307. Text #22
  308. ID                                       : 24
  309. Format                                   : UTF-8
  310. Codec ID                                 : S_TEXT/UTF8
  311. Codec ID/Info                            : UTF-8 Plain Text
  312. Duration                                 : 1 h 42 min
  313. Bit rate                                 : 64 b/s
  314. Count of elements                        : 1666
  315. Stream size                              : 48.8 KiB (0%)
  316. Language                                 : Portuguese
  317. Default                                  : No
  318. Forced                                   : No
  319. Text #23
  320. ID                                       : 25
  321. Format                                   : UTF-8
  322. Codec ID                                 : S_TEXT/UTF8
  323. Codec ID/Info                            : UTF-8 Plain Text
  324. Duration                                 : 1 h 42 min
  325. Bit rate                                 : 64 b/s
  326. Count of elements                        : 1731
  327. Stream size                              : 48.9 KiB (0%)
  328. Title                                    : Brazilian
  329. Language                                 : Portuguese
  330. Default                                  : No
  331. Forced                                   : No
  332. Text #24
  333. ID                                       : 26
  334. Format                                   : UTF-8
  335. Codec ID                                 : S_TEXT/UTF8
  336. Codec ID/Info                            : UTF-8 Plain Text
  337. Duration                                 : 1 h 42 min
  338. Bit rate                                 : 73 b/s
  339. Count of elements                        : 1813
  340. Stream size                              : 55.3 KiB (0%)
  341. Language                                 : Romanian
  342. Default                                  : No
  343. Forced                                   : No
  344. Text #25
  345. ID                                       : 27
  346. Format                                   : UTF-8
  347. Codec ID                                 : S_TEXT/UTF8
  348. Codec ID/Info                            : UTF-8 Plain Text
  349. Duration                                 : 1 h 42 min
  350. Bit rate                                 : 112 b/s
  351. Count of elements                        : 1799
  352. Stream size                              : 84.9 KiB (0%)
  353. Language                                 : Russian
  354. Default                                  : No
  355. Forced                                   : No
  356. Text #26
  357. ID                                       : 28
  358. Format                                   : UTF-8
  359. Codec ID                                 : S_TEXT/UTF8
  360. Codec ID/Info                            : UTF-8 Plain Text
  361. Duration                                 : 1 h 42 min
  362. Bit rate                                 : 63 b/s
  363. Count of elements                        : 1595
  364. Stream size                              : 47.5 KiB (0%)
  365. Language                                 : Swedish
  366. Default                                  : No
  367. Forced                                   : No
  368. Text #27
  369. ID                                       : 29
  370. Format                                   : UTF-8
  371. Codec ID                                 : S_TEXT/UTF8
  372. Codec ID/Info                            : UTF-8 Plain Text
  373. Duration                                 : 1 h 42 min
  374. Bit rate                                 : 180 b/s
  375. Count of elements                        : 1860
  376. Stream size                              : 136 KiB (0%)
  377. Language                                 : Thai
  378. Default                                  : No
  379. Forced                                   : No
  380. Text #28
  381. ID                                       : 30
  382. Format                                   : UTF-8
  383. Codec ID                                 : S_TEXT/UTF8
  384. Codec ID/Info                            : UTF-8 Plain Text
  385. Duration                                 : 1 h 42 min
  386. Bit rate                                 : 68 b/s
  387. Count of elements                        : 1710
  388. Stream size                              : 51.3 KiB (0%)
  389. Language                                 : Turkish
  390. Default                                  : No
  391. Forced                                   : No
  392. Text #29
  393. ID                                       : 31
  394. Format                                   : UTF-8
  395. Codec ID                                 : S_TEXT/UTF8
  396. Codec ID/Info                            : UTF-8 Plain Text
  397. Duration                                 : 1 h 42 min
  398. Bit rate                                 : 89 b/s
  399. Count of elements                        : 1828
  400. Stream size                              : 67.1 KiB (0%)
  401. Language                                 : Vietnamese
  402. Default                                  : No
  403. Forced                                   : No
  404. Text #30
  405. ID                                       : 32
  406. Format                                   : UTF-8
  407. Codec ID                                 : S_TEXT/UTF8
  408. Codec ID/Info                            : UTF-8 Plain Text
  409. Duration                                 : 1 h 42 min
  410. Bit rate                                 : 73 b/s
  411. Count of elements                        : 1855
  412. Stream size                              : 55.3 KiB (0%)
  413. Title                                    : Simplified
  414. Language                                 : Chinese
  415. Default                                  : No
  416. Forced                                   : No
  417. Text #31
  418. ID                                       : 33
  419. Format                                   : UTF-8
  420. Codec ID                                 : S_TEXT/UTF8
  421. Codec ID/Info                            : UTF-8 Plain Text
  422. Duration                                 : 1 h 42 min
  423. Bit rate                                 : 69 b/s
  424. Count of elements                        : 1857
  425. Stream size                              : 52.7 KiB (0%)
  426. Title                                    : Traditional
  427. Language                                 : Chinese
  428. Default                                  : No
  429. Forced                                   : No
复制代码



                                       
                                       

                                       
                                       
                                       




回复

使用道具 举报

懒得打字嘛,点击右侧快捷回复 【右侧内容,后台自定义】
您需要登录后才可以回帖 登录 | 立即加入

本版积分规则

Archiver|小黑屋| 蓝光电影网 |网站地图

Copyright © 2021 Comsenz Inc. Powered by 蓝光电影网

蓝光电影网

本站内容由用户自主分享和转载自互联网,转载目的在于传递更多信息,并不代表本网赞同其观点和对其真实性负责。

如有侵权、违反国家法律政策行为,请联系我们,我们会第一时间及时清除和处理!

举报反馈邮箱:[email protected]

快速回复 返回顶部 返回列表