找回密码

蓝光电影网

查看: 132|回复: 0

[2160p] 花木兰/木兰传说 Mulan.2020.2160p.BluRay.x264.8bit.SDR.DTS-HD.MA.TrueHD.7.1.Atmos-SWTYBLZ 30.44GB

[复制链接]
蓝光币
1084
发表于 2020-11-6 14:20:37 | 显示全部楼层 |阅读模式


◎译  名 花木兰/木兰传闻/花木兰真人版/迪士尼真人版花木兰
◎片  名 Mulan
◎年  代 2020
◎产  地 美国,中国大陆
◎类  别 剧情 / 行动 / 奇异 / 冒险 / 古装
◎语  言 英语,汉语普通话
◎上映日期 2020-09-04(美国收集) / 2020-09-11(中国大陆)
◎IMDb评分  5.4/10 from 66486 users
◎IMDb链接  https://www.imdb.com/title/tt4566758/
◎豆瓣评分 5.0/10 from 222931 users
◎豆瓣链接 https://movie.douban.com/subject/26357307/
◎片  长 115分钟
◎导  演 妮琪·卡罗 Niki Caro
◎编  剧 劳伦·希内克 Lauren Hynek / 里克·杰法 Rick Jaffa / 伊丽莎白·马丁 Elizabeth Martin / 阿曼达·斯尔沃 Amanda Silver
◎主  演 刘亦菲 Yifei Liu
       甄子丹 Donnie Yen
       巩俐 Li Gong
       李连杰 Jet Li
       李截 Jason Scott Lee
       安柚鑫 Yoson An
       马泰 Tzi Ma
       赵家玲 Rosalind Chao
       郑佩佩 Pei-pei Cheng
       温明娜 Ming-Na Wen
       曾晓童 Xana Tang
       袁文忠 Ron Yuan
       唐辰瀛 Chen Tang
       道阿·茂阿 Doua Moua
       黄谷悦 Jimmy Wong
       尼尔森·李 Nelson Lee
       李勋 Hoon Lee
       饶雪晶 Crystal Rao
       袁之正 Roger Yuan
       仁成外桥 Jen Sung Outerbridge
       加里·扬 Gary Young
       欧文·邝 Owen Kwong
       乌特卡什·安邦德卡尔 Utkarsh Ambudkar
       钱姆·艾希勒珀拉 Chum Ehelepola
       大卫·T·林 David T·Lim
       詹森·郑 Jenson Cheng
       Jun Yu
◎标  签 花木兰 | 刘亦菲 | 迪士尼 | 真人版 | Disney | 美国 | 古装 | 电影
◎简  介


  迪士尼影业声誉出品《花木兰》由备受赞誉的电影导演妮基·卡罗执导,将中国传奇战士的史诗故事全新显现。影片报告了一位无所害怕的年轻女子义无返顾为家国而战,成为中国史上最著名的巨大勇士之一。当天子命令境内每个家庭必须有一位男丁应召出征,抵抗北方来犯者入侵,身世军戎之家的长女花木兰,自告奋勇,替病痛缠身的父亲应征参军。她女扮男装假名“花军”,一路历经考验,把握自己心里的气力,激起实在的潜能。经过这段传奇过程,她将成为一位名誉的勇士,不但赢得国家的认可,更赢得父亲的自豪。
◎获奖情况
  第6届豆瓣电影年度榜单 ?(2019)
  最值得期待的外语电影(提名)
  1. Video
  2. ID                                       : 1
  3. Format                                   : AVC
  4. Format/Info                              : Advanced Video Codec
  5. Format profile                           : [email protected]
  6. Format settings                          : CABAC / 5 Ref Frames
  7. Format settings, CABAC                   : Yes
  8. Format settings, Reference frames        : 5 frames
  9. Codec ID                                 : V_MPEG4/ISO/AVC
  10. Duration                                 : 1 h 55 min
  11. Bit rate                                 : 28.1 Mb/s
  12. Width                                    : 3 840 pixels
  13. Height                                   : 1 608 pixels
  14. Display aspect ratio                     : 2.40:1
  15. Frame rate mode                          : Constant
  16. Frame rate                               : 23.976 (24000/1001/189150) FPS
  17. Color space                              : YUV
  18. Chroma subsampling                       : 4:2:0
  19. Bit depth                                : 8 bits
  20. Scan type                                : Progressive
  21. Bits/(Pixel*Frame)                       : 0.190
  22. Stream size                              : 22.6 GiB (74%)
  23. Title                                    : Mulan.2020.2160p.BluRay.x264.8bit.SDR.DTS-HD.MA.TrueHD.7.1.Atmos-SWTYBLZ
  24. Writing library                          : x264 core 157 r2935 545de2f
  25. Encoding settings                        : cabac=1 / ref=5 / deblock=1:-1:-1 / analyse=0x3:0x113 / me=umh / subme=10 / psy=1 / psy_rd=1.00:0.15 / mixed_ref=1 / me_range=48 / chroma_me=1 / trellis=2 / 8x8dct=1 / cqm=0 / deadzone=21,11 / fast_pskip=1 / chroma_qp_offset=-3 / threads=50 / lookahead_threads=4 / sliced_threads=0 / nr=0 / decimate=0 / interlaced=0 / bluray_compat=0 / constrained_intra=0 / bframes=3 / b_pyramid=2 / b_adapt=2 / b_bias=0 / direct=3 / weightb=1 / open_gop=0 / weightp=2 / keyint=250 / keyint_min=23 / scenecut=40 / intra_refresh=0 / rc_lookahead=50 / rc=crf / mbtree=1 / crf=18.0 / qcomp=0.60 / qpmin=0 / qpmax=69 / qpstep=4 / ip_ratio=1.40 / aq=1:1.00
  26. Default                                  : Yes
  27. Forced                                   : No
  28. Audio #1
  29. ID                                       : 2
  30. Format                                   : DTS XLL
  31. Format/Info                              : Digital Theater Systems
  32. Commercial name                          : DTS-HD Master Audio
  33. Codec ID                                 : A_DTS
  34. Duration                                 : 1 h 55 min
  35. Bit rate mode                            : Variable
  36. Bit rate                                 : 4 260 kb/s
  37. Channel(s)                               : 8 channels
  38. Channel layout                           : C L R LFE Lb Rb Lss Rss
  39. Sampling rate                            : 48.0 kHz
  40. Frame rate                               : 93.750 FPS (512 SPF)
  41. Bit depth                                : 24 bits
  42. Compression mode                         : Lossless
  43. Stream size                              : 3.43 GiB (11%)
  44. Title                                    : Mulan.2020.2160p.BluRay.x264.8bit.SDR.DTS-HD.MA.TrueHD.7.1.Atmos-SWTYBLZ
  45. Language                                 : English
  46. Default                                  : No
  47. Forced                                   : No
  48. Audio #2
  49. ID                                       : 3
  50. Format                                   : MLP FBA 16-ch
  51. Format/Info                              : Meridian Lossless Packing FBA with 16-channel presentation
  52. Commercial name                          : Dolby TrueHD with Dolby Atmos
  53. Codec ID                                 : A_TRUEHD
  54. Duration                                 : 1 h 55 min
  55. Bit rate mode                            : Variable
  56. Bit rate                                 : 4 608 kb/s
  57. Maximum bit rate                         : 8 742 kb/s
  58. Channel(s)                               : 8 channels
  59. Channel layout                           : L R C LFE Ls Rs Lb Rb
  60. Sampling rate                            : 48.0 kHz
  61. Frame rate                               : 1 200.000 FPS (40 SPF)
  62. Compression mode                         : Lossless
  63. Stream size                              : 3.71 GiB (12%)
  64. Title                                    : Mulan.2020.2160p.BluRay.x264.8bit.SDR.DTS-HD.MA.TrueHD.7.1.Atmos-SWTYBLZ
  65. Language                                 : English
  66. Default                                  : Yes
  67. Forced                                   : No
  68. Number of dynamic objects                : 13
  69. Bed channel count                        : 1 channel
  70. Bed channel configuration                : LFE
  71. Audio #3
  72. ID                                       : 4
  73. Format                                   : AC-3
  74. Format/Info                              : Audio Coding 3
  75. Commercial name                          : Dolby Digital
  76. Codec ID                                 : A_AC3
  77. Duration                                 : 1 h 55 min
  78. Bit rate mode                            : Constant
  79. Bit rate                                 : 640 kb/s
  80. Channel(s)                               : 6 channels
  81. Channel layout                           : L R C LFE Ls Rs
  82. Sampling rate                            : 48.0 kHz
  83. Frame rate                               : 31.250 FPS (1536 SPF)
  84. Compression mode                         : Lossy
  85. Stream size                              : 527 MiB (2%)
  86. Title                                    : Mulan.2020.2160p.BluRay.x264.8bit.SDR.DTS-HD.MA.TrueHD.7.1.Atmos-SWTYBLZ
  87. Language                                 : English
  88. Service kind                             : Complete Main
  89. Default                                  : No
  90. Forced                                   : No
  91. Text #1
  92. ID                                       : 5
  93. Format                                   : UTF-8
  94. Codec ID                                 : S_TEXT/UTF8
  95. Codec ID/Info                            : UTF-8 Plain Text
  96. Duration                                 : 1 h 50 min
  97. Bit rate                                 : 30 b/s
  98. Count of elements                        : 921
  99. Stream size                              : 24.5 KiB (0%)
  100. Title                                    : English-SRT
  101. Language                                 : English
  102. Default                                  : Yes
  103. Forced                                   : No
  104. Text #2
  105. ID                                       : 6
  106. Format                                   : PGS
  107. Muxing mode                              : zlib
  108. Codec ID                                 : S_HDMV/PGS
  109. Codec ID/Info                            : Picture based subtitle format used on BDs/HD-DVDs
  110. Duration                                 : 1 h 50 min
  111. Bit rate                                 : 24.2 kb/s
  112. Count of elements                        : 2300
  113. Stream size                              : 19.2 MiB (0%)
  114. Title                                    : English-PGS
  115. Language                                 : English
  116. Default                                  : No
  117. Forced                                   : No
  118. Text #3
  119. ID                                       : 7
  120. Format                                   : PGS
  121. Muxing mode                              : zlib
  122. Codec ID                                 : S_HDMV/PGS
  123. Codec ID/Info                            : Picture based subtitle format used on BDs/HD-DVDs
  124. Duration                                 : 1 h 54 min
  125. Bit rate                                 : 15.8 kb/s
  126. Count of elements                        : 1264
  127. Stream size                              : 12.9 MiB (0%)
  128. Title                                    : Danish-PGS
  129. Language                                 : Danish
  130. Default                                  : No
  131. Forced                                   : No
  132. Text #4
  133. ID                                       : 8
  134. Format                                   : PGS
  135. Muxing mode                              : zlib
  136. Codec ID                                 : S_HDMV/PGS
  137. Codec ID/Info                            : Picture based subtitle format used on BDs/HD-DVDs
  138. Duration                                 : 1 h 54 min
  139. Bit rate                                 : 17.4 kb/s
  140. Count of elements                        : 1570
  141. Stream size                              : 14.2 MiB (0%)
  142. Title                                    : Finnish-PGS
  143. Language                                 : Finnish
  144. Default                                  : No
  145. Forced                                   : No
  146. Text #5
  147. ID                                       : 9
  148. Format                                   : PGS
  149. Muxing mode                              : zlib
  150. Codec ID                                 : S_HDMV/PGS
  151. Codec ID/Info                            : Picture based subtitle format used on BDs/HD-DVDs
  152. Duration                                 : 1 h 54 min
  153. Bit rate                                 : 17.9 kb/s
  154. Count of elements                        : 1608
  155. Stream size                              : 14.6 MiB (0%)
  156. Title                                    : French-PGS
  157. Language                                 : French
  158. Default                                  : No
  159. Forced                                   : No
  160. Text #6
  161. ID                                       : 10
  162. Format                                   : PGS
  163. Muxing mode                              : zlib
  164. Codec ID                                 : S_HDMV/PGS
  165. Codec ID/Info                            : Picture based subtitle format used on BDs/HD-DVDs
  166. Duration                                 : 1 h 54 min
  167. Bit rate                                 : 17.3 kb/s
  168. Count of elements                        : 1542
  169. Stream size                              : 14.1 MiB (0%)
  170. Title                                    : French-PGS
  171. Language                                 : French
  172. Default                                  : No
  173. Forced                                   : No
  174. Text #7
  175. ID                                       : 11
  176. Format                                   : PGS
  177. Muxing mode                              : zlib
  178. Codec ID                                 : S_HDMV/PGS
  179. Codec ID/Info                            : Picture based subtitle format used on BDs/HD-DVDs
  180. Duration                                 : 1 h 54 min
  181. Bit rate                                 : 18.1 kb/s
  182. Count of elements                        : 1866
  183. Stream size                              : 14.8 MiB (0%)
  184. Title                                    : German-PGS
  185. Language                                 : German
  186. Default                                  : No
  187. Forced                                   : No
  188. Text #8
  189. ID                                       : 12
  190. Format                                   : PGS
  191. Muxing mode                              : zlib
  192. Codec ID                                 : S_HDMV/PGS
  193. Codec ID/Info                            : Picture based subtitle format used on BDs/HD-DVDs
  194. Duration                                 : 1 h 54 min
  195. Bit rate                                 : 17.2 kb/s
  196. Count of elements                        : 1568
  197. Stream size                              : 14.1 MiB (0%)
  198. Title                                    : Italian-PGS
  199. Language                                 : Italian
  200. Default                                  : No
  201. Forced                                   : No
  202. Text #9
  203. ID                                       : 13
  204. Format                                   : PGS
  205. Muxing mode                              : zlib
  206. Codec ID                                 : S_HDMV/PGS
  207. Codec ID/Info                            : Picture based subtitle format used on BDs/HD-DVDs
  208. Duration                                 : 1 h 54 min
  209. Bit rate                                 : 15.4 kb/s
  210. Count of elements                        : 1524
  211. Stream size                              : 12.6 MiB (0%)
  212. Title                                    : Japanese-PGS
  213. Language                                 : Japanese
  214. Default                                  : No
  215. Forced                                   : No
  216. Text #10
  217. ID                                       : 14
  218. Format                                   : PGS
  219. Muxing mode                              : zlib
  220. Codec ID                                 : S_HDMV/PGS
  221. Codec ID/Info                            : Picture based subtitle format used on BDs/HD-DVDs
  222. Duration                                 : 1 h 54 min
  223. Bit rate                                 : 16.1 kb/s
  224. Count of elements                        : 1568
  225. Stream size                              : 13.1 MiB (0%)
  226. Title                                    : Norwegian-PGS
  227. Language                                 : Norwegian
  228. Default                                  : No
  229. Forced                                   : No
  230. Text #11
  231. ID                                       : 15
  232. Format                                   : PGS
  233. Muxing mode                              : zlib
  234. Codec ID                                 : S_HDMV/PGS
  235. Codec ID/Info                            : Picture based subtitle format used on BDs/HD-DVDs
  236. Duration                                 : 1 h 43 min
  237. Bit rate                                 : 19.5 kb/s
  238. Count of elements                        : 1566
  239. Stream size                              : 14.5 MiB (0%)
  240. Title                                    : Spanish-PGS
  241. Language                                 : Spanish
  242. Default                                  : No
  243. Forced                                   : No
  244. Text #12
  245. ID                                       : 16
  246. Format                                   : PGS
  247. Muxing mode                              : zlib
  248. Codec ID                                 : S_HDMV/PGS
  249. Codec ID/Info                            : Picture based subtitle format used on BDs/HD-DVDs
  250. Duration                                 : 1 h 54 min
  251. Bit rate                                 : 15.7 kb/s
  252. Count of elements                        : 1398
  253. Stream size                              : 12.8 MiB (0%)
  254. Title                                    : Swedish-PGS
  255. Language                                 : Swedish
  256. Default                                  : No
  257. Forced                                   : No
  258. Menu
  259. 00:00:00.000                             : en:Chapter 1
  260. 00:04:44.117                             : en:Chapter 2
  261. 00:06:26.469                             : en:Chapter 3
  262. 00:09:29.152                             : en:Chapter 4
  263. 00:13:27.223                             : en:Chapter 5
  264. 00:20:51.584                             : en:Chapter 6
  265. 00:26:33.675                             : en:Chapter 7
  266. 00:29:03.992                             : en:Chapter 8
  267. 00:36:48.832                             : en:Chapter 9
  268. 00:41:41.708                             : en:Chapter 10
  269. 00:50:45.668                             : en:Chapter 11
  270. 00:57:19.061                             : en:Chapter 12
  271. 01:01:13.336                             : en:Chapter 13
  272. 01:11:22.820                             : en:Chapter 14
  273. 01:16:34.924                             : en:Chapter 15
  274. 01:22:11.552                             : en:Chapter 16
  275. 01:29:59.060                             : en:Chapter 17
  276. 01:34:59.819                             : en:Chapter 18
  277. 01:38:52.385                             : en:Chapter 19
  278. 01:44:40.399                             : en:Chapter 20
复制代码






                                       
                                       

                                       
                                       
                                       




回复

使用道具 举报

懒得打字嘛,点击右侧快捷回复 【右侧内容,后台自定义】
您需要登录后才可以回帖 登录 | 立即加入

本版积分规则

Archiver|小黑屋| 蓝光电影网 |网站地图

Copyright © 2021 Comsenz Inc. Powered by 蓝光电影网

蓝光电影网

本站内容由用户自主分享和转载自互联网,转载目的在于传递更多信息,并不代表本网赞同其观点和对其真实性负责。

如有侵权、违反国家法律政策行为,请联系我们,我们会第一时间及时清除和处理!

举报反馈邮箱:[email protected]

快速回复 返回顶部 返回列表