找回密码

蓝光电影网

查看: 124|回复: 0

[2160p] 波拉特2 Borat.Subsequent.Moviefilm.2020.2160p.AMZN.WEB-DL.x265.10bit.HDR10plus.DDP5.1-aKraa 10.05GB

[复制链接]
蓝光币
1078
发表于 2020-11-5 10:00:24 | 显示全部楼层 |阅读模式


◎译  名 波拉特2/Borat: Gift of Pornographic Monkey to Vice Premiere Mikhael Pence to Make Benefit Recently Diminished Nation of Kazakhstan/波拉特:为了近期式微的哈萨克斯坦的好处送给副总统迈克儿·彭斯的色情山公礼物/波拉特2:为扶植巨大祖国哈萨克斯坦而行贿美国政权
◎片  名 Borat Subsequent Moviefilm: Delivery of Prodigious Bribe to American Regime for Make Benefit Once Glorious Nation of Kazakhstan
◎年  代 2020
◎产  地 英国,美国
◎类  别 笑剧
◎语  言 英语,保加利亚语,希伯来语
◎上映日期 2020-10-23(美国收集)
◎IMDb评分  6.9/10 from 68524 users
◎IMDb链接  https://www.imdb.com/title/tt13143964/
◎豆瓣评分 7.4/10 from 6669 users
◎豆瓣链接 https://movie.douban.com/subject/4135439/
◎片  长 95分钟
◎导  演 杰森·威奈勒 Jason Woliner
◎编  剧 萨莎·拜伦·科恩 Sacha Baron Cohen / 安东尼·海恩斯 Anthony Hines / Dan Swimer / 彼得·贝恩汉姆 Peter Baynham / 埃丽卡·里维诺亚 Erica Rivinoja / 丹·马泽 Dan Mazer / Jena Friedman / 李·克恩 Lee Kern / Nina Pedrad / Nick Corirossi
◎主  演 萨莎·拜伦·科恩 Sacha Baron Cohen
       肯·戴维蒂安 Ken Davitian
       迈克·彭斯 Mike Pence
       玛丽亚·巴卡洛娃 Maria Bakalova
       鲁迪·朱利安尼 Rudolph W. Giuliani
       汤姆·汉克斯 Tom Hanks
       约翰尼·扬·博施 Johnny Yong Bosch
       Macy Chanel
◎标  签 笑剧 | 美国 | 黑色诙谐 | 恶搞 | 政治 | 2020 | 美国电影 | 电影
◎简  介


  报告波拉特从哈萨克斯坦再度来到美国的故事。
  1. Video
  2. ID                                       : 1
  3. Format                                   : HEVC
  4. Format/Info                              : High Efficiency Video Coding
  5. Format profile                           : Main [email protected]@Main
  6. HDR format                               : SMPTE ST 2094 App 4, Version 1, HDR10+ Profile B compatible
  7. Codec ID                                 : V_MPEGH/ISO/HEVC
  8. Duration                                 : 1 h 36 min
  9. Bit rate                                 : 14.3 Mb/s
  10. Width                                    : 3 840 pixels
  11. Height                                   : 2 160 pixels
  12. Display aspect ratio                     : 16:9
  13. Frame rate mode                          : Constant
  14. Frame rate                               : 23.976 (24000/1001/189150) FPS
  15. Color space                              : YUV
  16. Chroma subsampling                       : 4:2:0
  17. Bit depth                                : 10 bits
  18. Bits/(Pixel*Frame)                       : 0.072
  19. Stream size                              : 9.62 GiB (96%)
  20. Default                                  : Yes
  21. Forced                                   : No
  22. Color range                              : Limited
  23. Color primaries                          : BT.2020
  24. Transfer characteristics                 : PQ
  25. Matrix coefficients                      : BT.2020 non-constant
  26. Mastering display color primaries        : Display P3
  27. Mastering display luminance              : min: 0.0001 cd/m2, max: 1000 cd/m2
  28. Maximum Content Light Level              : 808 cd/m2
  29. Maximum Frame-Average Light Level        : 208 cd/m2

  30. Audio
  31. ID                                       : 2
  32. Format                                   : E-AC-3
  33. Format/Info                              : Enhanced AC-3
  34. Commercial name                          : Dolby Digital Plus
  35. Codec ID                                 : A_EAC3
  36. Duration                                 : 1 h 36 min
  37. Bit rate mode                            : Constant
  38. Bit rate                                 : 640 kb/s
  39. Channel(s)                               : 6 channels
  40. Channel layout                           : L R C LFE Ls Rs
  41. Sampling rate                            : 48.0 kHz
  42. Frame rate                               : 31.250 FPS (1536 SPF)
  43. Compression mode                         : Lossy
  44. Stream size                              : 440 MiB (4%)
  45. Language                                 : English
  46. Service kind                             : Complete Main
  47. Default                                  : Yes
  48. Forced                                   : No

  49. Text #1
  50. ID                                       : 3
  51. Format                                   : UTF-8
  52. Codec ID                                 : S_TEXT/UTF8
  53. Codec ID/Info                            : UTF-8 Plain Text
  54. Duration                                 : 1 h 28 min
  55. Bit rate                                 : 9 b/s
  56. Count of elements                        : 263
  57. Stream size                              : 6.41 KiB (0%)
  58. Title                                    : Forced
  59. Language                                 : English
  60. Default                                  : Yes
  61. Forced                                   : Yes

  62. Text #2
  63. ID                                       : 4
  64. Format                                   : UTF-8
  65. Codec ID                                 : S_TEXT/UTF8
  66. Codec ID/Info                            : UTF-8 Plain Text
  67. Duration                                 : 1 h 35 min
  68. Bit rate                                 : 84 b/s
  69. Count of elements                        : 1959
  70. Stream size                              : 59.0 KiB (0%)
  71. Title                                    : [CC]
  72. Language                                 : English
  73. Default                                  : No
  74. Forced                                   : No

  75. Text #3
  76. ID                                       : 5
  77. Format                                   : UTF-8
  78. Codec ID                                 : S_TEXT/UTF8
  79. Codec ID/Info                            : UTF-8 Plain Text
  80. Duration                                 : 1 h 35 min
  81. Bit rate                                 : 65 b/s
  82. Count of elements                        : 1526
  83. Stream size                              : 45.8 KiB (0%)
  84. Language                                 : Danish
  85. Default                                  : No
  86. Forced                                   : No

  87. Text #4
  88. ID                                       : 6
  89. Format                                   : UTF-8
  90. Codec ID                                 : S_TEXT/UTF8
  91. Codec ID/Info                            : UTF-8 Plain Text
  92. Duration                                 : 1 h 35 min
  93. Bit rate                                 : 69 b/s
  94. Count of elements                        : 1286
  95. Stream size                              : 48.9 KiB (0%)
  96. Language                                 : German
  97. Default                                  : No
  98. Forced                                   : No

  99. Text #5
  100. ID                                       : 7
  101. Format                                   : UTF-8
  102. Codec ID                                 : S_TEXT/UTF8
  103. Codec ID/Info                            : UTF-8 Plain Text
  104. Duration                                 : 1 h 35 min
  105. Bit rate                                 : 66 b/s
  106. Count of elements                        : 1535
  107. Stream size                              : 46.5 KiB (0%)
  108. Title                                    : Latin American
  109. Language                                 : Spanish
  110. Default                                  : No
  111. Forced                                   : No

  112. Text #6
  113. ID                                       : 8
  114. Format                                   : UTF-8
  115. Codec ID                                 : S_TEXT/UTF8
  116. Codec ID/Info                            : UTF-8 Plain Text
  117. Duration                                 : 1 h 35 min
  118. Bit rate                                 : 66 b/s
  119. Count of elements                        : 1513
  120. Stream size                              : 46.5 KiB (0%)
  121. Title                                    : European
  122. Language                                 : Spanish
  123. Default                                  : No
  124. Forced                                   : No

  125. Text #7
  126. ID                                       : 9
  127. Format                                   : UTF-8
  128. Codec ID                                 : S_TEXT/UTF8
  129. Codec ID/Info                            : UTF-8 Plain Text
  130. Duration                                 : 1 h 35 min
  131. Bit rate                                 : 60 b/s
  132. Count of elements                        : 1520
  133. Stream size                              : 42.2 KiB (0%)
  134. Language                                 : Finnish
  135. Default                                  : No
  136. Forced                                   : No

  137. Text #8
  138. ID                                       : 10
  139. Format                                   : UTF-8
  140. Codec ID                                 : S_TEXT/UTF8
  141. Codec ID/Info                            : UTF-8 Plain Text
  142. Duration                                 : 1 h 35 min
  143. Bit rate                                 : 68 b/s
  144. Count of elements                        : 1545
  145. Stream size                              : 48.1 KiB (0%)
  146. Language                                 : French
  147. Default                                  : No
  148. Forced                                   : No

  149. Text #9
  150. ID                                       : 11
  151. Format                                   : UTF-8
  152. Codec ID                                 : S_TEXT/UTF8
  153. Codec ID/Info                            : UTF-8 Plain Text
  154. Duration                                 : 1 h 35 min
  155. Bit rate                                 : 104 b/s
  156. Count of elements                        : 1556
  157. Stream size                              : 72.9 KiB (0%)
  158. Language                                 : Hebrew
  159. Default                                  : No
  160. Forced                                   : No

  161. Text #10
  162. ID                                       : 12
  163. Format                                   : UTF-8
  164. Codec ID                                 : S_TEXT/UTF8
  165. Codec ID/Info                            : UTF-8 Plain Text
  166. Duration                                 : 1 h 35 min
  167. Bit rate                                 : 168 b/s
  168. Count of elements                        : 1557
  169. Stream size                              : 118 KiB (0%)
  170. Language                                 : Hindi
  171. Default                                  : No
  172. Forced                                   : No

  173. Text #11
  174. ID                                       : 13
  175. Format                                   : UTF-8
  176. Codec ID                                 : S_TEXT/UTF8
  177. Codec ID/Info                            : UTF-8 Plain Text
  178. Duration                                 : 1 h 35 min
  179. Bit rate                                 : 66 b/s
  180. Count of elements                        : 1541
  181. Stream size                              : 46.3 KiB (0%)
  182. Language                                 : Indonesian
  183. Default                                  : No
  184. Forced                                   : No

  185. Text #12
  186. ID                                       : 14
  187. Format                                   : UTF-8
  188. Codec ID                                 : S_TEXT/UTF8
  189. Codec ID/Info                            : UTF-8 Plain Text
  190. Duration                                 : 1 h 35 min
  191. Bit rate                                 : 65 b/s
  192. Count of elements                        : 1521
  193. Stream size                              : 45.8 KiB (0%)
  194. Language                                 : Italian
  195. Default                                  : No
  196. Forced                                   : No

  197. Text #13
  198. ID                                       : 15
  199. Format                                   : UTF-8
  200. Codec ID                                 : S_TEXT/UTF8
  201. Codec ID/Info                            : UTF-8 Plain Text
  202. Duration                                 : 1 h 35 min
  203. Bit rate                                 : 70 b/s
  204. Count of elements                        : 1555
  205. Stream size                              : 49.1 KiB (0%)
  206. Language                                 : Japanese
  207. Default                                  : No
  208. Forced                                   : No

  209. Text #14
  210. ID                                       : 16
  211. Format                                   : UTF-8
  212. Codec ID                                 : S_TEXT/UTF8
  213. Codec ID/Info                            : UTF-8 Plain Text
  214. Duration                                 : 1 h 35 min
  215. Bit rate                                 : 76 b/s
  216. Count of elements                        : 1556
  217. Stream size                              : 53.8 KiB (0%)
  218. Language                                 : Korean
  219. Default                                  : No
  220. Forced                                   : No

  221. Text #15
  222. ID                                       : 17
  223. Format                                   : UTF-8
  224. Codec ID                                 : S_TEXT/UTF8
  225. Codec ID/Info                            : UTF-8 Plain Text
  226. Duration                                 : 1 h 35 min
  227. Bit rate                                 : 65 b/s
  228. Count of elements                        : 1542
  229. Stream size                              : 45.7 KiB (0%)
  230. Language                                 : Malay
  231. Default                                  : No
  232. Forced                                   : No

  233. Text #16
  234. ID                                       : 18
  235. Format                                   : UTF-8
  236. Codec ID                                 : S_TEXT/UTF8
  237. Codec ID/Info                            : UTF-8 Plain Text
  238. Duration                                 : 1 h 35 min
  239. Bit rate                                 : 67 b/s
  240. Count of elements                        : 1535
  241. Stream size                              : 47.1 KiB (0%)
  242. Language                                 : Norwegian
  243. Default                                  : No
  244. Forced                                   : No

  245. Text #17
  246. ID                                       : 19
  247. Format                                   : UTF-8
  248. Codec ID                                 : S_TEXT/UTF8
  249. Codec ID/Info                            : UTF-8 Plain Text
  250. Duration                                 : 1 h 35 min
  251. Bit rate                                 : 66 b/s
  252. Count of elements                        : 1527
  253. Stream size                              : 46.6 KiB (0%)
  254. Language                                 : Dutch
  255. Default                                  : No
  256. Forced                                   : No

  257. Text #18
  258. ID                                       : 20
  259. Format                                   : UTF-8
  260. Codec ID                                 : S_TEXT/UTF8
  261. Codec ID/Info                            : UTF-8 Plain Text
  262. Duration                                 : 1 h 35 min
  263. Bit rate                                 : 58 b/s
  264. Count of elements                        : 1530
  265. Stream size                              : 40.9 KiB (0%)
  266. Language                                 : Polish
  267. Default                                  : No
  268. Forced                                   : No

  269. Text #19
  270. ID                                       : 21
  271. Format                                   : UTF-8
  272. Codec ID                                 : S_TEXT/UTF8
  273. Codec ID/Info                            : UTF-8 Plain Text
  274. Duration                                 : 1 h 35 min
  275. Bit rate                                 : 63 b/s
  276. Count of elements                        : 1526
  277. Stream size                              : 44.6 KiB (0%)
  278. Title                                    : Brazilian
  279. Language                                 : Portuguese
  280. Default                                  : No
  281. Forced                                   : No

  282. Text #20
  283. ID                                       : 22
  284. Format                                   : UTF-8
  285. Codec ID                                 : S_TEXT/UTF8
  286. Codec ID/Info                            : UTF-8 Plain Text
  287. Duration                                 : 1 h 35 min
  288. Bit rate                                 : 65 b/s
  289. Count of elements                        : 1533
  290. Stream size                              : 45.6 KiB (0%)
  291. Language                                 : Portuguese
  292. Default                                  : No
  293. Forced                                   : No

  294. Text #21
  295. ID                                       : 23
  296. Format                                   : UTF-8
  297. Codec ID                                 : S_TEXT/UTF8
  298. Codec ID/Info                            : UTF-8 Plain Text
  299. Duration                                 : 1 h 35 min
  300. Bit rate                                 : 109 b/s
  301. Count of elements                        : 1556
  302. Stream size                              : 76.9 KiB (0%)
  303. Language                                 : Russian
  304. Default                                  : No
  305. Forced                                   : No

  306. Text #22
  307. ID                                       : 24
  308. Format                                   : UTF-8
  309. Codec ID                                 : S_TEXT/UTF8
  310. Codec ID/Info                            : UTF-8 Plain Text
  311. Duration                                 : 1 h 35 min
  312. Bit rate                                 : 63 b/s
  313. Count of elements                        : 1523
  314. Stream size                              : 44.2 KiB (0%)
  315. Language                                 : Swedish
  316. Default                                  : No
  317. Forced                                   : No

  318. Text #23
  319. ID                                       : 25
  320. Format                                   : UTF-8
  321. Codec ID                                 : S_TEXT/UTF8
  322. Codec ID/Info                            : UTF-8 Plain Text
  323. Duration                                 : 1 h 35 min
  324. Bit rate                                 : 186 b/s
  325. Count of elements                        : 1554
  326. Stream size                              : 131 KiB (0%)
  327. Language                                 : Tamil
  328. Default                                  : No
  329. Forced                                   : No

  330. Text #24
  331. ID                                       : 26
  332. Format                                   : UTF-8
  333. Codec ID                                 : S_TEXT/UTF8
  334. Codec ID/Info                            : UTF-8 Plain Text
  335. Duration                                 : 1 h 35 min
  336. Bit rate                                 : 185 b/s
  337. Count of elements                        : 1557
  338. Stream size                              : 130 KiB (0%)
  339. Language                                 : Telugu
  340. Default                                  : No
  341. Forced                                   : No

  342. Text #25
  343. ID                                       : 27
  344. Format                                   : UTF-8
  345. Codec ID                                 : S_TEXT/UTF8
  346. Codec ID/Info                            : UTF-8 Plain Text
  347. Duration                                 : 1 h 35 min
  348. Bit rate                                 : 164 b/s
  349. Count of elements                        : 1556
  350. Stream size                              : 115 KiB (0%)
  351. Language                                 : Thai
  352. Default                                  : No
  353. Forced                                   : No

  354. Text #26
  355. ID                                       : 28
  356. Format                                   : UTF-8
  357. Codec ID                                 : S_TEXT/UTF8
  358. Codec ID/Info                            : UTF-8 Plain Text
  359. Duration                                 : 1 h 35 min
  360. Bit rate                                 : 65 b/s
  361. Count of elements                        : 1497
  362. Stream size                              : 45.7 KiB (0%)
  363. Language                                 : Tagalog
  364. Default                                  : No
  365. Forced                                   : No

  366. Text #27
  367. ID                                       : 29
  368. Format                                   : UTF-8
  369. Codec ID                                 : S_TEXT/UTF8
  370. Codec ID/Info                            : UTF-8 Plain Text
  371. Duration                                 : 1 h 35 min
  372. Bit rate                                 : 66 b/s
  373. Count of elements                        : 1557
  374. Stream size                              : 46.5 KiB (0%)
  375. Title                                    : Simplified
  376. Language                                 : Chinese
  377. Default                                  : No
  378. Forced                                   : No

  379. Text #28
  380. ID                                       : 30
  381. Format                                   : UTF-8
  382. Codec ID                                 : S_TEXT/UTF8
  383. Codec ID/Info                            : UTF-8 Plain Text
  384. Duration                                 : 1 h 35 min
  385. Bit rate                                 : 61 b/s
  386. Count of elements                        : 1558
  387. Stream size                              : 43.4 KiB (0%)
  388. Title                                    : Traditional
  389. Language                                 : Chinese
  390. Default                                  : No
  391. Forced                                   : No

  392. Menu
  393. 00:00:00.000                             : en:Amazon Original
  394. 00:00:06.000                             : en:Scene 2
  395. 01:03:45.000                             : en:Scene 3
  396. 01:04:28.000                             : en:Scene 4
  397. 01:30:17.000                             : en:Acknowledgement
  398. 01:30:24.000                             : en:End Credits
复制代码



                                       
                                       

                                       
                                       
                                       




回复

使用道具 举报

懒得打字嘛,点击右侧快捷回复 【右侧内容,后台自定义】
您需要登录后才可以回帖 登录 | 立即加入

本版积分规则

Archiver|小黑屋| 蓝光电影网 |网站地图

Copyright © 2021 Comsenz Inc. Powered by 蓝光电影网

蓝光电影网

本站内容由用户自主分享和转载自互联网,转载目的在于传递更多信息,并不代表本网赞同其观点和对其真实性负责。

如有侵权、违反国家法律政策行为,请联系我们,我们会第一时间及时清除和处理!

举报反馈邮箱:[email protected]

快速回复 返回顶部 返回列表