找回密码

蓝光电影网

查看: 85|回复: 1

[2160p] 大卫·爱登堡:地球上的一段生命旅程/David Attenborough:活在天与地 David.Attenborough.A.Life.on.Our.Planet.2020.2160p.NF.WEB-DL.x265.10bit.HDR.DDP5.1.Atmos-aKraa 8.98GB

[复制链接]
蓝光币
1084
发表于 2020-11-5 09:56:21 | 显示全部楼层 |阅读模式


◎译  名 大卫·爱登堡:地球上的一段生命旅程/David Attenborough:活在天与地(港)/大卫·爱登堡:我和我们的星球/大卫·艾登堡:我和我们的星球/大卫·艾登堡:活在我们的星球(台)
◎片  名 David Attenborough: A Life on Our Planet
◎年  代 2020
◎产  地 英国
◎类  别 记载片 / 列传
◎语  言 英语
◎上映日期 2020-09-28(英国) / 2020-10-04(美国收集)
◎IMDb评分  9.1/10 from 17170 users
◎IMDb链接  https://www.imdb.com/title/tt11989890/
◎豆瓣评分 9.4/10 from 2329 users
◎豆瓣链接 https://movie.douban.com/subject/35200279/
◎片  长 83分钟
◎导  演 艾雷斯泰·法瑟吉尔 Alastair Fothergill / 基思·肖利 Keith Scholey
◎主  演 大卫·爱登堡 David Attenborough
◎标  签 记载片 | 自然 | Netflix | 英国 | DavidAttenborough | 英国记载片 | 2020 | 列传
◎简  介


  在其94年的人生里,他曾到访过地球上的每块大陆,摸索我们星球上的荒原,并记录各类多样的异景。 现在,他第一次深思作为博物学家,平生中的决议性时辰以及所看到的自然界破坏性变化。 由天下自然基金会和屡获殊荣的建造团队Silverback配合建造的这部影片,既是人类对自然影响的第一手材料,也是对先人的期许。
  
  记载片由于COVID-19的大风行,而将天下范围的首映推延到今年9月28日,随后会在Netflix上播出。
  1. Video
  2. ID                                       : 1
  3. Format                                   : HEVC
  4. Format/Info                              : High Efficiency Video Coding
  5. Format profile                           : Main [email protected]@Main
  6. HDR format                               : SMPTE ST 2086, HDR10 compatible
  7. Codec ID                                 : V_MPEGH/ISO/HEVC
  8. Duration                                 : 1 h 22 min
  9. Bit rate                                 : 14.7 Mb/s
  10. Width                                    : 3 840 pixels
  11. Height                                   : 2 160 pixels
  12. Display aspect ratio                     : 16:9
  13. Frame rate mode                          : Constant
  14. Frame rate                               : 23.976 (24000/1001/189150) FPS
  15. Color space                              : YUV
  16. Chroma subsampling                       : 4:2:0 (Type 2)
  17. Bit depth                                : 10 bits
  18. Bits/(Pixel*Frame)                       : 0.074
  19. Stream size                              : 8.53 GiB (95%)
  20. Default                                  : Yes
  21. Forced                                   : No
  22. Color range                              : Limited
  23. Color primaries                          : BT.2020
  24. Transfer characteristics                 : PQ
  25. Matrix coefficients                      : BT.2020 non-constant
  26. Mastering display color primaries        : Display P3
  27. Mastering display luminance              : min: 0.0001 cd/m2, max: 1000 cd/m2
  28. Maximum Content Light Level              : 1310 cd/m2
  29. Maximum Frame-Average Light Level        : 203 cd/m2

  30. Audio
  31. ID                                       : 2
  32. Format                                   : E-AC-3 JOC
  33. Format/Info                              : Enhanced AC-3 with Joint Object Coding
  34. Commercial name                          : Dolby Digital Plus with Dolby Atmos
  35. Codec ID                                 : A_EAC3
  36. Duration                                 : 1 h 23 min
  37. Bit rate mode                            : Constant
  38. Bit rate                                 : 768 kb/s
  39. Channel(s)                               : 6 channels
  40. Channel layout                           : L R C LFE Ls Rs
  41. Sampling rate                            : 48.0 kHz
  42. Frame rate                               : 31.250 FPS (1536 SPF)
  43. Compression mode                         : Lossy
  44. Stream size                              : 460 MiB (5%)
  45. Language                                 : English
  46. Service kind                             : Complete Main
  47. Default                                  : Yes
  48. Forced                                   : No
  49. Complexity index                         : 16
  50. Number of dynamic objects                : 15
  51. Bed channel count                        : 1 channel
  52. Bed channel configuration                : LFE

  53. Text #1
  54. ID                                       : 3
  55. Format                                   : UTF-8
  56. Codec ID                                 : S_TEXT/UTF8
  57. Codec ID/Info                            : UTF-8 Plain Text
  58. Duration                                 : 1 h 15 min
  59. Bit rate                                 : 73 b/s
  60. Count of elements                        : 791
  61. Stream size                              : 40.6 KiB (0%)
  62. Title                                    : [CC]
  63. Language                                 : English
  64. Default                                  : Yes
  65. Forced                                   : No

  66. Text #2
  67. ID                                       : 4
  68. Format                                   : UTF-8
  69. Codec ID                                 : S_TEXT/UTF8
  70. Codec ID/Info                            : UTF-8 Plain Text
  71. Duration                                 : 1 h 22 min
  72. Bit rate                                 : 98 b/s
  73. Count of elements                        : 911
  74. Stream size                              : 59.3 KiB (0%)
  75. Language                                 : Arabic
  76. Default                                  : No
  77. Forced                                   : No

  78. Text #3
  79. ID                                       : 5
  80. Format                                   : UTF-8
  81. Codec ID                                 : S_TEXT/UTF8
  82. Codec ID/Info                            : UTF-8 Plain Text
  83. Duration                                 : 1 h 22 min
  84. Bit rate                                 : 65 b/s
  85. Count of elements                        : 803
  86. Stream size                              : 39.7 KiB (0%)
  87. Language                                 : Czech
  88. Default                                  : No
  89. Forced                                   : No

  90. Text #4
  91. ID                                       : 6
  92. Format                                   : UTF-8
  93. Codec ID                                 : S_TEXT/UTF8
  94. Codec ID/Info                            : UTF-8 Plain Text
  95. Duration                                 : 1 h 22 min
  96. Bit rate                                 : 64 b/s
  97. Count of elements                        : 767
  98. Stream size                              : 38.8 KiB (0%)
  99. Language                                 : Danish
  100. Default                                  : No
  101. Forced                                   : No

  102. Text #5
  103. ID                                       : 7
  104. Format                                   : UTF-8
  105. Codec ID                                 : S_TEXT/UTF8
  106. Codec ID/Info                            : UTF-8 Plain Text
  107. Duration                                 : 1 h 22 min
  108. Bit rate                                 : 61 b/s
  109. Count of elements                        : 882
  110. Stream size                              : 37.0 KiB (0%)
  111. Language                                 : German
  112. Default                                  : No
  113. Forced                                   : No

  114. Text #6
  115. ID                                       : 8
  116. Format                                   : UTF-8
  117. Codec ID                                 : S_TEXT/UTF8
  118. Codec ID/Info                            : UTF-8 Plain Text
  119. Duration                                 : 1 h 22 min
  120. Bit rate                                 : 112 b/s
  121. Count of elements                        : 899
  122. Stream size                              : 67.5 KiB (0%)
  123. Language                                 : Greek
  124. Default                                  : No
  125. Forced                                   : No

  126. Text #7
  127. ID                                       : 9
  128. Format                                   : UTF-8
  129. Codec ID                                 : S_TEXT/UTF8
  130. Codec ID/Info                            : UTF-8 Plain Text
  131. Duration                                 : 1 h 22 min
  132. Bit rate                                 : 71 b/s
  133. Count of elements                        : 771
  134. Stream size                              : 43.5 KiB (0%)
  135. Language                                 : Spanish
  136. Default                                  : No
  137. Forced                                   : No

  138. Text #8
  139. ID                                       : 10
  140. Format                                   : UTF-8
  141. Codec ID                                 : S_TEXT/UTF8
  142. Codec ID/Info                            : UTF-8 Plain Text
  143. Duration                                 : 1 h 22 min
  144. Bit rate                                 : 70 b/s
  145. Count of elements                        : 768
  146. Stream size                              : 42.6 KiB (0%)
  147. Title                                    : European
  148. Language                                 : Spanish
  149. Default                                  : No
  150. Forced                                   : No

  151. Text #9
  152. ID                                       : 11
  153. Format                                   : UTF-8
  154. Codec ID                                 : S_TEXT/UTF8
  155. Codec ID/Info                            : UTF-8 Plain Text
  156. Duration                                 : 1 h 22 min
  157. Bit rate                                 : 60 b/s
  158. Count of elements                        : 769
  159. Stream size                              : 36.5 KiB (0%)
  160. Language                                 : Finnish
  161. Default                                  : No
  162. Forced                                   : No

  163. Text #10
  164. ID                                       : 12
  165. Format                                   : UTF-8
  166. Codec ID                                 : S_TEXT/UTF8
  167. Codec ID/Info                            : UTF-8 Plain Text
  168. Duration                                 : 1 h 22 min
  169. Bit rate                                 : 65 b/s
  170. Count of elements                        : 907
  171. Stream size                              : 39.6 KiB (0%)
  172. Language                                 : French
  173. Default                                  : No
  174. Forced                                   : No

  175. Text #11
  176. ID                                       : 13
  177. Format                                   : UTF-8
  178. Codec ID                                 : S_TEXT/UTF8
  179. Codec ID/Info                            : UTF-8 Plain Text
  180. Duration                                 : 1 h 22 min
  181. Bit rate                                 : 89 b/s
  182. Count of elements                        : 906
  183. Stream size                              : 53.7 KiB (0%)
  184. Language                                 : Hebrew
  185. Default                                  : No
  186. Forced                                   : No

  187. Text #12
  188. ID                                       : 14
  189. Format                                   : UTF-8
  190. Codec ID                                 : S_TEXT/UTF8
  191. Codec ID/Info                            : UTF-8 Plain Text
  192. Duration                                 : 1 h 22 min
  193. Bit rate                                 : 149 b/s
  194. Count of elements                        : 772
  195. Stream size                              : 90.1 KiB (0%)
  196. Language                                 : Hindi
  197. Default                                  : No
  198. Forced                                   : No

  199. Text #13
  200. ID                                       : 15
  201. Format                                   : UTF-8
  202. Codec ID                                 : S_TEXT/UTF8
  203. Codec ID/Info                            : UTF-8 Plain Text
  204. Duration                                 : 1 h 17 min
  205. Bit rate                                 : 58 b/s
  206. Count of elements                        : 884
  207. Stream size                              : 33.2 KiB (0%)
  208. Language                                 : Croatian
  209. Default                                  : No
  210. Forced                                   : No

  211. Text #14
  212. ID                                       : 16
  213. Format                                   : UTF-8
  214. Codec ID                                 : S_TEXT/UTF8
  215. Codec ID/Info                            : UTF-8 Plain Text
  216. Duration                                 : 1 h 22 min
  217. Bit rate                                 : 70 b/s
  218. Count of elements                        : 826
  219. Stream size                              : 42.3 KiB (0%)
  220. Language                                 : Hungarian
  221. Default                                  : No
  222. Forced                                   : No

  223. Text #15
  224. ID                                       : 17
  225. Format                                   : UTF-8
  226. Codec ID                                 : S_TEXT/UTF8
  227. Codec ID/Info                            : UTF-8 Plain Text
  228. Duration                                 : 1 h 22 min
  229. Bit rate                                 : 59 b/s
  230. Count of elements                        : 914
  231. Stream size                              : 36.1 KiB (0%)
  232. Language                                 : Indonesian
  233. Default                                  : No
  234. Forced                                   : No

  235. Text #16
  236. ID                                       : 18
  237. Format                                   : UTF-8
  238. Codec ID                                 : S_TEXT/UTF8
  239. Codec ID/Info                            : UTF-8 Plain Text
  240. Duration                                 : 1 h 22 min
  241. Bit rate                                 : 69 b/s
  242. Count of elements                        : 917
  243. Stream size                              : 42.0 KiB (0%)
  244. Language                                 : Italian
  245. Default                                  : No
  246. Forced                                   : No

  247. Text #17
  248. ID                                       : 19
  249. Format                                   : UTF-8
  250. Codec ID                                 : S_TEXT/UTF8
  251. Codec ID/Info                            : UTF-8 Plain Text
  252. Duration                                 : 1 h 22 min
  253. Bit rate                                 : 63 b/s
  254. Count of elements                        : 835
  255. Stream size                              : 38.0 KiB (0%)
  256. Language                                 : Japanese
  257. Default                                  : No
  258. Forced                                   : No

  259. Text #18
  260. ID                                       : 20
  261. Format                                   : UTF-8
  262. Codec ID                                 : S_TEXT/UTF8
  263. Codec ID/Info                            : UTF-8 Plain Text
  264. Duration                                 : 1 h 22 min
  265. Bit rate                                 : 74 b/s
  266. Count of elements                        : 921
  267. Stream size                              : 45.1 KiB (0%)
  268. Language                                 : Korean
  269. Default                                  : No
  270. Forced                                   : No

  271. Text #19
  272. ID                                       : 21
  273. Format                                   : UTF-8
  274. Codec ID                                 : S_TEXT/UTF8
  275. Codec ID/Info                            : UTF-8 Plain Text
  276. Duration                                 : 1 h 22 min
  277. Bit rate                                 : 56 b/s
  278. Count of elements                        : 892
  279. Stream size                              : 34.3 KiB (0%)
  280. Language                                 : Malay
  281. Default                                  : No
  282. Forced                                   : No

  283. Text #20
  284. ID                                       : 22
  285. Format                                   : UTF-8
  286. Codec ID                                 : S_TEXT/UTF8
  287. Codec ID/Info                            : UTF-8 Plain Text
  288. Duration                                 : 1 h 22 min
  289. Bit rate                                 : 64 b/s
  290. Count of elements                        : 767
  291. Stream size                              : 38.9 KiB (0%)
  292. Language                                 : Norwegian Bokmal
  293. Default                                  : No
  294. Forced                                   : No

  295. Text #21
  296. ID                                       : 23
  297. Format                                   : UTF-8
  298. Codec ID                                 : S_TEXT/UTF8
  299. Codec ID/Info                            : UTF-8 Plain Text
  300. Duration                                 : 1 h 22 min
  301. Bit rate                                 : 59 b/s
  302. Count of elements                        : 763
  303. Stream size                              : 35.7 KiB (0%)
  304. Language                                 : Dutch
  305. Default                                  : No
  306. Forced                                   : No

  307. Text #22
  308. ID                                       : 24
  309. Format                                   : UTF-8
  310. Codec ID                                 : S_TEXT/UTF8
  311. Codec ID/Info                            : UTF-8 Plain Text
  312. Duration                                 : 1 h 22 min
  313. Bit rate                                 : 66 b/s
  314. Count of elements                        : 826
  315. Stream size                              : 40.2 KiB (0%)
  316. Language                                 : Polish
  317. Default                                  : No
  318. Forced                                   : No

  319. Text #23
  320. ID                                       : 25
  321. Format                                   : UTF-8
  322. Codec ID                                 : S_TEXT/UTF8
  323. Codec ID/Info                            : UTF-8 Plain Text
  324. Duration                                 : 1 h 22 min
  325. Bit rate                                 : 72 b/s
  326. Count of elements                        : 934
  327. Stream size                              : 43.7 KiB (0%)
  328. Language                                 : Portuguese
  329. Default                                  : No
  330. Forced                                   : No

  331. Text #24
  332. ID                                       : 26
  333. Format                                   : UTF-8
  334. Codec ID                                 : S_TEXT/UTF8
  335. Codec ID/Info                            : UTF-8 Plain Text
  336. Duration                                 : 1 h 22 min
  337. Bit rate                                 : 60 b/s
  338. Count of elements                        : 867
  339. Stream size                              : 36.3 KiB (0%)
  340. Title                                    : Brazilian
  341. Language                                 : Portuguese
  342. Default                                  : No
  343. Forced                                   : No

  344. Text #25
  345. ID                                       : 27
  346. Format                                   : UTF-8
  347. Codec ID                                 : S_TEXT/UTF8
  348. Codec ID/Info                            : UTF-8 Plain Text
  349. Duration                                 : 1 h 22 min
  350. Bit rate                                 : 69 b/s
  351. Count of elements                        : 877
  352. Stream size                              : 41.8 KiB (0%)
  353. Language                                 : Romanian
  354. Default                                  : No
  355. Forced                                   : No

  356. Text #26
  357. ID                                       : 28
  358. Format                                   : UTF-8
  359. Codec ID                                 : S_TEXT/UTF8
  360. Codec ID/Info                            : UTF-8 Plain Text
  361. Duration                                 : 1 h 22 min
  362. Bit rate                                 : 99 b/s
  363. Count of elements                        : 909
  364. Stream size                              : 60.2 KiB (0%)
  365. Language                                 : Russian
  366. Default                                  : No
  367. Forced                                   : No

  368. Text #27
  369. ID                                       : 29
  370. Format                                   : UTF-8
  371. Codec ID                                 : S_TEXT/UTF8
  372. Codec ID/Info                            : UTF-8 Plain Text
  373. Duration                                 : 1 h 22 min
  374. Bit rate                                 : 68 b/s
  375. Count of elements                        : 764
  376. Stream size                              : 41.3 KiB (0%)
  377. Language                                 : Swedish
  378. Default                                  : No
  379. Forced                                   : No

  380. Text #28
  381. ID                                       : 30
  382. Format                                   : UTF-8
  383. Codec ID                                 : S_TEXT/UTF8
  384. Codec ID/Info                            : UTF-8 Plain Text
  385. Duration                                 : 1 h 22 min
  386. Bit rate                                 : 142 b/s
  387. Count of elements                        : 911
  388. Stream size                              : 85.8 KiB (0%)
  389. Language                                 : Thai
  390. Default                                  : No
  391. Forced                                   : No

  392. Text #29
  393. ID                                       : 31
  394. Format                                   : UTF-8
  395. Codec ID                                 : S_TEXT/UTF8
  396. Codec ID/Info                            : UTF-8 Plain Text
  397. Duration                                 : 1 h 22 min
  398. Bit rate                                 : 60 b/s
  399. Count of elements                        : 854
  400. Stream size                              : 36.2 KiB (0%)
  401. Language                                 : Turkish
  402. Default                                  : No
  403. Forced                                   : No

  404. Text #30
  405. ID                                       : 32
  406. Format                                   : UTF-8
  407. Codec ID                                 : S_TEXT/UTF8
  408. Codec ID/Info                            : UTF-8 Plain Text
  409. Duration                                 : 1 h 22 min
  410. Bit rate                                 : 80 b/s
  411. Count of elements                        : 856
  412. Stream size                              : 48.8 KiB (0%)
  413. Language                                 : Vietnamese
  414. Default                                  : No
  415. Forced                                   : No

  416. Text #31
  417. ID                                       : 33
  418. Format                                   : UTF-8
  419. Codec ID                                 : S_TEXT/UTF8
  420. Codec ID/Info                            : UTF-8 Plain Text
  421. Duration                                 : 1 h 22 min
  422. Bit rate                                 : 54 b/s
  423. Count of elements                        : 869
  424. Stream size                              : 32.9 KiB (0%)
  425. Title                                    : Simplified
  426. Language                                 : Chinese
  427. Default                                  : No
  428. Forced                                   : No

  429. Text #32
  430. ID                                       : 34
  431. Format                                   : UTF-8
  432. Codec ID                                 : S_TEXT/UTF8
  433. Codec ID/Info                            : UTF-8 Plain Text
  434. Duration                                 : 1 h 22 min
  435. Bit rate                                 : 50 b/s
  436. Count of elements                        : 773
  437. Stream size                              : 30.2 KiB (0%)
  438. Title                                    : Traditional
  439. Language                                 : Chinese
  440. Default                                  : No
  441. Forced                                   : No
复制代码




                                       
                                       

                                       
                                       
                                       




大卫·爱登堡:地球上的一段生命旅程/David Attenborough:活在天与地 David.Attenborough.A.Life.on.Our.Planet.2020.2160p.NF.WEB-DL.x265.10bit.HDR.DDP5.1.Atmos-aKraa 8.98GB

David.Attenborough.A.Life.on.Our.Planet.2020.2160p.NF.WEB-DL.x265.10bit.HDR.DDP5.zip

46.51 KB, 下载次数: 2, 下载积分: 蓝光币 -2

回复

使用道具 举报

蓝光币
79
发表于 2022-11-12 20:41:38 | 显示全部楼层
感谢分享
回复

使用道具 举报

懒得打字嘛,点击右侧快捷回复 【右侧内容,后台自定义】
您需要登录后才可以回帖 登录 | 立即加入

本版积分规则

Archiver|小黑屋| 蓝光电影网 |网站地图

Copyright © 2021 Comsenz Inc. Powered by 蓝光电影网

蓝光电影网

本站内容由用户自主分享和转载自互联网,转载目的在于传递更多信息,并不代表本网赞同其观点和对其真实性负责。

如有侵权、违反国家法律政策行为,请联系我们,我们会第一时间及时清除和处理!

举报反馈邮箱:[email protected]

快速回复 返回顶部 返回列表