找回密码

蓝光电影网

查看: 262|回复: 0

[UHD.HEVC] 心灵奇旅/心灵 Soul.2020.2160p.BluRay.REMUX.HEVC.DTS-HD.MA.TrueHD.7.1.Atmos-FGT 43.46GB

[复制链接]
蓝光币
1080
发表于 2021-5-13 15:45:27 | 显示全部楼层 |阅读模式


◎译  名 心灵奇旅/心灵/灵魂/灵魂奇遇记(港)/灵魂急转弯(台)
◎片  名 Soul
◎年  代 2020
◎产  地 美国
◎类  别 动画 / 音乐 / 奇异
◎语  言 英语
◎上映日期 2020-10-11(伦敦电影节) / 2020-12-25(中国大陆/美国收集)
◎IMDb评分  8.1/10 from 236958 users
◎IMDb链接  https://www.imdb.com/title/tt2948372/
◎豆瓣评分 8.8/10 from 670757 users
◎豆瓣链接 https://movie.douban.com/subject/24733428/
◎片  长 101分钟
◎导  演 彼特·道格特 Pete Docter / 凯普·鲍尔斯 Kemp Powers
◎编  剧 彼特·道格特 Pete Docter / 麦克·琼斯 Mike Jones / 凯普·鲍尔斯 Kemp Powers
◎主  演 杰米·福克斯 Jamie Foxx
       蒂娜·菲 Tina Fey
       菲利西亚·拉斯海德 Phylicia Rashad
       阿米尔-卡利布·汤普森 Ahmir-Khalib Thompson
       戴维德·迪格斯 Daveed Diggs
       格拉汉姆·诺顿 Graham Norton
       瑞切尔·豪斯 Rachel House
       艾莉丝·布拉加 Alice Braga
       理查德·艾欧阿德 Richard Ayoade
       唐尼尔·罗林斯 Donnell Rawlings
       安吉拉·贝塞特 Angela Bassett
       马戈·霍尔 Margo Hall
       罗德莎·琼斯 Rhodessa Jones
       韦斯·斯塔迪 Wes Studi
       沙基纳·贾弗里 Sakina Jaffrey
       福琼·费姆斯特 Fortune Feimster
       卡鲁姆·格兰特 Calum Grant
       泽诺比娅·谢罗夫 Zenobia Shroff
       朱恩·斯奎布 June Squibb
       凯茜·卡瓦蒂妮 Cathy Cavadini
       罗纳尔多·德尔·卡门 Ronaldo Del Carmen
       Elisapie Isaac
       杰森·佩斯 Jason Pace
       科拉·尚波米耶 Cora Champommier
       约翰·拉岑贝格 John Ratzenberger
◎标  签 皮克斯 | 长大 | 迪士尼 | 动画 | 动画电影 | 美国 | 2020 | Pixar
◎简  介


  究竟是什么塑造了实在的你?电影将聚焦乔伊·高纳(杰米·福克斯配音)。这位中学音乐教员获得了求之不得的机遇——在纽约最好的爵士俱乐部演奏。但一个小失误把他从纽约的街道带到了一个奇异的地方“生之来处”(the Great Before)。在那边,灵魂们获得培训,在前往地球之前将获得他们的本性特点和爱好。决心要回到地球生活的乔伊熟悉了一个早熟的灵魂“二十二”(蒂娜·菲 配音),二十二一向找不到自己对于人类生活的爱好。随着乔伊不竭试图向二十二展现生命的出色之处,他也将贯通一些人生终极题目标答案。
◎获奖情况
  第73届戛纳电影节 ?(2020)
  动画片(提名)
  
  第78届金球奖 ?(2021)
  电影类最好动画长片
  电影类最好原创配乐
  
  第74届英国电影学院奖 ?(2021)
  电影奖最好动画片 凯普·鲍尔斯?/?彼特·道格特
  电影奖最好原创配乐
  电影奖最好音效(提名)
  
  第48届动画安妮奖 ?(2021)
  最好动画长片
  最好导演(提名) 凯普·鲍尔斯?/?彼特·道格特
  最好编剧
  最好配乐
  最好剪辑
  最好分镜
  最好艺术指导(提名)
  最好动画脚色
  最好脚色设想(提名)
  最好动画结果
  
  第32届美国制片野生会奖 ?(2021)
  最好动画片制片人奖
  
  第71届美国剪辑工会奖 ?(2021)
  动画片最好剪辑 凯文·诺尔廷
  
  第25届美国艺术指导工会奖 ?(2021)
  电影奖最好动画电影艺术指导(提名) 史蒂夫·皮尔彻
  
  第68届美国音效剪辑协会奖 ?(2021)
  金卷轴奖最好动画片音效剪辑
  
  第19届美国视觉结果协会奖 ?(2021)
  最好动画电影视觉结果
  最好动画电影CG动画脚色
  最好动画电影CG布景
  最好动画电影模拟动画结果
  
  第57届美国声音结果协会奖 ?(2021)
  动画电影最好音效
  
  第92届美国国家批评协会奖 ?(2020)
  最好动画片
  年度佳片
  
  第26届美国批评家挑选电影奖 ?(2021)
  最好配乐 特伦特·雷诺?/?阿提喀斯·罗斯?/?乔纳森·巴蒂斯特
  
  第21届美国电影学会奖 ?(2020)
  年度佳片
  
  第25届金卫星奖 ?(2021)
  电影部分最好动画片(提名)
  电影部分最好原创剧本(提名) 麦克·琼斯?/?彼特·道格特?/?凯普·鲍尔斯
  
  第41届伦敦影评人协会奖 ?(2021)
  技术成就奖(提名) 彼特·道格特
  
  第46届洛杉矶影评人协会奖 ?(2020)
  最好配乐 特伦特·雷诺?/?阿提喀斯·罗斯
  最好动画片(提名)
  
  第33届芝加哥影评人协会奖 ?(2020)
  最好原创剧本(提名) 麦克·琼斯?/?彼特·道格特?/?凯普·鲍尔斯
  最好动画片(提名)
  最好原创配乐 特伦特·雷诺?/?阿提喀斯·罗斯?/?乔纳森·巴蒂斯特
  
  第5届亚特兰大影评人协会奖 ?(2020)
  十佳影片(提名)
  最好动画片
  最好原创配乐 特伦特·雷诺?/?阿提喀斯·罗斯
  
  第24届美国在线影评人协会奖 ?(2021)
  最好影片(提名)
  最好原创配乐 特伦特·雷诺?/?阿提喀斯·罗斯
  最好动画片
  1. Video
  2. ID                                       : 1
  3. ID in the original source medium         : 4113 (0x1011)
  4. Format                                   : HEVC
  5. Format/Info                              : High Efficiency Video Coding
  6. Format profile                           : Main [email protected]@High
  7. HDR format                               : SMPTE ST 2086, HDR10 compatible
  8. Codec ID                                 : V_MPEGH/ISO/HEVC
  9. Duration                                 : 1 h 40 min
  10. Bit rate                                 : 46.6 Mb/s
  11. Width                                    : 3 840 pixels
  12. Height                                   : 2 160 pixels
  13. Display aspect ratio                     : 16:9
  14. Frame rate mode                          : Constant
  15. Frame rate                               : 23.976 (24000/1001/189150) FPS
  16. Color space                              : YUV
  17. Chroma subsampling                       : 4:2:0 (Type 2)
  18. Bit depth                                : 10 bits
  19. Bits/(Pixel*Frame)                       : 0.234
  20. Stream size                              : 32.7 GiB (75%)
  21. Writing library                          : ATEME Titan File 3.9.6 (4.9.6.2)        
  22. Language                                 : English
  23. Default                                  : No
  24. Forced                                   : No
  25. Color range                              : Limited
  26. Color primaries                          : BT.2020
  27. Transfer characteristics                 : PQ
  28. Matrix coefficients                      : BT.2020 non-constant
  29. Mastering display color primaries        : Display P3
  30. Mastering display luminance              : min: 0.0000 cd/m2, max: 1000 cd/m2
  31. Original source medium                   : Blu-ray

  32. Audio #1
  33. ID                                       : 2
  34. ID in the original source medium         : 4352 (0x1100)
  35. Format                                   : MLP FBA 16-ch
  36. Format/Info                              : Meridian Lossless Packing FBA with 16-channel presentation
  37. Commercial name                          : Dolby TrueHD with Dolby Atmos
  38. Codec ID                                 : A_TRUEHD
  39. Duration                                 : 1 h 40 min
  40. Bit rate mode                            : Variable
  41. Bit rate                                 : 5 763 kb/s
  42. Maximum bit rate                         : 9 087 kb/s
  43. Channel(s)                               : 8 channels
  44. Channel layout                           : L R C LFE Ls Rs Lb Rb
  45. Sampling rate                            : 48.0 kHz
  46. Frame rate                               : 1 200.000 FPS (40 SPF)
  47. Compression mode                         : Lossless
  48. Stream size                              : 4.05 GiB (9%)
  49. Title                                    : TrueHD 7.1 Atmos
  50. Language                                 : English
  51. Default                                  : Yes
  52. Forced                                   : No
  53. Original source medium                   : Blu-ray
  54. Number of dynamic objects                : 13
  55. Bed channel count                        : 1 channel
  56. Bed channel configuration                : LFE

  57. Audio #2
  58. ID                                       : 3
  59. Format                                   : DTS XLL
  60. Format/Info                              : Digital Theater Systems
  61. Commercial name                          : DTS-HD Master Audio
  62. Codec ID                                 : A_DTS
  63. Duration                                 : 1 h 40 min
  64. Bit rate mode                            : Variable
  65. Bit rate                                 : 4 316 kb/s
  66. Channel(s)                               : 8 channels
  67. Channel layout                           : C L R LFE Lb Rb Lss Rss
  68. Sampling rate                            : 48.0 kHz
  69. Frame rate                               : 93.750 FPS (512 SPF)
  70. Bit depth                                : 24 bits
  71. Compression mode                         : Lossless
  72. Stream size                              : 3.03 GiB (7%)
  73. Title                                    : DTS-HD M A7.1
  74. Language                                 : English
  75. Default                                  : No
  76. Forced                                   : No

  77. Audio #3
  78. ID                                       : 4
  79. ID in the original source medium         : 4352 (0x1100)
  80. Format                                   : AC-3
  81. Format/Info                              : Audio Coding 3
  82. Commercial name                          : Dolby Digital
  83. Codec ID                                 : A_AC3
  84. Duration                                 : 1 h 40 min
  85. Bit rate mode                            : Constant
  86. Bit rate                                 : 640 kb/s
  87. Channel(s)                               : 6 channels
  88. Channel layout                           : L R C LFE Ls Rs
  89. Sampling rate                            : 48.0 kHz
  90. Frame rate                               : 31.250 FPS (1536 SPF)
  91. Compression mode                         : Lossy
  92. Stream size                              : 460 MiB (1%)
  93. Title                                    : DD 5.1
  94. Language                                 : English
  95. Service kind                             : Complete Main
  96. Default                                  : No
  97. Forced                                   : No
  98. Original source medium                   : Blu-ray

  99. Audio #4
  100. ID                                       : 5
  101. Format                                   : E-AC-3
  102. Format/Info                              : Enhanced AC-3
  103. Commercial name                          : Dolby Digital Plus
  104. Format profile                           : Blu-ray Disc
  105. Codec ID                                 : A_EAC3
  106. Duration                                 : 1 h 40 min
  107. Bit rate mode                            : Constant
  108. Bit rate                                 : 1 024 kb/s
  109. Channel(s)                               : 8 channels
  110. Channel layout                           : L R C LFE Ls Rs Lb Rb
  111. Sampling rate                            : 48.0 kHz
  112. Frame rate                               : 31.250 FPS (1536 SPF)
  113. Compression mode                         : Lossy
  114. Stream size                              : 736 MiB (2%)
  115. Title                                    : DDP 7.1
  116. Language                                 : English
  117. Service kind                             : Complete Main
  118. Default                                  : No
  119. Forced                                   : No

  120. Audio #5
  121. ID                                       : 6
  122. ID in the original source medium         : 4353 (0x1101)
  123. Format                                   : AC-3
  124. Format/Info                              : Audio Coding 3
  125. Commercial name                          : Dolby Digital
  126. Codec ID                                 : A_AC3
  127. Duration                                 : 1 h 40 min
  128. Bit rate mode                            : Constant
  129. Bit rate                                 : 576 kb/s
  130. Channel(s)                               : 6 channels
  131. Channel layout                           : L R C LFE Ls Rs
  132. Sampling rate                            : 48.0 kHz
  133. Frame rate                               : 31.250 FPS (1536 SPF)
  134. Compression mode                         : Lossy
  135. Stream size                              : 414 MiB (1%)
  136. Title                                    : DD 5.1
  137. Language                                 : English
  138. Service kind                             : Complete Main
  139. Default                                  : No
  140. Forced                                   : No
  141. Original source medium                   : Blu-ray

  142. Audio #6
  143. ID                                       : 7
  144. ID in the original source medium         : 4354 (0x1102)
  145. Format                                   : AC-3
  146. Format/Info                              : Audio Coding 3
  147. Commercial name                          : Dolby Digital
  148. Codec ID                                 : A_AC3
  149. Duration                                 : 1 h 40 min
  150. Bit rate mode                            : Constant
  151. Bit rate                                 : 640 kb/s
  152. Channel(s)                               : 6 channels
  153. Channel layout                           : L R C LFE Ls Rs
  154. Sampling rate                            : 48.0 kHz
  155. Frame rate                               : 31.250 FPS (1536 SPF)
  156. Compression mode                         : Lossy
  157. Stream size                              : 460 MiB (1%)
  158. Title                                    : DD 5.1
  159. Language                                 : English
  160. Service kind                             : Complete Main
  161. Default                                  : No
  162. Forced                                   : No
  163. Original source medium                   : Blu-ray

  164. Audio #7
  165. ID                                       : 8
  166. ID in the original source medium         : 4355 (0x1103)
  167. Format                                   : AC-3
  168. Format/Info                              : Audio Coding 3
  169. Commercial name                          : Dolby Digital
  170. Codec ID                                 : A_AC3
  171. Duration                                 : 1 h 40 min
  172. Bit rate mode                            : Constant
  173. Bit rate                                 : 320 kb/s
  174. Channel(s)                               : 2 channels
  175. Channel layout                           : L R
  176. Sampling rate                            : 48.0 kHz
  177. Frame rate                               : 31.250 FPS (1536 SPF)
  178. Compression mode                         : Lossy
  179. Stream size                              : 230 MiB (1%)
  180. Title                                    : DD 2.0
  181. Language                                 : English
  182. Service kind                             : Complete Main
  183. Default                                  : No
  184. Forced                                   : No
  185. Original source medium                   : Blu-ray

  186. Audio #8
  187. ID                                       : 9
  188. ID in the original source medium         : 4356 (0x1104)
  189. Format                                   : AC-3
  190. Format/Info                              : Audio Coding 3
  191. Commercial name                          : Dolby Digital
  192. Codec ID                                 : A_AC3
  193. Duration                                 : 1 h 40 min
  194. Bit rate mode                            : Constant
  195. Bit rate                                 : 320 kb/s
  196. Channel(s)                               : 2 channels
  197. Channel layout                           : L R
  198. Sampling rate                            : 48.0 kHz
  199. Frame rate                               : 31.250 FPS (1536 SPF)
  200. Compression mode                         : Lossy
  201. Stream size                              : 230 MiB (1%)
  202. Title                                    : DD 2.0
  203. Language                                 : English
  204. Service kind                             : Complete Main
  205. Default                                  : No
  206. Forced                                   : No
  207. Original source medium                   : Blu-ray

  208. Audio #9
  209. ID                                       : 10
  210. Format                                   : E-AC-3
  211. Format/Info                              : Enhanced AC-3
  212. Commercial name                          : Dolby Digital Plus
  213. Format profile                           : Blu-ray Disc
  214. Codec ID                                 : A_EAC3
  215. Duration                                 : 1 h 40 min
  216. Bit rate mode                            : Constant
  217. Bit rate                                 : 1 024 kb/s
  218. Channel(s)                               : 8 channels
  219. Channel layout                           : L R C LFE Ls Rs Lb Rb
  220. Sampling rate                            : 48.0 kHz
  221. Frame rate                               : 31.250 FPS (1536 SPF)
  222. Compression mode                         : Lossy
  223. Stream size                              : 736 MiB (2%)
  224. Title                                    : DDP 7.1
  225. Language                                 : Spanish
  226. Service kind                             : Complete Main
  227. Default                                  : No
  228. Forced                                   : No

  229. Audio #10
  230. ID                                       : 11
  231. ID in the original source medium         : 4357 (0x1105)
  232. Format                                   : AC-3
  233. Format/Info                              : Audio Coding 3
  234. Commercial name                          : Dolby Digital
  235. Codec ID                                 : A_AC3
  236. Duration                                 : 1 h 40 min
  237. Bit rate mode                            : Constant
  238. Bit rate                                 : 576 kb/s
  239. Channel(s)                               : 6 channels
  240. Channel layout                           : L R C LFE Ls Rs
  241. Sampling rate                            : 48.0 kHz
  242. Frame rate                               : 31.250 FPS (1536 SPF)
  243. Compression mode                         : Lossy
  244. Stream size                              : 414 MiB (1%)
  245. Title                                    : DD 5.1
  246. Language                                 : Spanish
  247. Service kind                             : Complete Main
  248. Default                                  : No
  249. Forced                                   : No
  250. Original source medium                   : Blu-ray

  251. Text #1
  252. ID                                       : 12
  253. Format                                   : UTF-8
  254. Codec ID                                 : S_TEXT/UTF8
  255. Codec ID/Info                            : UTF-8 Plain Text
  256. Duration                                 : 1 h 39 min
  257. Bit rate                                 : 68 b/s
  258. Count of elements                        : 1605
  259. Stream size                              : 50.3 KiB (0%)
  260. Title                                    : English-SRT
  261. Language                                 : English
  262. Default                                  : Yes
  263. Forced                                   : No

  264. Text #2
  265. ID                                       : 13
  266. ID in the original source medium         : 4768 (0x12A0)
  267. Format                                   : PGS
  268. Muxing mode                              : zlib
  269. Codec ID                                 : S_HDMV/PGS
  270. Codec ID/Info                            : Picture based subtitle format used on BDs/HD-DVDs
  271. Duration                                 : 1 h 40 min
  272. Bit rate                                 : 51.2 kb/s
  273. Count of elements                        : 3710
  274. Stream size                              : 36.8 MiB (0%)
  275. Title                                    : English-PGS
  276. Language                                 : English
  277. Default                                  : No
  278. Forced                                   : No
  279. Original source medium                   : Blu-ray

  280. Text #3
  281. ID                                       : 14
  282. ID in the original source medium         : 4769 (0x12A1)
  283. Format                                   : PGS
  284. Muxing mode                              : zlib
  285. Codec ID                                 : S_HDMV/PGS
  286. Codec ID/Info                            : Picture based subtitle format used on BDs/HD-DVDs
  287. Duration                                 : 1 h 39 min
  288. Bit rate                                 : 40.3 kb/s
  289. Count of elements                        : 2677
  290. Stream size                              : 28.8 MiB (0%)
  291. Title                                    : Spanish-PGS
  292. Language                                 : Spanish
  293. Default                                  : No
  294. Forced                                   : No
  295. Original source medium                   : Blu-ray

  296. Menu
  297. 00:00:00.000                             : en:Chapter 01
  298. 00:03:32.337                             : en:Chapter 02
  299. 00:04:57.922                             : en:Chapter 03
  300. 00:08:43.064                             : en:Chapter 04
  301. 00:09:18.808                             : en:Chapter 05
  302. 00:11:49.333                             : en:Chapter 06
  303. 00:12:29.457                             : en:Chapter 07
  304. 00:15:03.569                             : en:Chapter 08
  305. 00:17:11.947                             : en:Chapter 09
  306. 00:18:24.686                             : en:Chapter 10
  307. 00:19:53.984                             : en:Chapter 11
  308. 00:21:29.663                             : en:Chapter 12
  309. 00:26:00.058                             : en:Chapter 13
  310. 00:29:47.535                             : en:Chapter 14
  311. 00:36:07.582                             : en:Chapter 15
  312. 00:38:22.091                             : en:Chapter 16
  313. 00:39:53.307                             : en:Chapter 17
  314. 00:41:55.804                             : en:Chapter 18
  315. 00:43:43.621                             : en:Chapter 19
  316. 00:44:29.166                             : en:Chapter 20
  317. 00:46:06.263                             : en:Chapter 21
  318. 00:49:38.183                             : en:Chapter 22
  319. 00:50:40.537                             : en:Chapter 23
  320. 00:51:28.126                             : en:Chapter 24
  321. 00:55:31.328                             : en:Chapter 25
  322. 00:56:59.624                             : en:Chapter 26
  323. 00:58:33.927                             : en:Chapter 27
  324. 01:00:31.502                             : en:Chapter 28
  325. 01:04:48.551                             : en:Chapter 29
  326. 01:07:53.360                             : en:Chapter 30
  327. 01:09:15.484                             : en:Chapter 31
  328. 01:12:33.974                             : en:Chapter 32
  329. 01:15:32.236                             : en:Chapter 33
  330. 01:17:23.639                             : en:Chapter 34
  331. 01:21:15.453                             : en:Chapter 35
  332. 01:22:57.806                             : en:Chapter 36
  333. 01:26:43.323                             : en:Chapter 37
  334. 01:28:32.307                             : en:Chapter 38
  335. 01:30:13.574                             : en:Chapter 39
复制代码





                                       
                                       

                                       
                                       
                                       




回复

使用道具 举报

懒得打字嘛,点击右侧快捷回复 【右侧内容,后台自定义】
您需要登录后才可以回帖 登录 | 立即加入

本版积分规则

Archiver|小黑屋| 蓝光电影网 |网站地图

Copyright © 2021 Comsenz Inc. Powered by 蓝光电影网

蓝光电影网

本站内容由用户自主分享和转载自互联网,转载目的在于传递更多信息,并不代表本网赞同其观点和对其真实性负责。

如有侵权、违反国家法律政策行为,请联系我们,我们会第一时间及时清除和处理!

举报反馈邮箱:[email protected]

快速回复 返回顶部 返回列表