找回密码

蓝光电影网

查看: 782|回复: 0

[2160p] 汉密尔顿/汉密尔顿音乐剧 Hamilton.2020.2160p.WEBRip.DDP5.1.Atmos.x265-TEPES 23.04GB

[复制链接]
蓝光币
1704
发表于 2020-11-1 23:08:54 | 显示全部楼层 |阅读模式


◎译  名 汉密尔顿/汉密尔顿音乐剧
◎片  名 Hamilton
◎年  代 2020
◎产  地 美国
◎类  别 歌舞 / 历史
◎语  言 英语
◎上映日期 2020-07-03(美国)
◎IMDb评分  8.6/10 from 45103 users
◎IMDb链接  https://www.imdb.com/title/tt8503618/
◎豆瓣评分 9.5/10 from 38633 users
◎豆瓣链接 https://movie.douban.com/subject/34961898/
◎片  长 160分钟
◎导  演 托马斯·凯尔 Thomas Kail
◎编  剧 林-曼努尔·米兰达 Lin-Manuel Miranda / 罗恩·切尔诺夫 Ron Chernow
◎主  演 林-曼努尔·米兰达 Lin-Manuel Miranda
       小莱斯利·奥多姆 Leslie Odom Jr.
       戴维德·迪格斯 Daveed Diggs
       芮妮·戈兹贝里 Renee Goldsberry
       菲莉帕·苏 Phillipa Soo
       乔纳森·格罗夫 Jonathan Groff
       克里斯·杰克逊 Chris Jackson
       雅斯曼·塞斯·琼斯 Jasmine Cephas Jones
       奥基里特·奥诺多瓦 Okieriete Onaodowan
       安东尼·拉莫斯 Anthony Ramos
       卡利·贝蒂奥尔 Carleigh Bettiol
       阿丽亚娜·德博斯 Ariana DeBose
       霍普·伊斯特布鲁克 Hope Easterbrook
       西德尼·詹姆斯·哈考特 Sydney James Harcourt
       萨莎·赫金斯 Sasha Hutchings
       伊弗雷姆·赛克斯 Ephraim Sykes
       艾美·拉韦尔-兰普曼 Emmy Raver-Lampman
       Austin Smith
       Thayne Jasperson
◎标  签 音乐剧 | 百老汇 | 美国 | 音乐 | 舞台剧 | 历史 | 列传 | 歌舞
◎简  介


  Lin-Manuel Miranda 打造的典范百老汇音乐剧《汉密尔顿》在纽约理查德·罗杰斯戏院官录原卡现场
  1. Video
  2. ID                                       : 1
  3. Format                                   : HEVC
  4. Format/Info                              : High Efficiency Video Coding
  5. Format profile                           : [email protected]@High
  6. Codec ID                                 : V_MPEGH/ISO/HEVC
  7. Duration                                 : 2 h 40 min
  8. Bit rate                                 : 19.8 Mb/s
  9. Width                                    : 3 840 pixels
  10. Height                                   : 2 160 pixels
  11. Display aspect ratio                     : 16:9
  12. Frame rate mode                          : Constant
  13. Frame rate                               : 23.976 (24000/1001/189150) FPS
  14. Color space                              : YUV
  15. Chroma subsampling                       : 4:2:0
  16. Bit depth                                : 8 bits
  17. Bits/(Pixel*Frame)                       : 0.100
  18. Stream size                              : 22.2 GiB (96%)
  19. Writing library                          : x265 3.3:[Linux][GCC 7.5.0][64 bit] 8bit+10bit+12bit
  20. Encoding settings                        : cpuid=1111039 / frame-threads=16 / wpp / no-pmode / no-pme / no-psnr / no-ssim / log-level=2 / input-csp=1 / input-res=3840x2160 / interlace=0 / total-frames=0 / level-idc=50 / high-tier=1 / uhd-bd=0 / ref=2 / no-allow-non-conformance / repeat-headers / annexb / no-aud / no-hrd / info / hash=0 / no-temporal-layers / no-open-gop / min-keyint=48 / keyint=48 / gop-lookahead=0 / bframes=4 / b-adapt=0 / b-pyramid / bframe-bias=0 / rc-lookahead=20 / lookahead-slices=8 / scenecut=0 / hist-scenecut=0 / radl=0 / no-splice / no-intra-refresh / ctu=32 / min-cu-size=8 / no-rect / no-amp / max-tu-size=16 / tu-inter-depth=2 / tu-intra-depth=2 / limit-tu=0 / rdoq-level=1 / dynamic-rd=0.00 / no-ssim-rd / signhide / no-tskip / nr-intra=0 / nr-inter=0 / no-constrained-intra / no-strong-intra-smoothing / max-merge=3 / limit-refs=1 / no-limit-modes / me=1 / subme=2 / merange=44 / temporal-mvp / no-frame-dup / no-hme / weightp / no-weightb / no-analyze-src-pics / deblock=0:0 / no-sao / no-sao-non-deblock / rd=4 / selective-sao=0 / early-skip / rskip / no-fast-intra / no-tskip-fast / no-cu-lossless / b-intra / no-splitrd-skip / rdpenalty=1 / psy-rd=1.60 / psy-rdoq=5.00 / no-rd-refine / no-lossless / cbqpoffs=0 / crqpoffs=0 / rc=abr / bitrate=20000 / qcomp=0.75 / qpstep=4 / stats-write=0 / stats-read=0 / vbv-maxrate=24000 / vbv-bufsize=40000 / vbv-init=0.9 / ipratio=1.40 / pbratio=1.30 / aq-mode=3 / aq-strength=1.00 / no-cutree / zone-count=0 / no-strict-cbr / qg-size=32 / no-rc-grain / qpmax=69 / qpmin=0 / no-const-vbv / sar=1 / overscan=0 / videoformat=5 / range=0 / colorprim=1 / transfer=1 / colormatrix=1 / chromaloc=0 / display-window=0 / cll=0,0 / min-luma=0 / max-luma=255 / log2-max-poc-lsb=8 / vui-timing-info / vui-hrd-info / slices=1 / no-opt-qp-pps / no-opt-ref-list-length-pps / no-multi-pass-opt-rps / scenecut-bias=0.00 / hist-threshold=0.01 / no-opt-cu-delta-qp / no-aq-motion / no-hdr10 / no-hdr10-opt / no-dhdr10-opt / no-idr-recovery-sei / analysis-reuse-level=0 / analysis-save-reuse-level=0 / analysis-load-reuse-level=0 / scale-factor=0 / refine-intra=0 / refine-inter=0 / refine-mv=1 / refine-ctu-distortion=0 / no-limit-sao / ctu-info=0 / no-lowpass-dct / refine-analysis-type=0 / copy-pic=1 / max-ausize-factor=1.0 / no-dynamic-refine / no-single-sei / no-hevc-aq / no-svt / no-field / qp-adaptation-range=1.00 / no-scenecut-aware-qpconformance-window-offsets / right=0 / bottom=0
  21. Default                                  : Yes
  22. Forced                                   : No
  23. Color range                              : Limited
  24. Color primaries                          : BT.709
  25. Transfer characteristics                 : BT.709
  26. Matrix coefficients                      : BT.709
  27. Audio
  28. ID                                       : 2
  29. Format                                   : E-AC-3 JOC
  30. Format/Info                              : Enhanced AC-3 with Joint Object Coding
  31. Commercial name                          : Dolby Digital Plus with Dolby Atmos
  32. Codec ID                                 : A_EAC3
  33. Duration                                 : 2 h 40 min
  34. Bit rate mode                            : Constant
  35. Bit rate                                 : 768 kb/s
  36. Channel(s)                               : 6 channels
  37. Channel layout                           : L R C LFE Ls Rs
  38. Sampling rate                            : 48.0 kHz
  39. Frame rate                               : 31.250 FPS (1536 SPF)
  40. Compression mode                         : Lossy
  41. Delay relative to video                  : 48 ms
  42. Stream size                              : 880 MiB (4%)
  43. Language                                 : English
  44. Service kind                             : Complete Main
  45. Default                                  : Yes
  46. Forced                                   : No
  47. Complexity index                         : 16
  48. Number of dynamic objects                : 15
  49. Bed channel count                        : 1 channel
  50. Bed channel configuration                : LFE
  51. Text
  52. ID                                       : 3
  53. Format                                   : UTF-8
  54. Codec ID                                 : S_TEXT/UTF8
  55. Codec ID/Info                            : UTF-8 Plain Text
  56. Duration                                 : 2 h 39 min
  57. Bit rate                                 : 138 b/s
  58. Count of elements                        : 3148
  59. Stream size                              : 162 KiB (0%)
  60. Title                                    : SDH
  61. Language                                 : English
  62. Default                                  : No
  63. Forced                                   : No
复制代码




                                       
                                       

                                       
                                       
                                       




回复

使用道具 举报

懒得打字嘛,点击右侧快捷回复 【右侧内容,后台自定义】
您需要登录后才可以回帖 登录 | 立即加入

本版积分规则

Archiver|小黑屋| 蓝光电影网 |网站地图

Copyright © 2021 Comsenz Inc. Powered by 蓝光电影网

蓝光电影网

本站内容由用户自主分享和转载自互联网,转载目的在于传递更多信息,并不代表本网赞同其观点和对其真实性负责。

如有侵权、违反国家法律政策行为,请联系我们,我们会第一时间及时清除和处理!

举报反馈邮箱:4k1080.com@gmail.com

快速回复 返回顶部 返回列表