找回密码

蓝光电影网

查看: 203|回复: 0

[UHD.HEVC] 蝙蝠侠大战超人:正义黎明 Batman.v.Superman.Dawn.of.Justice.2016.EXTENDED.IMAX.2160p.BluRay.REMUX.HEVC.DTS-HD.MA.TrueHD.7.1.Atmos-FGT 81.71GB

[复制链接]
蓝光币
1080
发表于 2021-5-13 15:42:55 | 显示全部楼层 |阅读模式


◎译  名 蝙蝠侠大战超人:正义拂晓/Batman vs. Superman/BvS/蝙蝠侠与超人:正义拂晓/蝙蝠侠大战超人/蝙蝠侠对超人:正义曙光(港/台)
◎片  名 Batman v Superman: Dawn of Justice
◎年  代 2016
◎产  地 美国
◎类  别 行动 / 科幻 / 奇异 / 冒险
◎语  言 英语,西班牙语,俄语
◎上映日期 2016-03-25(中国大陆/美国)
◎IMDb评分  6.4/10 from 649025 users
◎IMDb链接  https://www.imdb.com/title/tt2975590/
◎豆瓣评分 6.9/10 from 250940 users
◎豆瓣链接 https://movie.douban.com/subject/24750534/
◎片  长 151分钟
◎导  演 扎克·施奈德 Zack Snyder
◎编  剧 克里斯·特里奥 Chris Terrio / 大卫·S·高耶 David S. Goyer / 鲍勃·凯恩 Bob Kane / 比尔·芬格 Bill Finger / 杰里·西格尔 Jerry Siegel / 乔·舒斯特 Joe Shuster
◎主  演 本·阿弗莱克 Ben Affleck
       亨利·卡维尔 Henry Cavill
       艾米·亚当斯 Amy Adams
       盖尔·加朵 Gal Gadot
       杰西·艾森伯格 Jesse Eisenberg
       戴安·琳恩 Diane Lane
       劳伦斯·菲什伯恩 Laurence Fishburne
       杰瑞米·艾恩斯 Jeremy Irons
       霍利·亨特 Holly Hunter
       斯科特·麦克纳里 Scoot McNairy
       卡兰·马尔韦 Callan Mulvey
       冈本多绪 Tao Okamoto
       布兰登·斯平克 Brandon Spink
       劳伦·科汉 Lauren Cohan
       迈克尔·珊农 Michael Shannon
       埃兹拉·米勒 Ezra Miller
       凯文·科斯特纳 Kevin Costner
       帕特里克·威尔森 Patrick Wilson
       吉娜·马隆 Jena Malone
       杰弗里·迪恩·摩根 Jeffrey Dean Morgan
       卡拉·古奇诺 Carla Gugino
       乔恩·斯图尔特 Jon Stewart
       安德森·库珀 Anderson Cooper
       艾丽西娅·维拉-贝利 Alicia Vela-Bailey
       迈克尔·卡西迪 Michael Cassidy
       雷·费舍尔 Ray Fisher
       尼尔·德格拉塞·泰森 Neil deGrasse Tyson
       乌米·马萨库 Wunmi Mosaku
       哈里·伦尼克斯 Harry Lennix
       贾德·奇诺维斯 Jade Chynoweth
       罗宾·阿特金·唐斯 Robin Atkin Downes
       利普丽·索博 Ripley Sobo
       艾伦·D·柏温 Alan D. Purwin
       查理·罗斯 Charlie Rose
       克里斯蒂娜·瑞恩 Christina Wren
       科布恩·格罗斯 Coburn Goss
       妮可·福斯特 Nicole Forester
       肯特·绍克内克 Kent Shocknek
       帕特里克莱希 Patrick Leahy
       克里斯·纽曼 Chris Newman
       索莱达·奥布莱恩 Soledad O'Brien
       查德·克罗彻克 Chad Krowchuk
       维克拉姆·甘地 Vikram Gandhi
       Nancy Grace
       布赖恩·伯兰德 Brian Boland
       乔纳森·斯坦利 Jonathan Stanley
       丹尼·穆尼 Danny Mooney
       Tj·诺里斯 Tj Norris
       拉尔夫李斯特 Ralph Lister
       杰森·莫玛 Jason Momoa
       Rose Anne Nepa
       阿马尔.尼莫 Ammar Nemo
◎标  签 DC | 超级豪杰 | 美国 | 科幻 | 漫画改编 | 行动 | 2016 | 奇异
◎简  介


  故事发生在大城市之战18个月后,在那场战役中很多修建和市民惨遭涉及。由于超人(亨利·卡维尔 饰)帮助人类处理了很多题目而被当做神来跪拜,但超人也因与佐德之战对城市酿成的破坏而遭到拘系和审判,一度成为都会传闻的蝙蝠侠韦恩(本·阿弗莱克 饰)重新出现在人们眼前,他似乎正是为了赏罚超人而来。年轻的富豪莱克斯·卢瑟(杰西·艾森伯格 饰)又在两者的冲突中教唆离间,奥秘的戴安娜·普林斯(盖尔·加朵 饰)也因自己的目标介入其中……
◎获奖情况
  第37届金酸莓奖 ?(2017)
  最差影片(提名)
  最差男配角(提名) 本·阿弗莱克?/?亨利·卡维尔
  最差男配角 杰西·艾森伯格
  最差导演(提名) 扎克·施奈德
  最差剧本
  最差银幕组合
  最差前传、重拍、恶搞及续集电影
  
  第22届美国批评家挑选电影奖 ?(2017)
  行动片最好女配角(提名) 盖尔·加朵
  
  第3届豆瓣电影年度榜单 ?(2016)
  3月最受关注电影(提名)
  1. Video
  2. ID                                       : 1
  3. ID in the original source medium         : 4113 (0x1011)
  4. Format                                   : HEVC
  5. Format/Info                              : High Efficiency Video Coding
  6. Format profile                           : Main [email protected]@High
  7. HDR format                               : SMPTE ST 2086, HDR10 compatible
  8. Codec ID                                 : V_MPEGH/ISO/HEVC
  9. Duration                                 : 3 h 2 min
  10. Bit rate                                 : 52.4 Mb/s
  11. Width                                    : 3 840 pixels
  12. Height                                   : 2 160 pixels
  13. Display aspect ratio                     : 16:9
  14. Frame rate mode                          : Constant
  15. Frame rate                               : 23.976 (24000/1001/189150) FPS
  16. Color space                              : YUV
  17. Chroma subsampling                       : 4:2:0 (Type 2)
  18. Bit depth                                : 10 bits
  19. Bits/(Pixel*Frame)                       : 0.264
  20. Stream size                              : 66.9 GiB (82%)
  21. Writing library                          : ATEME Titan File 3.9.6 (4.9.6.2)        
  22. Language                                 : English
  23. Default                                  : No
  24. Forced                                   : No
  25. Color range                              : Limited
  26. Color primaries                          : BT.2020
  27. Transfer characteristics                 : PQ
  28. Matrix coefficients                      : BT.2020 non-constant
  29. Mastering display color primaries        : Display P3
  30. Mastering display luminance              : min: 0.0050 cd/m2, max: 4000 cd/m2
  31. Maximum Content Light Level              : 699 cd/m2
  32. Maximum Frame-Average Light Level        : 530 cd/m2
  33. Original source medium                   : Blu-ray

  34. Audio #1
  35. ID                                       : 2
  36. ID in the original source medium         : 4352 (0x1100)
  37. Format                                   : MLP FBA 16-ch
  38. Format/Info                              : Meridian Lossless Packing FBA with 16-channel presentation
  39. Commercial name                          : Dolby TrueHD with Dolby Atmos
  40. Codec ID                                 : A_TRUEHD
  41. Duration                                 : 3 h 2 min
  42. Bit rate mode                            : Variable
  43. Bit rate                                 : 4 967 kb/s
  44. Maximum bit rate                         : 8 199 kb/s
  45. Channel(s)                               : 8 channels
  46. Channel layout                           : L R C LFE Ls Rs Lb Rb
  47. Sampling rate                            : 48.0 kHz
  48. Frame rate                               : 1 200.000 FPS (40 SPF)
  49. Compression mode                         : Lossless
  50. Stream size                              : 6.33 GiB (8%)
  51. Title                                    : TrueHD 7.1 Atmos
  52. Language                                 : English
  53. Default                                  : Yes
  54. Forced                                   : No
  55. Original source medium                   : Blu-ray
  56. Number of dynamic objects                : 11
  57. Bed channel count                        : 1 channel
  58. Bed channel configuration                : LFE

  59. Audio #2
  60. ID                                       : 3
  61. Format                                   : DTS XLL
  62. Format/Info                              : Digital Theater Systems
  63. Commercial name                          : DTS-HD Master Audio
  64. Codec ID                                 : A_DTS
  65. Duration                                 : 3 h 2 min
  66. Bit rate mode                            : Variable
  67. Bit rate                                 : 4 057 kb/s
  68. Channel(s)                               : 8 channels
  69. Channel layout                           : C L R LFE Lb Rb Lss Rss
  70. Sampling rate                            : 48.0 kHz
  71. Frame rate                               : 93.750 FPS (512 SPF)
  72. Bit depth                                : 24 bits
  73. Compression mode                         : Lossless
  74. Stream size                              : 5.17 GiB (6%)
  75. Title                                    : DTS-HD MA 7.1
  76. Language                                 : English
  77. Default                                  : No
  78. Forced                                   : No

  79. Audio #3
  80. ID                                       : 4
  81. ID in the original source medium         : 4352 (0x1100)
  82. Format                                   : AC-3
  83. Format/Info                              : Audio Coding 3
  84. Commercial name                          : Dolby Digital
  85. Format settings                          : Dolby Surround EX
  86. Codec ID                                 : A_AC3
  87. Duration                                 : 3 h 2 min
  88. Bit rate mode                            : Constant
  89. Bit rate                                 : 448 kb/s
  90. Channel(s)                               : 6 channels
  91. Channel layout                           : L R C LFE Ls Rs
  92. Sampling rate                            : 48.0 kHz
  93. Frame rate                               : 31.250 FPS (1536 SPF)
  94. Compression mode                         : Lossy
  95. Stream size                              : 585 MiB (1%)
  96. Title                                    : DD 5.1
  97. Language                                 : English
  98. Service kind                             : Complete Main
  99. Default                                  : No
  100. Forced                                   : No
  101. Original source medium                   : Blu-ray

  102. Audio #4
  103. ID                                       : 5
  104. ID in the original source medium         : 4353 (0x1101)
  105. Format                                   : AC-3
  106. Format/Info                              : Audio Coding 3
  107. Commercial name                          : Dolby Digital
  108. Codec ID                                 : A_AC3
  109. Duration                                 : 3 h 2 min
  110. Bit rate mode                            : Constant
  111. Bit rate                                 : 448 kb/s
  112. Channel(s)                               : 6 channels
  113. Channel layout                           : L R C LFE Ls Rs
  114. Sampling rate                            : 48.0 kHz
  115. Frame rate                               : 31.250 FPS (1536 SPF)
  116. Compression mode                         : Lossy
  117. Stream size                              : 585 MiB (1%)
  118. Title                                    : DD 5.1
  119. Language                                 : English
  120. Service kind                             : Complete Main
  121. Default                                  : No
  122. Forced                                   : No
  123. Original source medium                   : Blu-ray

  124. Audio #5
  125. ID                                       : 6
  126. ID in the original source medium         : 4354 (0x1102)
  127. Format                                   : AC-3
  128. Format/Info                              : Audio Coding 3
  129. Commercial name                          : Dolby Digital
  130. Codec ID                                 : A_AC3
  131. Duration                                 : 3 h 2 min
  132. Bit rate mode                            : Constant
  133. Bit rate                                 : 448 kb/s
  134. Channel(s)                               : 6 channels
  135. Channel layout                           : L R C LFE Ls Rs
  136. Sampling rate                            : 48.0 kHz
  137. Frame rate                               : 31.250 FPS (1536 SPF)
  138. Compression mode                         : Lossy
  139. Stream size                              : 585 MiB (1%)
  140. Title                                    : DD 5.1
  141. Language                                 : French
  142. Service kind                             : Complete Main
  143. Default                                  : No
  144. Forced                                   : No
  145. Original source medium                   : Blu-ray

  146. Audio #6
  147. ID                                       : 7
  148. ID in the original source medium         : 4355 (0x1103)
  149. Format                                   : AC-3
  150. Format/Info                              : Audio Coding 3
  151. Commercial name                          : Dolby Digital
  152. Codec ID                                 : A_AC3
  153. Duration                                 : 3 h 2 min
  154. Bit rate mode                            : Constant
  155. Bit rate                                 : 448 kb/s
  156. Channel(s)                               : 6 channels
  157. Channel layout                           : L R C LFE Ls Rs
  158. Sampling rate                            : 48.0 kHz
  159. Frame rate                               : 31.250 FPS (1536 SPF)
  160. Compression mode                         : Lossy
  161. Stream size                              : 585 MiB (1%)
  162. Title                                    : DD 5.1
  163. Language                                 : Italian
  164. Service kind                             : Complete Main
  165. Default                                  : No
  166. Forced                                   : No
  167. Original source medium                   : Blu-ray

  168. Audio #7
  169. ID                                       : 8
  170. ID in the original source medium         : 4356 (0x1104)
  171. Format                                   : AC-3
  172. Format/Info                              : Audio Coding 3
  173. Commercial name                          : Dolby Digital
  174. Codec ID                                 : A_AC3
  175. Duration                                 : 3 h 2 min
  176. Bit rate mode                            : Constant
  177. Bit rate                                 : 448 kb/s
  178. Channel(s)                               : 6 channels
  179. Channel layout                           : L R C LFE Ls Rs
  180. Sampling rate                            : 48.0 kHz
  181. Frame rate                               : 31.250 FPS (1536 SPF)
  182. Compression mode                         : Lossy
  183. Stream size                              : 585 MiB (1%)
  184. Title                                    : DD 5.1
  185. Language                                 : Spanish
  186. Service kind                             : Complete Main
  187. Default                                  : No
  188. Forced                                   : No
  189. Original source medium                   : Blu-ray

  190. Audio #8
  191. ID                                       : 9
  192. ID in the original source medium         : 4358 (0x1106)
  193. Format                                   : AC-3
  194. Format/Info                              : Audio Coding 3
  195. Commercial name                          : Dolby Digital
  196. Format settings                          : Dolby Surround
  197. Codec ID                                 : A_AC3
  198. Duration                                 : 3 h 2 min
  199. Bit rate mode                            : Constant
  200. Bit rate                                 : 192 kb/s
  201. Channel(s)                               : 2 channels
  202. Channel layout                           : L R
  203. Sampling rate                            : 48.0 kHz
  204. Frame rate                               : 31.250 FPS (1536 SPF)
  205. Compression mode                         : Lossy
  206. Stream size                              : 251 MiB (0%)
  207. Title                                    : DD 2.0
  208. Language                                 : English
  209. Service kind                             : Complete Main
  210. Default                                  : No
  211. Forced                                   : No
  212. Original source medium                   : Blu-ray

  213. Text #1
  214. ID                                       : 10
  215. Format                                   : UTF-8
  216. Codec ID                                 : S_TEXT/UTF8
  217. Codec ID/Info                            : UTF-8 Plain Text
  218. Duration                                 : 2 h 53 min
  219. Bit rate                                 : 36 b/s
  220. Count of elements                        : 1478
  221. Stream size                              : 46.8 KiB (0%)
  222. Title                                    : English-SRT
  223. Language                                 : English
  224. Default                                  : Yes
  225. Forced                                   : No

  226. Text #2
  227. ID                                       : 11
  228. ID in the original source medium         : 4769 (0x12A1)
  229. Format                                   : PGS
  230. Muxing mode                              : zlib
  231. Codec ID                                 : S_HDMV/PGS
  232. Codec ID/Info                            : Picture based subtitle format used on BDs/HD-DVDs
  233. Duration                                 : 2 h 53 min
  234. Bit rate                                 : 27.2 kb/s
  235. Count of elements                        : 3712
  236. Stream size                              : 33.7 MiB (0%)
  237. Title                                    : English-PGS
  238. Language                                 : English
  239. Default                                  : No
  240. Forced                                   : No
  241. Original source medium                   : Blu-ray

  242. Text #3
  243. ID                                       : 12
  244. ID in the original source medium         : 4770 (0x12A2)
  245. Format                                   : PGS
  246. Muxing mode                              : zlib
  247. Codec ID                                 : S_HDMV/PGS
  248. Codec ID/Info                            : Picture based subtitle format used on BDs/HD-DVDs
  249. Duration                                 : 3 h 1 min
  250. Bit rate                                 : 21.8 kb/s
  251. Count of elements                        : 3200
  252. Stream size                              : 28.3 MiB (0%)
  253. Title                                    : French-PGS
  254. Language                                 : French
  255. Default                                  : No
  256. Forced                                   : No
  257. Original source medium                   : Blu-ray

  258. Text #4
  259. ID                                       : 13
  260. ID in the original source medium         : 4771 (0x12A3)
  261. Format                                   : PGS
  262. Muxing mode                              : zlib
  263. Codec ID                                 : S_HDMV/PGS
  264. Codec ID/Info                            : Picture based subtitle format used on BDs/HD-DVDs
  265. Duration                                 : 2 h 53 min
  266. Bit rate                                 : 27.0 kb/s
  267. Count of elements                        : 3990
  268. Stream size                              : 33.5 MiB (0%)
  269. Title                                    : Italian-PGS
  270. Language                                 : Italian
  271. Default                                  : No
  272. Forced                                   : No
  273. Original source medium                   : Blu-ray

  274. Text #5
  275. ID                                       : 14
  276. ID in the original source medium         : 4772 (0x12A4)
  277. Format                                   : PGS
  278. Muxing mode                              : zlib
  279. Codec ID                                 : S_HDMV/PGS
  280. Codec ID/Info                            : Picture based subtitle format used on BDs/HD-DVDs
  281. Duration                                 : 3 h 1 min
  282. Bit rate                                 : 22.1 kb/s
  283. Count of elements                        : 3148
  284. Stream size                              : 28.8 MiB (0%)
  285. Title                                    : Spanish-PGS
  286. Language                                 : Spanish
  287. Default                                  : No
  288. Forced                                   : No
  289. Original source medium                   : Blu-ray

  290. Text #6
  291. ID                                       : 15
  292. ID in the original source medium         : 4773 (0x12A5)
  293. Format                                   : PGS
  294. Muxing mode                              : zlib
  295. Codec ID                                 : S_HDMV/PGS
  296. Codec ID/Info                            : Picture based subtitle format used on BDs/HD-DVDs
  297. Duration                                 : 3 h 1 min
  298. Bit rate                                 : 17.7 kb/s
  299. Count of elements                        : 3266
  300. Stream size                              : 23.1 MiB (0%)
  301. Title                                    : Chinese-PGS
  302. Language                                 : Chinese
  303. Default                                  : No
  304. Forced                                   : No
  305. Original source medium                   : Blu-ray

  306. Text #7
  307. ID                                       : 16
  308. ID in the original source medium         : 4774 (0x12A6)
  309. Format                                   : PGS
  310. Muxing mode                              : zlib
  311. Codec ID                                 : S_HDMV/PGS
  312. Codec ID/Info                            : Picture based subtitle format used on BDs/HD-DVDs
  313. Duration                                 : 3 h 1 min
  314. Bit rate                                 : 16.4 kb/s
  315. Count of elements                        : 3264
  316. Stream size                              : 21.3 MiB (0%)
  317. Title                                    : Chinese-PGS
  318. Language                                 : Chinese
  319. Default                                  : No
  320. Forced                                   : No
  321. Original source medium                   : Blu-ray

  322. Text #8
  323. ID                                       : 17
  324. ID in the original source medium         : 4775 (0x12A7)
  325. Format                                   : PGS
  326. Muxing mode                              : zlib
  327. Codec ID                                 : S_HDMV/PGS
  328. Codec ID/Info                            : Picture based subtitle format used on BDs/HD-DVDs
  329. Duration                                 : 3 h 1 min
  330. Bit rate                                 : 16.0 kb/s
  331. Count of elements                        : 3264
  332. Stream size                              : 20.8 MiB (0%)
  333. Title                                    : Korean-PGS
  334. Language                                 : Korean
  335. Default                                  : No
  336. Forced                                   : No
  337. Original source medium                   : Blu-ray

  338. Text #9
  339. ID                                       : 18
  340. ID in the original source medium         : 4776 (0x12A8)
  341. Format                                   : PGS
  342. Muxing mode                              : zlib
  343. Codec ID                                 : S_HDMV/PGS
  344. Codec ID/Info                            : Picture based subtitle format used on BDs/HD-DVDs
  345. Duration                                 : 3 h 1 min
  346. Bit rate                                 : 21.9 kb/s
  347. Count of elements                        : 3214
  348. Stream size                              : 28.5 MiB (0%)
  349. Title                                    : Spanish-PGS
  350. Language                                 : Spanish
  351. Default                                  : No
  352. Forced                                   : No
  353. Original source medium                   : Blu-ray

  354. Text #10
  355. ID                                       : 19
  356. ID in the original source medium         : 4777 (0x12A9)
  357. Format                                   : PGS
  358. Muxing mode                              : zlib
  359. Codec ID                                 : S_HDMV/PGS
  360. Codec ID/Info                            : Picture based subtitle format used on BDs/HD-DVDs
  361. Duration                                 : 2 h 53 min
  362. Bit rate                                 : 13.0 kb/s
  363. Count of elements                        : 3244
  364. Stream size                              : 16.1 MiB (0%)
  365. Title                                    : Arabic-PGS
  366. Language                                 : Arabic
  367. Default                                  : No
  368. Forced                                   : No
  369. Original source medium                   : Blu-ray

  370. Text #11
  371. ID                                       : 20
  372. ID in the original source medium         : 4778 (0x12AA)
  373. Format                                   : PGS
  374. Muxing mode                              : zlib
  375. Codec ID                                 : S_HDMV/PGS
  376. Codec ID/Info                            : Picture based subtitle format used on BDs/HD-DVDs
  377. Duration                                 : 3 h 2 min
  378. Bit rate                                 : 21.0 kb/s
  379. Count of elements                        : 3220
  380. Stream size                              : 27.3 MiB (0%)
  381. Title                                    : Czech-PGS
  382. Language                                 : Czech
  383. Default                                  : No
  384. Forced                                   : No
  385. Original source medium                   : Blu-ray

  386. Text #12
  387. ID                                       : 21
  388. ID in the original source medium         : 4779 (0x12AB)
  389. Format                                   : PGS
  390. Muxing mode                              : zlib
  391. Codec ID                                 : S_HDMV/PGS
  392. Codec ID/Info                            : Picture based subtitle format used on BDs/HD-DVDs
  393. Duration                                 : 3 h 2 min
  394. Bit rate                                 : 20.8 kb/s
  395. Count of elements                        : 2954
  396. Stream size                              : 27.1 MiB (0%)
  397. Title                                    : Danish-PGS
  398. Language                                 : Danish
  399. Default                                  : No
  400. Forced                                   : No
  401. Original source medium                   : Blu-ray

  402. Text #13
  403. ID                                       : 22
  404. ID in the original source medium         : 4780 (0x12AC)
  405. Format                                   : PGS
  406. Muxing mode                              : zlib
  407. Codec ID                                 : S_HDMV/PGS
  408. Codec ID/Info                            : Picture based subtitle format used on BDs/HD-DVDs
  409. Duration                                 : 3 h 2 min
  410. Bit rate                                 : 20.6 kb/s
  411. Count of elements                        : 3010
  412. Stream size                              : 26.8 MiB (0%)
  413. Title                                    : Finnish-PGS
  414. Language                                 : Finnish
  415. Default                                  : No
  416. Forced                                   : No
  417. Original source medium                   : Blu-ray

  418. Text #14
  419. ID                                       : 23
  420. ID in the original source medium         : 4781 (0x12AD)
  421. Format                                   : PGS
  422. Muxing mode                              : zlib
  423. Codec ID                                 : S_HDMV/PGS
  424. Codec ID/Info                            : Picture based subtitle format used on BDs/HD-DVDs
  425. Duration                                 : 3 h 2 min
  426. Bit rate                                 : 21.6 kb/s
  427. Count of elements                        : 3200
  428. Stream size                              : 28.1 MiB (0%)
  429. Title                                    : Norwegian-PGS
  430. Language                                 : Norwegian
  431. Default                                  : No
  432. Forced                                   : No
  433. Original source medium                   : Blu-ray

  434. Text #15
  435. ID                                       : 24
  436. ID in the original source medium         : 4782 (0x12AE)
  437. Format                                   : PGS
  438. Muxing mode                              : zlib
  439. Codec ID                                 : S_HDMV/PGS
  440. Codec ID/Info                            : Picture based subtitle format used on BDs/HD-DVDs
  441. Duration                                 : 3 h 2 min
  442. Bit rate                                 : 20.3 kb/s
  443. Count of elements                        : 3142
  444. Stream size                              : 26.4 MiB (0%)
  445. Title                                    : Polsih-pgs
  446. Language                                 : Polish
  447. Default                                  : No
  448. Forced                                   : No
  449. Original source medium                   : Blu-ray

  450. Text #16
  451. ID                                       : 25
  452. ID in the original source medium         : 4783 (0x12AF)
  453. Format                                   : PGS
  454. Muxing mode                              : zlib
  455. Codec ID                                 : S_HDMV/PGS
  456. Codec ID/Info                            : Picture based subtitle format used on BDs/HD-DVDs
  457. Duration                                 : 3 h 1 min
  458. Bit rate                                 : 21.0 kb/s
  459. Count of elements                        : 3186
  460. Stream size                              : 27.4 MiB (0%)
  461. Title                                    : Swedish-PGS
  462. Language                                 : Swedish
  463. Default                                  : No
  464. Forced                                   : No
  465. Original source medium                   : Blu-ray

  466. Text #17
  467. ID                                       : 26
  468. ID in the original source medium         : 4786 (0x12B2)
  469. Format                                   : PGS
  470. Muxing mode                              : zlib
  471. Codec ID                                 : S_HDMV/PGS
  472. Codec ID/Info                            : Picture based subtitle format used on BDs/HD-DVDs
  473. Duration                                 : 2 h 45 min
  474. Bit rate                                 : 1 364 b/s
  475. Count of elements                        : 166
  476. Stream size                              : 1.61 MiB (0%)
  477. Title                                    : French-FORCED-PGS
  478. Language                                 : French
  479. Default                                  : No
  480. Forced                                   : No
  481. Original source medium                   : Blu-ray

  482. Text #18
  483. ID                                       : 27
  484. ID in the original source medium         : 4787 (0x12B3)
  485. Format                                   : PGS
  486. Muxing mode                              : zlib
  487. Codec ID                                 : S_HDMV/PGS
  488. Codec ID/Info                            : Picture based subtitle format used on BDs/HD-DVDs
  489. Duration                                 : 2 h 49 min
  490. Bit rate                                 : 1 283 b/s
  491. Count of elements                        : 158
  492. Stream size                              : 1.55 MiB (0%)
  493. Title                                    : Italian-FORCED-PGS
  494. Language                                 : Italian
  495. Default                                  : No
  496. Forced                                   : No
  497. Original source medium                   : Blu-ray

  498. Text #19
  499. ID                                       : 28
  500. ID in the original source medium         : 4788 (0x12B4)
  501. Format                                   : PGS
  502. Muxing mode                              : zlib
  503. Codec ID                                 : S_HDMV/PGS
  504. Codec ID/Info                            : Picture based subtitle format used on BDs/HD-DVDs
  505. Duration                                 : 2 h 49 min
  506. Bit rate                                 : 1 040 b/s
  507. Count of elements                        : 136
  508. Stream size                              : 1.26 MiB (0%)
  509. Title                                    : Spanish-FORCED-PGS
  510. Language                                 : Spanish
  511. Default                                  : No
  512. Forced                                   : No
  513. Original source medium                   : Blu-ray

  514. Menu
  515. 00:00:00.000                             : en:Chapter 01
  516. 00:10:10.651                             : en:Chapter 02
  517. 00:27:00.619                             : en:Chapter 03
  518. 00:37:49.183                             : en:Chapter 04
  519. 00:46:54.478                             : en:Chapter 05
  520. 01:02:04.887                             : en:Chapter 06
  521. 01:14:10.446                             : en:Chapter 07
  522. 01:28:06.948                             : en:Chapter 08
  523. 01:41:46.517                             : en:Chapter 09
  524. 01:53:52.575                             : en:Chapter 10
  525. 02:02:58.037                             : en:Chapter 11
  526. 02:15:04.012                             : en:Chapter 12
  527. 02:27:55.032                             : en:Chapter 13
  528. 02:36:51.151                             : en:Chapter 14
  529. 02:48:28.348                             : en:Chapter 15
  530. 02:54:43.431                             : en:Chapter 16
复制代码




                                       
                                       

                                       
                                       
                                       




蝙蝠侠大战超人:正义拂晓 Batman.v.Superman.Dawn.of.Justice.2016.EXTENDED.IMAX.2160p.BluRay.REMUX.HEVC.DTS-HD.MA.TrueHD.7.1.Atmos-FGT 81.71GB

Batman.v.Superman.Dawn.of.Justice.2016.EXTENDED.IMAX.2160p.BluRay.REMUX.HEVC.DTS.torrent

204.93 KB, 下载次数: 30, 下载积分: 蓝光币 -2

回复

使用道具 举报

懒得打字嘛,点击右侧快捷回复 【右侧内容,后台自定义】
您需要登录后才可以回帖 登录 | 立即加入

本版积分规则

Archiver|小黑屋| 蓝光电影网 |网站地图

Copyright © 2021 Comsenz Inc. Powered by 蓝光电影网

蓝光电影网

本站内容由用户自主分享和转载自互联网,转载目的在于传递更多信息,并不代表本网赞同其观点和对其真实性负责。

如有侵权、违反国家法律政策行为,请联系我们,我们会第一时间及时清除和处理!

举报反馈邮箱:[email protected]

快速回复 返回顶部 返回列表