找回密码

蓝光电影网

查看: 51|回复: 0

[2160p] 小姐与流浪汉/小姐与流氓 Lady.and.the.Tramp.2019.2160p.WEBRip.DDP5.1.Atmos.x265-MZABI 14.32GB

[复制链接]
蓝光币
1080
发表于 2020-11-1 23:07:43 | 显示全部楼层 |阅读模式


◎译  名 蜜斯与流浪汉/蜜斯与地痞
◎片  名 Lady and the Tramp
◎年  代 2019
◎产  地 美国
◎类  别 笑剧 / 动画 / 冒险
◎语  言 英语
◎上映日期 2019-11-12(美国)
◎IMDb评分  6.3/10 from 14498 users
◎IMDb链接  https://www.imdb.com/title/tt8096832/
◎豆瓣评分 6.9/10 from 2345 users
◎豆瓣链接 https://movie.douban.com/subject/30175647/
◎片  长 103分钟
◎导  演 查理·宾 Charlie Bean
◎编  剧 安德鲁·布加尔斯基 Andrew Bujalski
◎主  演 泰莎·汤普森 Tessa Thompson
       贾斯汀·塞洛克斯 Justin Theroux
       山姆·艾里奥特 Sam Elliott
       加奈儿·梦奈 Janelle Monáe
       阿什利·詹森 Ashley Jensen
       本尼迪克特·王 Benedict Wong
       托马斯·曼 Thomas Mann
       科雷西·克莱门斯 Kiersey Clemons
       阿图罗·卡斯特罗 Arturo Castro
       伊薇特·尼科尔·布朗 Yvette Nicole Brown
       迈克尔·图尔克 Michael Tourek
       马特·默丘里奥 Matt Mercurio
       阿德里安·马丁内斯 Adrian Martinez
       罗伯特·沃克·布兰乔德 Robert Walker Branchaud
       柯蒂斯·莱昂斯 Curtis Lyons
       蒙堤 Monte
       露丝 Rose
       里贾纳·陈婷 Regina Ting Chen
       詹妮弗·克里斯塔·帕尔默 Jennifer Christa Palmer
◎标  签 迪士尼 | 狗狗 | 动画 | 美国 | Disney | 笑剧 | 2019 | 家庭
◎简  介


  迪士尼欲打造真人CG版[蜜斯与流浪汉],[乐高忍者大电影]导演查理·宾将执导该片,安德鲁·布加尔斯基操刀剧本。原版1955年动画故事报告宠物狗”淑女“离家出走后碰到好心流浪狗查普,他们很快成为朋友,在各种磨难后,他们也擦出爱的火花。今朝影片卡司声势尚未公布。
  1. Video
  2. ID                                       : 1
  3. Format                                   : HEVC
  4. Format/Info                              : High Efficiency Video Coding
  5. Format profile                           : [email protected]@High
  6. Codec ID                                 : V_MPEGH/ISO/HEVC
  7. Duration                                 : 1 h 42 min
  8. Bit rate                                 : 19.2 Mb/s
  9. Width                                    : 3 840 pixels
  10. Height                                   : 2 160 pixels
  11. Display aspect ratio                     : 16:9
  12. Frame rate mode                          : Constant
  13. Frame rate                               : 23.976 (24000/1001/189150) FPS
  14. Color space                              : YUV
  15. Chroma subsampling                       : 4:2:0
  16. Bit depth                                : 8 bits
  17. Bits/(Pixel*Frame)                       : 0.096
  18. Stream size                              : 13.8 GiB (96%)
  19. Writing library                          : x265 3.3:[Linux][GCC 7.5.0][64 bit] 8bit+10bit+12bit
  20. Encoding settings                        : cpuid=1111039 / frame-threads=16 / wpp / no-pmode / no-pme / no-psnr / no-ssim / log-level=2 / input-csp=1 / input-res=3840x2160 / interlace=0 / total-frames=0 / level-idc=50 / high-tier=1 / uhd-bd=0 / ref=2 / no-allow-non-conformance / repeat-headers / annexb / no-aud / no-hrd / info / hash=0 / no-temporal-layers / no-open-gop / min-keyint=48 / keyint=48 / gop-lookahead=0 / bframes=4 / b-adapt=0 / b-pyramid / bframe-bias=0 / rc-lookahead=20 / lookahead-slices=8 / scenecut=0 / hist-scenecut=0 / radl=0 / no-splice / no-intra-refresh / ctu=32 / min-cu-size=8 / no-rect / no-amp / max-tu-size=16 / tu-inter-depth=2 / tu-intra-depth=2 / limit-tu=0 / rdoq-level=1 / dynamic-rd=0.00 / no-ssim-rd / signhide / no-tskip / nr-intra=0 / nr-inter=0 / no-constrained-intra / no-strong-intra-smoothing / max-merge=3 / limit-refs=1 / no-limit-modes / me=1 / subme=2 / merange=44 / temporal-mvp / no-frame-dup / no-hme / weightp / no-weightb / no-analyze-src-pics / deblock=0:0 / no-sao / no-sao-non-deblock / rd=4 / selective-sao=0 / early-skip / rskip / no-fast-intra / no-tskip-fast / no-cu-lossless / b-intra / no-splitrd-skip / rdpenalty=1 / psy-rd=1.60 / psy-rdoq=5.00 / no-rd-refine / no-lossless / cbqpoffs=0 / crqpoffs=0 / rc=abr / bitrate=20000 / qcomp=0.75 / qpstep=4 / stats-write=0 / stats-read=0 / vbv-maxrate=24000 / vbv-bufsize=40000 / vbv-init=0.9 / ipratio=1.40 / pbratio=1.30 / aq-mode=3 / aq-strength=1.00 / no-cutree / zone-count=0 / no-strict-cbr / qg-size=32 / no-rc-grain / qpmax=69 / qpmin=0 / no-const-vbv / sar=1 / overscan=0 / videoformat=5 / range=0 / colorprim=1 / transfer=1 / colormatrix=1 / chromaloc=0 / display-window=0 / cll=0,0 / min-luma=0 / max-luma=255 / log2-max-poc-lsb=8 / vui-timing-info / vui-hrd-info / slices=1 / no-opt-qp-pps / no-opt-ref-list-length-pps / no-multi-pass-opt-rps / scenecut-bias=0.00 / hist-threshold=0.01 / no-opt-cu-delta-qp / no-aq-motion / no-hdr10 / no-hdr10-opt / no-dhdr10-opt / no-idr-recovery-sei / analysis-reuse-level=0 / analysis-save-reuse-level=0 / analysis-load-reuse-level=0 / scale-factor=0 / refine-intra=0 / refine-inter=0 / refine-mv=1 / refine-ctu-distortion=0 / no-limit-sao / ctu-info=0 / no-lowpass-dct / refine-analysis-type=0 / copy-pic=1 / max-ausize-factor=1.0 / no-dynamic-refine / no-single-sei / no-hevc-aq / no-svt / no-field / qp-adaptation-range=1.00 / no-scenecut-aware-qpconformance-window-offsets / right=0 / bottom=0
  21. Default                                  : Yes
  22. Forced                                   : No
  23. Color range                              : Limited
  24. Color primaries                          : BT.709
  25. Transfer characteristics                 : BT.709
  26. Matrix coefficients                      : BT.709
  27. Audio
  28. ID                                       : 2
  29. Format                                   : E-AC-3 JOC
  30. Format/Info                              : Enhanced AC-3 with Joint Object Coding
  31. Commercial name                          : Dolby Digital Plus with Dolby Atmos
  32. Codec ID                                 : A_EAC3
  33. Duration                                 : 1 h 42 min
  34. Bit rate mode                            : Constant
  35. Bit rate                                 : 768 kb/s
  36. Channel(s)                               : 6 channels
  37. Channel layout                           : L R C LFE Ls Rs
  38. Sampling rate                            : 48.0 kHz
  39. Frame rate                               : 31.250 FPS (1536 SPF)
  40. Compression mode                         : Lossy
  41. Stream size                              : 565 MiB (4%)
  42. Title                                    : English
  43. Language                                 : English
  44. Service kind                             : Complete Main
  45. Default                                  : Yes
  46. Forced                                   : No
  47. Complexity index                         : 16
  48. Number of dynamic objects                : 15
  49. Bed channel count                        : 1 channel
  50. Bed channel configuration                : LFE
  51. Text #1
  52. ID                                       : 3
  53. Format                                   : UTF-8
  54. Codec ID                                 : S_TEXT/UTF8
  55. Codec ID/Info                            : UTF-8 Plain Text
  56. Duration                                 : 1 h 38 min
  57. Bit rate                                 : 65 b/s
  58. Count of elements                        : 1547
  59. Stream size                              : 47.0 KiB (0%)
  60. Title                                    : English
  61. Language                                 : English
  62. Default                                  : No
  63. Forced                                   : No
  64. Text #2
  65. ID                                       : 4
  66. Format                                   : UTF-8
  67. Codec ID                                 : S_TEXT/UTF8
  68. Codec ID/Info                            : UTF-8 Plain Text
  69. Duration                                 : 1 h 40 min
  70. Bit rate                                 : 72 b/s
  71. Count of elements                        : 1803
  72. Stream size                              : 53.6 KiB (0%)
  73. Title                                    : English [SDH]
  74. Language                                 : English
  75. Default                                  : No
  76. Forced                                   : No
  77. Text #3
  78. ID                                       : 5
  79. Format                                   : UTF-8
  80. Codec ID                                 : S_TEXT/UTF8
  81. Codec ID/Info                            : UTF-8 Plain Text
  82. Duration                                 : 1 h 41 min
  83. Bit rate                                 : 49 b/s
  84. Count of elements                        : 1420
  85. Stream size                              : 36.8 KiB (0%)
  86. Title                                    : Brazilian Portuguese
  87. Language                                 : Portuguese
  88. Default                                  : No
  89. Forced                                   : No
  90. Text #4
  91. ID                                       : 6
  92. Format                                   : UTF-8
  93. Codec ID                                 : S_TEXT/UTF8
  94. Codec ID/Info                            : UTF-8 Plain Text
  95. Duration                                 : 1 h 41 min
  96. Bit rate                                 : 51 b/s
  97. Count of elements                        : 1424
  98. Stream size                              : 38.5 KiB (0%)
  99. Title                                    : Danish
  100. Language                                 : Danish
  101. Default                                  : No
  102. Forced                                   : No
  103. Text #5
  104. ID                                       : 7
  105. Format                                   : UTF-8
  106. Codec ID                                 : S_TEXT/UTF8
  107. Codec ID/Info                            : UTF-8 Plain Text
  108. Duration                                 : 1 h 41 min
  109. Bit rate                                 : 52 b/s
  110. Count of elements                        : 1470
  111. Stream size                              : 39.0 KiB (0%)
  112. Title                                    : German
  113. Language                                 : German
  114. Default                                  : No
  115. Forced                                   : No
  116. Text #6
  117. ID                                       : 8
  118. Format                                   : UTF-8
  119. Codec ID                                 : S_TEXT/UTF8
  120. Codec ID/Info                            : UTF-8 Plain Text
  121. Duration                                 : 1 h 41 min
  122. Bit rate                                 : 53 b/s
  123. Count of elements                        : 1429
  124. Stream size                              : 39.4 KiB (0%)
  125. Title                                    : European Spanish
  126. Language                                 : Spanish
  127. Default                                  : No
  128. Forced                                   : No
  129. Text #7
  130. ID                                       : 9
  131. Format                                   : UTF-8
  132. Codec ID                                 : S_TEXT/UTF8
  133. Codec ID/Info                            : UTF-8 Plain Text
  134. Duration                                 : 1 h 41 min
  135. Bit rate                                 : 49 b/s
  136. Count of elements                        : 1415
  137. Stream size                              : 36.7 KiB (0%)
  138. Title                                    : Finnish
  139. Language                                 : Finnish
  140. Default                                  : No
  141. Forced                                   : No
  142. Text #8
  143. ID                                       : 10
  144. Format                                   : UTF-8
  145. Codec ID                                 : S_TEXT/UTF8
  146. Codec ID/Info                            : UTF-8 Plain Text
  147. Duration                                 : 1 h 41 min
  148. Bit rate                                 : 48 b/s
  149. Count of elements                        : 1461
  150. Stream size                              : 36.1 KiB (0%)
  151. Title                                    : French
  152. Language                                 : French
  153. Default                                  : No
  154. Forced                                   : No
  155. Text #9
  156. ID                                       : 11
  157. Format                                   : UTF-8
  158. Codec ID                                 : S_TEXT/UTF8
  159. Codec ID/Info                            : UTF-8 Plain Text
  160. Duration                                 : 1 h 41 min
  161. Bit rate                                 : 51 b/s
  162. Count of elements                        : 1429
  163. Stream size                              : 38.7 KiB (0%)
  164. Title                                    : Italian
  165. Language                                 : Italian
  166. Default                                  : No
  167. Forced                                   : No
  168. Text #10
  169. ID                                       : 12
  170. Format                                   : UTF-8
  171. Codec ID                                 : S_TEXT/UTF8
  172. Codec ID/Info                            : UTF-8 Plain Text
  173. Duration                                 : 1 h 41 min
  174. Bit rate                                 : 52 b/s
  175. Count of elements                        : 1180
  176. Stream size                              : 39.1 KiB (0%)
  177. Title                                    : Dutch
  178. Language                                 : Dutch
  179. Default                                  : No
  180. Forced                                   : No
  181. Text #11
  182. ID                                       : 13
  183. Format                                   : UTF-8
  184. Codec ID                                 : S_TEXT/UTF8
  185. Codec ID/Info                            : UTF-8 Plain Text
  186. Duration                                 : 1 h 41 min
  187. Bit rate                                 : 51 b/s
  188. Count of elements                        : 1429
  189. Stream size                              : 38.6 KiB (0%)
  190. Title                                    : Norwegian
  191. Language                                 : Norwegian
  192. Default                                  : No
  193. Forced                                   : No
  194. Text #12
  195. ID                                       : 14
  196. Format                                   : UTF-8
  197. Codec ID                                 : S_TEXT/UTF8
  198. Codec ID/Info                            : UTF-8 Plain Text
  199. Duration                                 : 1 h 41 min
  200. Bit rate                                 : 52 b/s
  201. Count of elements                        : 1424
  202. Stream size                              : 38.7 KiB (0%)
  203. Title                                    : Polish
  204. Language                                 : Polish
  205. Default                                  : No
  206. Forced                                   : No
  207. Text #13
  208. ID                                       : 15
  209. Format                                   : UTF-8
  210. Codec ID                                 : S_TEXT/UTF8
  211. Codec ID/Info                            : UTF-8 Plain Text
  212. Duration                                 : 1 h 41 min
  213. Bit rate                                 : 52 b/s
  214. Count of elements                        : 1424
  215. Stream size                              : 39.0 KiB (0%)
  216. Title                                    : Portuguese
  217. Language                                 : Portuguese
  218. Default                                  : No
  219. Forced                                   : No
  220. Text #14
  221. ID                                       : 16
  222. Format                                   : UTF-8
  223. Codec ID                                 : S_TEXT/UTF8
  224. Codec ID/Info                            : UTF-8 Plain Text
  225. Duration                                 : 1 h 41 min
  226. Bit rate                                 : 54 b/s
  227. Count of elements                        : 1424
  228. Stream size                              : 40.3 KiB (0%)
  229. Title                                    : Spanish
  230. Language                                 : Spanish
  231. Default                                  : No
  232. Forced                                   : No
  233. Text #15
  234. ID                                       : 17
  235. Format                                   : UTF-8
  236. Codec ID                                 : S_TEXT/UTF8
  237. Codec ID/Info                            : UTF-8 Plain Text
  238. Duration                                 : 1 h 41 min
  239. Bit rate                                 : 53 b/s
  240. Count of elements                        : 1428
  241. Stream size                              : 40.1 KiB (0%)
  242. Title                                    : Swedish
  243. Language                                 : Swedish
  244. Default                                  : No
  245. Forced                                   : No
复制代码






                                       
                                       

                                       
                                       
                                       




回复

使用道具 举报

懒得打字嘛,点击右侧快捷回复 【右侧内容,后台自定义】
您需要登录后才可以回帖 登录 | 立即加入

本版积分规则

Archiver|小黑屋| 蓝光电影网 |网站地图

Copyright © 2021 Comsenz Inc. Powered by 蓝光电影网

蓝光电影网

本站内容由用户自主分享和转载自互联网,转载目的在于传递更多信息,并不代表本网赞同其观点和对其真实性负责。

如有侵权、违反国家法律政策行为,请联系我们,我们会第一时间及时清除和处理!

举报反馈邮箱:[email protected]

快速回复 返回顶部 返回列表