找回密码

蓝光电影网

查看: 55|回复: 0

[2160p] 诺艾尔 Noelle.2019.2160p.WEBRip.DDP5.1.Atmos.x265-TEPES 14.00GB

[复制链接]
蓝光币
1084
发表于 2020-11-1 22:17:06 | 显示全部楼层 |阅读模式


◎译  名 诺艾尔/Nicole/妮可
◎片  名 Noelle
◎年  代 2019
◎产  地 美国
◎类  别 家庭 / 奇异
◎语  言 英语
◎上映日期 2019-11-12(美国)
◎IMDb评分  6.3/10 from 10604 users
◎IMDb链接  https://www.imdb.com/title/tt5097410/
◎豆瓣评分 6.1/10 from 738 users
◎豆瓣链接 https://movie.douban.com/subject/26703849/
◎片  长 90分钟
◎导  演 马克·劳伦斯 Marc Lawrence
◎编  剧 马克·劳伦斯 Marc Lawrence
◎主  演 安娜·肯德里克 Anna Kendrick
       比尔·哈德尔 Bill Hader
       比利·艾希纳 Billy Eichner
       雪莉·麦克雷恩 Shirley MacLaine
       朱丽·哈基提 Julie Hagerty
       艾丽森·阿拉亚 Alison Araya
       丽娜·伦纳 Lina Renna
       谢拉赫·霍斯达尔 Chelah Horsdal
       阿尔维娜·奥古斯特 Alvina August
       迈克尔·格罗斯 Michael Gross
       金斯利·本-阿迪尔 Kingsley Ben-Adir
       戴安娜·玛丽亚·里瓦 Diana Maria Riva
       布鲁格斯·詹金斯 Burgess Jenkins
       阿里萨·维拉尼 Aliza Vellani
       杰森·安置 Jason Antoon
       丽莎·钱德勒 Lisa Chandler
       安东尼·科尼切尼 Anthony Konechny
       卡拉·曼泰拉 Cara Mantella
       肖娜·约翰尼森 Shauna Johannesen
       西蒙·钱 Simon Chin
       布雷登·泰勒 Brendan Taylor
       杰姬·布莱克莫 Jackie Blackmore
       艾玛·佩德森 Emma Pedersen
       迈克·顿斯顿 Mike Dunston
       艾迪·弗莱克 Eddie Flake
       肖恩·阿姆辛 Sean Amsing
       史蒂文·E·鲁迪 Steven E. Rudy
       奥克莉·布尔 Oakley Bull
       查得·莱利 Chad Riley
       丽莎·麦克法登 Lisa MacFadden
       比利·格里菲斯 Billy Griffith
◎标  签 奇异 | 笑剧 | 圣诞 | 美国 | 2019 | 迪士尼 | 温情 | 家庭
◎简  介


  Disney公布安娜·肯德里克主演的奇异笑剧[妮可]将在Disney新打造流媒体平台播出。该片原定明年11月8日北美上映,现已撤档。今朝关于新流媒体平台一切保密。据悉,该平台每年有望推出4-5部原创影片。[妮可]由马克·劳伦斯自编自导,肯德里克在片中饰演“拯救家属买卖”的圣诞老人女儿。
  1. Video
  2. ID                                       : 1
  3. Format                                   : HEVC
  4. Format/Info                              : High Efficiency Video Coding
  5. Format profile                           : [email protected]@High
  6. Codec ID                                 : V_MPEGH/ISO/HEVC
  7. Duration                                 : 1 h 39 min
  8. Bit rate                                 : 19.3 Mb/s
  9. Width                                    : 3 840 pixels
  10. Height                                   : 2 160 pixels
  11. Display aspect ratio                     : 16:9
  12. Frame rate mode                          : Constant
  13. Frame rate                               : 23.976 (24000/1001/189150) FPS
  14. Color space                              : YUV
  15. Chroma subsampling                       : 4:2:0
  16. Bit depth                                : 8 bits
  17. Bits/(Pixel*Frame)                       : 0.097
  18. Stream size                              : 13.5 GiB (96%)
  19. Writing library                          : x265 3.3:[Linux][GCC 7.5.0][64 bit] 8bit+10bit+12bit
  20. Encoding settings                        : cpuid=1111039 / frame-threads=1 / wpp / no-pmode / no-pme / no-psnr / no-ssim / log-level=2 / input-csp=1 / input-res=3840x2160 / interlace=0 / total-frames=0 / level-idc=50 / high-tier=1 / uhd-bd=0 / ref=4 / no-allow-non-conformance / repeat-headers / annexb / no-aud / no-hrd / info / hash=0 / no-temporal-layers / no-open-gop / min-keyint=48 / keyint=48 / gop-lookahead=0 / bframes=7 / b-adapt=2 / b-pyramid / bframe-bias=0 / rc-lookahead=97 / lookahead-slices=0 / scenecut=0 / hist-scenecut=0 / radl=0 / no-splice / no-intra-refresh / ctu=32 / min-cu-size=8 / no-rect / no-amp / max-tu-size=16 / tu-inter-depth=2 / tu-intra-depth=2 / limit-tu=0 / rdoq-level=1 / dynamic-rd=0.00 / no-ssim-rd / signhide / no-tskip / nr-intra=0 / nr-inter=0 / no-constrained-intra / no-strong-intra-smoothing / max-merge=5 / limit-refs=0 / no-limit-modes / me=3 / subme=4 / merange=44 / temporal-mvp / no-frame-dup / no-hme / weightp / weightb / no-analyze-src-pics / deblock=0:0 / no-sao / no-sao-non-deblock / rd=4 / selective-sao=0 / no-early-skip / rskip / no-fast-intra / no-tskip-fast / no-cu-lossless / b-intra / no-splitrd-skip / rdpenalty=1 / psy-rd=1.60 / psy-rdoq=5.00 / no-rd-refine / no-lossless / cbqpoffs=0 / crqpoffs=0 / rc=abr / bitrate=20000 / qcomp=0.75 / qpstep=4 / stats-write=0 / stats-read=0 / vbv-maxrate=24000 / vbv-bufsize=40000 / vbv-init=0.9 / ipratio=1.40 / pbratio=1.30 / aq-mode=3 / aq-strength=1.00 / no-cutree / zone-count=0 / no-strict-cbr / qg-size=32 / no-rc-grain / qpmax=69 / qpmin=0 / no-const-vbv / sar=1 / overscan=0 / videoformat=5 / range=0 / colorprim=1 / transfer=1 / colormatrix=1 / chromaloc=0 / display-window=0 / cll=0,0 / min-luma=0 / max-luma=255 / log2-max-poc-lsb=8 / vui-timing-info / vui-hrd-info / slices=1 / no-opt-qp-pps / no-opt-ref-list-length-pps / no-multi-pass-opt-rps / scenecut-bias=0.00 / hist-threshold=0.01 / no-opt-cu-delta-qp / no-aq-motion / no-hdr10 / no-hdr10-opt / no-dhdr10-opt / no-idr-recovery-sei / analysis-reuse-level=0 / analysis-save-reuse-level=0 / analysis-load-reuse-level=0 / scale-factor=0 / refine-intra=0 / refine-inter=0 / refine-mv=1 / refine-ctu-distortion=0 / no-limit-sao / ctu-info=0 / no-lowpass-dct / refine-analysis-type=0 / copy-pic=1 / max-ausize-factor=1.0 / no-dynamic-refine / no-single-sei / no-hevc-aq / no-svt / no-field / qp-adaptation-range=1.00 / no-scenecut-aware-qpconformance-window-offsets / right=0 / bottom=0
  21. Default                                  : Yes
  22. Forced                                   : No
  23. Color range                              : Limited
  24. Color primaries                          : BT.709
  25. Transfer characteristics                 : BT.709
  26. Matrix coefficients                      : BT.709
  27. Audio
  28. ID                                       : 2
  29. Format                                   : E-AC-3 JOC
  30. Format/Info                              : Enhanced AC-3 with Joint Object Coding
  31. Commercial name                          : Dolby Digital Plus with Dolby Atmos
  32. Codec ID                                 : A_EAC3
  33. Duration                                 : 1 h 40 min
  34. Bit rate mode                            : Constant
  35. Bit rate                                 : 768 kb/s
  36. Channel(s)                               : 6 channels
  37. Channel layout                           : L R C LFE Ls Rs
  38. Sampling rate                            : 48.0 kHz
  39. Frame rate                               : 31.250 FPS (1536 SPF)
  40. Compression mode                         : Lossy
  41. Delay relative to video                  : 42 ms
  42. Stream size                              : 551 MiB (4%)
  43. Language                                 : English
  44. Service kind                             : Complete Main
  45. Default                                  : Yes
  46. Forced                                   : No
  47. Complexity index                         : 16
  48. Number of dynamic objects                : 15
  49. Bed channel count                        : 1 channel
  50. Bed channel configuration                : LFE
  51. Text #1
  52. ID                                       : 3
  53. Format                                   : UTF-8
  54. Codec ID                                 : S_TEXT/UTF8
  55. Codec ID/Info                            : UTF-8 Plain Text
  56. Duration                                 : 1 h 31 min
  57. Bit rate                                 : 83 b/s
  58. Count of elements                        : 1506
  59. Stream size                              : 55.6 KiB (0%)
  60. Title                                    : SDH
  61. Language                                 : English
  62. Default                                  : Yes
  63. Forced                                   : No
  64. Text #2
  65. ID                                       : 4
  66. Format                                   : UTF-8
  67. Codec ID                                 : S_TEXT/UTF8
  68. Codec ID/Info                            : UTF-8 Plain Text
  69. Duration                                 : 1 h 39 min
  70. Bit rate                                 : 64 b/s
  71. Count of elements                        : 1107
  72. Stream size                              : 47.2 KiB (0%)
  73. Language                                 : Dutch
  74. Default                                  : No
  75. Forced                                   : No
  76. Text #3
  77. ID                                       : 5
  78. Format                                   : UTF-8
  79. Codec ID                                 : S_TEXT/UTF8
  80. Codec ID/Info                            : UTF-8 Plain Text
  81. Duration                                 : 1 h 39 min
  82. Bit rate                                 : 61 b/s
  83. Count of elements                        : 1349
  84. Stream size                              : 44.5 KiB (0%)
  85. Language                                 : French
  86. Default                                  : No
  87. Forced                                   : No
  88. Text #4
  89. ID                                       : 6
  90. Format                                   : UTF-8
  91. Codec ID                                 : S_TEXT/UTF8
  92. Codec ID/Info                            : UTF-8 Plain Text
  93. Duration                                 : 1 h 39 min
  94. Bit rate                                 : 68 b/s
  95. Count of elements                        : 1411
  96. Stream size                              : 50.1 KiB (0%)
  97. Title                                    : Latin American
  98. Language                                 : Spanish
  99. Default                                  : No
  100. Forced                                   : No
复制代码






                                       
                                       

                                       
                                       
                                       




回复

使用道具 举报

懒得打字嘛,点击右侧快捷回复 【右侧内容,后台自定义】
您需要登录后才可以回帖 登录 | 立即加入

本版积分规则

Archiver|小黑屋| 蓝光电影网 |网站地图

Copyright © 2021 Comsenz Inc. Powered by 蓝光电影网

蓝光电影网

本站内容由用户自主分享和转载自互联网,转载目的在于传递更多信息,并不代表本网赞同其观点和对其真实性负责。

如有侵权、违反国家法律政策行为,请联系我们,我们会第一时间及时清除和处理!

举报反馈邮箱:[email protected]

快速回复 返回顶部 返回列表