找回密码

蓝光电影网

查看: 335|回复: 0

[UHD.HEVC] 夺宝奇兵4/印地安纳琼斯之水晶骷髅王国 Indiana.Jones.and.the.Kingdom.of.the.Crystal.Skull.2008.2160p.BluRay.REMUX.HEVC.DTS-HD.MA.TrueHD.7.1.Atmos-FGT 54.23GB

[复制链接]
蓝光币
1082
发表于 2021-6-5 18:07:26 | 显示全部楼层 |阅读模式


◎译  名 夺宝奇兵4/印地安纳琼斯之水晶骷髅王国/印地安纳琼斯和水晶骷髅王国/印第安纳琼斯:水晶骷髅王国(台)/夺宝奇兵4:水晶头骨王国/夺宝奇兵之水晶骷髅国/水晶骷髅王国
◎片  名 Indiana Jones and the Kingdom of the Crystal Skull
◎年  代 2008
◎产  地 美国
◎类  别 行动 / 惊悚 / 冒险
◎语  言 英语,德语,俄语
◎上映日期 2008-05-22(美国)
◎豆瓣评分 7.2/10 from 50098 users
◎豆瓣链接 https://movie.douban.com/subject/1428051/
◎片  长 122分钟
◎导  演 史蒂文·斯皮尔伯格 Steven Spielberg
◎编  剧 大卫·凯普 David Koepp / 乔治·卢卡斯 George Lucas / 杰夫·内桑森 Jeff Nathanson / 菲利普·考夫曼 Philip Kaufman
◎主  演 哈里森·福特 Harrison Ford
       希亚·拉博夫 Shia LaBeouf
       凯特·布兰切特 Cate Blanchett
       凯伦·阿兰 Karen Allen
       雷·温斯顿 Ray Winstone
       约翰·赫特 John Hurt
       吉姆·布劳德本特 Jim Broadbent
       Adam Kirley
       海伦娜·巴雷特 Helena Barrett
       Conor Timmis
       安德鲁·迪沃夫 Andrew Divoff
       V·J·福斯特 V.J. Foster
       厄尼·雷耶斯 Ernie Reyes Jr.
       约翰托宾 John H. Tobin
       阿兰·戴尔 Alan Dale
       尼托·拉里奥萨 Nito Larioza
       Steven A. Miller
       卡洛斯·利纳雷斯 Carlos Linares
       珍妮特·洛佩兹 Janet Lopez
       Andrew Goldfarb
       Dennis Nusbaum
       Brian Knutson
       Sean Marrinan
       Gleb Kaminer
       Ilya Jonathan Zaydenberg
       罗伯特·贝克尔 Robert Baker
       琼·瓦勒拉 Jon Valera
       尼尔·弗林 Neil Flynn
       乔恩·博瑞尔 Jon Braver
       Jonathan Lomma
       帕沙·D.林奇尼科夫 Pasha D. Lychnikoff
       安德雷·阿莱森 Andre Alexsen
       Jerzy Jacyna
       Sam Rocco
       萨沙·斯皮尔伯格 Sasha Spielberg
       Paul Thornton
       切特·汉克斯 Chet Hanks
◎标  签 冒险 | 美国 | 斯皮尔伯格 | 行动 | 奇异 | 美国电影 | HarrisonFord | 2008
◎简  介


  19年后,印第安纳琼斯博士(Harrison Ford饰)再次出发,旨在将埃克托王国丢失的水晶骷髅头骨归复原地——传闻中,归还圣物者将被赐予庞大气力。
  
  在琼斯的老友奥克斯发现水晶头骨前,这一切还只是传闻。可奥克斯以后却不知何以损失了心智,并落入苏联奸细队的手中。为首的刻毒女特务艾瑞娜(Cate Blanchett饰)深深厚迷于所谓的奥秘气力,她勒迫琼斯一行人与其配合前往亚马逊流域,找寻失落的黄金城埃克托王国。
  
  在秘鲁密林,琼斯等人和苏军展开畅快淋漓的战役,其间还陪伴着沼泽、食人蚁、原始土著进犯等致命威胁,在他们历经千难万险,终极踏入密屋的那一刻,天下上最奇异的气象出现了……
◎获奖情况
  第29届金酸莓奖 ?(2009)
  最差前传、重拍、恶搞及续集电影
  
  第17届MTV电影奖 ?(2008)
  MTV电影奖迄今最好暑期电影(提名)
  1. Video
  2. ID                                       : 1
  3. ID in the original source medium         : 4113 (0x1011)
  4. Format                                   : HEVC
  5. Format/Info                              : High Efficiency Video Coding
  6. Format profile                           : Main [email protected]@High
  7. HDR format                               : SMPTE ST 2086, HDR10 compatible
  8. Codec ID                                 : V_MPEGH/ISO/HEVC
  9. Duration                                 : 2 h 2 min
  10. Bit rate                                 : 50.3 Mb/s
  11. Width                                    : 3 840 pixels
  12. Height                                   : 2 160 pixels
  13. Display aspect ratio                     : 16:9
  14. Frame rate mode                          : Constant
  15. Frame rate                               : 23.976 (24000/1001/189150) FPS
  16. Color space                              : YUV
  17. Chroma subsampling                       : 4:2:0 (Type 2)
  18. Bit depth                                : 10 bits
  19. Bits/(Pixel*Frame)                       : 0.253
  20. Stream size                              : 43.1 GiB (79%)
  21. Language                                 : English
  22. Default                                  : No
  23. Forced                                   : No
  24. Color range                              : Limited
  25. Color primaries                          : BT.2020
  26. Transfer characteristics                 : PQ
  27. Matrix coefficients                      : BT.2020 non-constant
  28. Mastering display color primaries        : Display P3
  29. Mastering display luminance              : min: 0.0050 cd/m2, max: 4000 cd/m2
  30. Maximum Content Light Level              : 1000 cd/m2
  31. Maximum Frame-Average Light Level        : 265 cd/m2
  32. Original source medium                   : Blu-ray
  33. Audio #1
  34. ID                                       : 2
  35. ID in the original source medium         : 4352 (0x1100)
  36. Format                                   : MLP FBA 16-ch
  37. Format/Info                              : Meridian Lossless Packing FBA with 16-channel presentation
  38. Commercial name                          : Dolby TrueHD with Dolby Atmos
  39. Codec ID                                 : A_TRUEHD
  40. Duration                                 : 2 h 2 min
  41. Bit rate mode                            : Variable
  42. Bit rate                                 : 4 083 kb/s
  43. Maximum bit rate                         : 6 465 kb/s
  44. Channel(s)                               : 8 channels
  45. Channel layout                           : L R C LFE Ls Rs Lb Rb
  46. Sampling rate                            : 48.0 kHz
  47. Frame rate                               : 1 200.000 FPS (40 SPF)
  48. Bit depth                                : 24 bits
  49. Compression mode                         : Lossless
  50. Stream size                              : 3.49 GiB (6%)
  51. Title                                    : TrueHD 7.1 Atmos
  52. Language                                 : English
  53. Default                                  : Yes
  54. Forced                                   : No
  55. Original source medium                   : Blu-ray
  56. Number of dynamic objects                : 11
  57. Bed channel count                        : 1 channel
  58. Bed channel configuration                : LFE
  59. Audio #2
  60. ID                                       : 3
  61. Format                                   : DTS XLL
  62. Format/Info                              : Digital Theater Systems
  63. Commercial name                          : DTS-HD Master Audio
  64. Codec ID                                 : A_DTS
  65. Duration                                 : 2 h 2 min
  66. Bit rate mode                            : Variable
  67. Bit rate                                 : 4 271 kb/s
  68. Channel(s)                               : 8 channels
  69. Channel layout                           : C L R LFE Lb Rb Lss Rss
  70. Sampling rate                            : 48.0 kHz
  71. Frame rate                               : 93.750 FPS (512 SPF)
  72. Bit depth                                : 24 bits
  73. Compression mode                         : Lossless
  74. Stream size                              : 3.65 GiB (7%)
  75. Title                                    : DTS-HD MA 7.1
  76. Language                                 : English
  77. Default                                  : No
  78. Forced                                   : No
  79. Audio #3
  80. ID                                       : 4
  81. ID in the original source medium         : 4352 (0x1100)
  82. Format                                   : AC-3
  83. Format/Info                              : Audio Coding 3
  84. Commercial name                          : Dolby Digital
  85. Format settings                          : Dolby Surround EX
  86. Codec ID                                 : A_AC3
  87. Duration                                 : 2 h 2 min
  88. Bit rate mode                            : Constant
  89. Bit rate                                 : 640 kb/s
  90. Channel(s)                               : 6 channels
  91. Channel layout                           : L R C LFE Ls Rs
  92. Sampling rate                            : 48.0 kHz
  93. Frame rate                               : 31.250 FPS (1536 SPF)
  94. Compression mode                         : Lossy
  95. Stream size                              : 561 MiB (1%)
  96. Title                                    : DD 5.1
  97. Language                                 : English
  98. Service kind                             : Complete Main
  99. Default                                  : No
  100. Forced                                   : No
  101. Original source medium                   : Blu-ray
  102. Audio #4
  103. ID                                       : 5
  104. ID in the original source medium         : 4353 (0x1101)
  105. Format                                   : AC-3
  106. Format/Info                              : Audio Coding 3
  107. Commercial name                          : Dolby Digital
  108. Codec ID                                 : A_AC3
  109. Duration                                 : 2 h 2 min
  110. Bit rate mode                            : Constant
  111. Bit rate                                 : 640 kb/s
  112. Channel(s)                               : 6 channels
  113. Channel layout                           : L R C LFE Ls Rs
  114. Sampling rate                            : 48.0 kHz
  115. Frame rate                               : 31.250 FPS (1536 SPF)
  116. Compression mode                         : Lossy
  117. Stream size                              : 561 MiB (1%)
  118. Title                                    : DD 5.1
  119. Language                                 : English
  120. Service kind                             : Complete Main
  121. Default                                  : No
  122. Forced                                   : No
  123. Original source medium                   : Blu-ray
  124. Audio #5
  125. ID                                       : 6
  126. ID in the original source medium         : 4354 (0x1102)
  127. Format                                   : AC-3
  128. Format/Info                              : Audio Coding 3
  129. Commercial name                          : Dolby Digital
  130. Codec ID                                 : A_AC3
  131. Duration                                 : 2 h 2 min
  132. Bit rate mode                            : Constant
  133. Bit rate                                 : 640 kb/s
  134. Channel(s)                               : 6 channels
  135. Channel layout                           : L R C LFE Ls Rs
  136. Sampling rate                            : 48.0 kHz
  137. Frame rate                               : 31.250 FPS (1536 SPF)
  138. Compression mode                         : Lossy
  139. Stream size                              : 561 MiB (1%)
  140. Title                                    : DD 5.1
  141. Language                                 : Spanish
  142. Service kind                             : Complete Main
  143. Default                                  : No
  144. Forced                                   : No
  145. Original source medium                   : Blu-ray
  146. Audio #6
  147. ID                                       : 7
  148. ID in the original source medium         : 4355 (0x1103)
  149. Format                                   : AC-3
  150. Format/Info                              : Audio Coding 3
  151. Commercial name                          : Dolby Digital
  152. Codec ID                                 : A_AC3
  153. Duration                                 : 2 h 2 min
  154. Bit rate mode                            : Constant
  155. Bit rate                                 : 640 kb/s
  156. Channel(s)                               : 6 channels
  157. Channel layout                           : L R C LFE Ls Rs
  158. Sampling rate                            : 48.0 kHz
  159. Frame rate                               : 31.250 FPS (1536 SPF)
  160. Compression mode                         : Lossy
  161. Stream size                              : 561 MiB (1%)
  162. Title                                    : DD 5.1
  163. Language                                 : French
  164. Service kind                             : Complete Main
  165. Default                                  : No
  166. Forced                                   : No
  167. Original source medium                   : Blu-ray
  168. Audio #7
  169. ID                                       : 8
  170. ID in the original source medium         : 4356 (0x1104)
  171. Format                                   : AC-3
  172. Format/Info                              : Audio Coding 3
  173. Commercial name                          : Dolby Digital
  174. Codec ID                                 : A_AC3
  175. Duration                                 : 2 h 2 min
  176. Bit rate mode                            : Constant
  177. Bit rate                                 : 640 kb/s
  178. Channel(s)                               : 6 channels
  179. Channel layout                           : L R C LFE Ls Rs
  180. Sampling rate                            : 48.0 kHz
  181. Frame rate                               : 31.250 FPS (1536 SPF)
  182. Compression mode                         : Lossy
  183. Stream size                              : 561 MiB (1%)
  184. Title                                    : DD 5.1
  185. Language                                 : Italian
  186. Service kind                             : Complete Main
  187. Default                                  : No
  188. Forced                                   : No
  189. Original source medium                   : Blu-ray
  190. Audio #8
  191. ID                                       : 9
  192. ID in the original source medium         : 4357 (0x1105)
  193. Format                                   : AC-3
  194. Format/Info                              : Audio Coding 3
  195. Commercial name                          : Dolby Digital
  196. Codec ID                                 : A_AC3
  197. Duration                                 : 2 h 2 min
  198. Bit rate mode                            : Constant
  199. Bit rate                                 : 640 kb/s
  200. Channel(s)                               : 6 channels
  201. Channel layout                           : L R C LFE Ls Rs
  202. Sampling rate                            : 48.0 kHz
  203. Frame rate                               : 31.250 FPS (1536 SPF)
  204. Compression mode                         : Lossy
  205. Stream size                              : 561 MiB (1%)
  206. Title                                    : DD 5.1
  207. Language                                 : Japanese
  208. Service kind                             : Complete Main
  209. Default                                  : No
  210. Forced                                   : No
  211. Original source medium                   : Blu-ray
  212. Audio #9
  213. ID                                       : 10
  214. ID in the original source medium         : 4358 (0x1106)
  215. Format                                   : AC-3
  216. Format/Info                              : Audio Coding 3
  217. Commercial name                          : Dolby Digital
  218. Codec ID                                 : A_AC3
  219. Duration                                 : 2 h 2 min
  220. Bit rate mode                            : Constant
  221. Bit rate                                 : 640 kb/s
  222. Channel(s)                               : 6 channels
  223. Channel layout                           : L R C LFE Ls Rs
  224. Sampling rate                            : 48.0 kHz
  225. Frame rate                               : 31.250 FPS (1536 SPF)
  226. Compression mode                         : Lossy
  227. Stream size                              : 561 MiB (1%)
  228. Title                                    : DD 5.1
  229. Language                                 : Russian
  230. Service kind                             : Complete Main
  231. Default                                  : No
  232. Forced                                   : No
  233. Original source medium                   : Blu-ray
  234. Text #1
  235. ID                                       : 11
  236. Format                                   : UTF-8
  237. Codec ID                                 : S_TEXT/UTF8
  238. Codec ID/Info                            : UTF-8 Plain Text
  239. Duration                                 : 1 h 54 min
  240. Bit rate                                 : 42 b/s
  241. Count of elements                        : 1038
  242. Stream size                              : 35.7 KiB (0%)
  243. Title                                    : SRT
  244. Language                                 : English
  245. Default                                  : Yes
  246. Forced                                   : No
  247. Text #2
  248. ID                                       : 12
  249. ID in the original source medium         : 4768 (0x12A0)
  250. Format                                   : PGS
  251. Muxing mode                              : zlib
  252. Codec ID                                 : S_HDMV/PGS
  253. Codec ID/Info                            : Picture based subtitle format used on BDs/HD-DVDs
  254. Duration                                 : 1 h 54 min
  255. Bit rate                                 : 27.0 kb/s
  256. Count of elements                        : 2084
  257. Stream size                              : 22.2 MiB (0%)
  258. Language                                 : English
  259. Default                                  : No
  260. Forced                                   : No
  261. Original source medium                   : Blu-ray
  262. Text #3
  263. ID                                       : 13
  264. ID in the original source medium         : 4769 (0x12A1)
  265. Format                                   : PGS
  266. Muxing mode                              : zlib
  267. Codec ID                                 : S_HDMV/PGS
  268. Codec ID/Info                            : Picture based subtitle format used on BDs/HD-DVDs
  269. Duration                                 : 1 h 55 min
  270. Bit rate                                 : 29.5 kb/s
  271. Count of elements                        : 2396
  272. Stream size                              : 24.4 MiB (0%)
  273. Language                                 : English
  274. Default                                  : No
  275. Forced                                   : No
  276. Original source medium                   : Blu-ray
  277. Text #4
  278. ID                                       : 14
  279. ID in the original source medium         : 4770 (0x12A2)
  280. Format                                   : PGS
  281. Muxing mode                              : zlib
  282. Codec ID                                 : S_HDMV/PGS
  283. Codec ID/Info                            : Picture based subtitle format used on BDs/HD-DVDs
  284. Duration                                 : 2 h 1 min
  285. Bit rate                                 : 17.9 kb/s
  286. Count of elements                        : 2052
  287. Stream size                              : 15.6 MiB (0%)
  288. Language                                 : Chinese
  289. Default                                  : No
  290. Forced                                   : No
  291. Original source medium                   : Blu-ray
  292. Text #5
  293. ID                                       : 15
  294. ID in the original source medium         : 4771 (0x12A3)
  295. Format                                   : PGS
  296. Muxing mode                              : zlib
  297. Codec ID                                 : S_HDMV/PGS
  298. Codec ID/Info                            : Picture based subtitle format used on BDs/HD-DVDs
  299. Duration                                 : 2 h 1 min
  300. Bit rate                                 : 22.0 kb/s
  301. Count of elements                        : 2022
  302. Stream size                              : 19.2 MiB (0%)
  303. Language                                 : Danish
  304. Default                                  : No
  305. Forced                                   : No
  306. Original source medium                   : Blu-ray
  307. Text #6
  308. ID                                       : 16
  309. ID in the original source medium         : 4772 (0x12A4)
  310. Format                                   : PGS
  311. Muxing mode                              : zlib
  312. Codec ID                                 : S_HDMV/PGS
  313. Codec ID/Info                            : Picture based subtitle format used on BDs/HD-DVDs
  314. Duration                                 : 2 h 1 min
  315. Bit rate                                 : 23.1 kb/s
  316. Count of elements                        : 2042
  317. Stream size                              : 20.1 MiB (0%)
  318. Language                                 : Spanish
  319. Default                                  : No
  320. Forced                                   : No
  321. Original source medium                   : Blu-ray
  322. Text #7
  323. ID                                       : 17
  324. ID in the original source medium         : 4772 (0x12A4)
  325. Format                                   : PGS
  326. Muxing mode                              : zlib
  327. Codec ID                                 : S_HDMV/PGS
  328. Codec ID/Info                            : Picture based subtitle format used on BDs/HD-DVDs
  329. Duration                                 : 19 min 44 s
  330. Bit rate                                 : 757 b/s
  331. Count of elements                        : 10
  332. Stream size                              : 110 KiB (0%)
  333. Language                                 : Spanish
  334. Default                                  : No
  335. Forced                                   : No
  336. Original source medium                   : Blu-ray
  337. Text #8
  338. ID                                       : 18
  339. ID in the original source medium         : 4773 (0x12A5)
  340. Format                                   : PGS
  341. Muxing mode                              : zlib
  342. Codec ID                                 : S_HDMV/PGS
  343. Codec ID/Info                            : Picture based subtitle format used on BDs/HD-DVDs
  344. Duration                                 : 2 h 1 min
  345. Bit rate                                 : 21.3 kb/s
  346. Count of elements                        : 2006
  347. Stream size                              : 18.6 MiB (0%)
  348. Language                                 : French
  349. Default                                  : No
  350. Forced                                   : No
  351. Original source medium                   : Blu-ray
  352. Text #9
  353. ID                                       : 19
  354. ID in the original source medium         : 4773 (0x12A5)
  355. Format                                   : PGS
  356. Muxing mode                              : zlib
  357. Codec ID                                 : S_HDMV/PGS
  358. Codec ID/Info                            : Picture based subtitle format used on BDs/HD-DVDs
  359. Duration                                 : 19 min 44 s
  360. Bit rate                                 : 714 b/s
  361. Count of elements                        : 10
  362. Stream size                              : 103 KiB (0%)
  363. Language                                 : French
  364. Default                                  : No
  365. Forced                                   : No
  366. Original source medium                   : Blu-ray
  367. Text #10
  368. ID                                       : 20
  369. ID in the original source medium         : 4774 (0x12A6)
  370. Format                                   : PGS
  371. Muxing mode                              : zlib
  372. Codec ID                                 : S_HDMV/PGS
  373. Codec ID/Info                            : Picture based subtitle format used on BDs/HD-DVDs
  374. Duration                                 : 2 h 1 min
  375. Bit rate                                 : 23.4 kb/s
  376. Count of elements                        : 2094
  377. Stream size                              : 20.3 MiB (0%)
  378. Language                                 : Italian
  379. Default                                  : No
  380. Forced                                   : No
  381. Original source medium                   : Blu-ray
  382. Text #11
  383. ID                                       : 21
  384. ID in the original source medium         : 4774 (0x12A6)
  385. Format                                   : PGS
  386. Muxing mode                              : zlib
  387. Codec ID                                 : S_HDMV/PGS
  388. Codec ID/Info                            : Picture based subtitle format used on BDs/HD-DVDs
  389. Duration                                 : 19 min 44 s
  390. Bit rate                                 : 599 b/s
  391. Count of elements                        : 8
  392. Stream size                              : 86.8 KiB (0%)
  393. Language                                 : Italian
  394. Default                                  : No
  395. Forced                                   : No
  396. Original source medium                   : Blu-ray
  397. Text #12
  398. ID                                       : 22
  399. ID in the original source medium         : 4775 (0x12A7)
  400. Format                                   : PGS
  401. Muxing mode                              : zlib
  402. Codec ID                                 : S_HDMV/PGS
  403. Codec ID/Info                            : Picture based subtitle format used on BDs/HD-DVDs
  404. Duration                                 : 1 h 54 min
  405. Bit rate                                 : 19.1 kb/s
  406. Count of elements                        : 2066
  407. Stream size                              : 15.7 MiB (0%)
  408. Language                                 : Japanese
  409. Default                                  : No
  410. Forced                                   : No
  411. Original source medium                   : Blu-ray
  412. Text #13
  413. ID                                       : 23
  414. ID in the original source medium         : 4776 (0x12A8)
  415. Format                                   : PGS
  416. Muxing mode                              : zlib
  417. Codec ID                                 : S_HDMV/PGS
  418. Codec ID/Info                            : Picture based subtitle format used on BDs/HD-DVDs
  419. Duration                                 : 2 h 1 min
  420. Bit rate                                 : 16.4 kb/s
  421. Count of elements                        : 1988
  422. Stream size                              : 14.3 MiB (0%)
  423. Language                                 : Korean
  424. Default                                  : No
  425. Forced                                   : No
  426. Original source medium                   : Blu-ray
  427. Text #14
  428. ID                                       : 24
  429. ID in the original source medium         : 4777 (0x12A9)
  430. Format                                   : PGS
  431. Muxing mode                              : zlib
  432. Codec ID                                 : S_HDMV/PGS
  433. Codec ID/Info                            : Picture based subtitle format used on BDs/HD-DVDs
  434. Duration                                 : 2 h 1 min
  435. Bit rate                                 : 17.9 kb/s
  436. Count of elements                        : 2044
  437. Stream size                              : 15.6 MiB (0%)
  438. Language                                 : Chinese
  439. Default                                  : No
  440. Forced                                   : No
  441. Original source medium                   : Blu-ray
  442. Text #15
  443. ID                                       : 25
  444. ID in the original source medium         : 4778 (0x12AA)
  445. Format                                   : PGS
  446. Muxing mode                              : zlib
  447. Codec ID                                 : S_HDMV/PGS
  448. Codec ID/Info                            : Picture based subtitle format used on BDs/HD-DVDs
  449. Duration                                 : 2 h 1 min
  450. Bit rate                                 : 18.5 kb/s
  451. Count of elements                        : 1908
  452. Stream size                              : 16.1 MiB (0%)
  453. Language                                 : Dutch
  454. Default                                  : No
  455. Forced                                   : No
  456. Original source medium                   : Blu-ray
  457. Text #16
  458. ID                                       : 26
  459. ID in the original source medium         : 4779 (0x12AB)
  460. Format                                   : PGS
  461. Muxing mode                              : zlib
  462. Codec ID                                 : S_HDMV/PGS
  463. Codec ID/Info                            : Picture based subtitle format used on BDs/HD-DVDs
  464. Duration                                 : 2 h 1 min
  465. Bit rate                                 : 19.3 kb/s
  466. Count of elements                        : 2010
  467. Stream size                              : 16.8 MiB (0%)
  468. Language                                 : Norwegian
  469. Default                                  : No
  470. Forced                                   : No
  471. Original source medium                   : Blu-ray
  472. Text #17
  473. ID                                       : 27
  474. ID in the original source medium         : 4780 (0x12AC)
  475. Format                                   : PGS
  476. Muxing mode                              : zlib
  477. Codec ID                                 : S_HDMV/PGS
  478. Codec ID/Info                            : Picture based subtitle format used on BDs/HD-DVDs
  479. Duration                                 : 2 h 1 min
  480. Bit rate                                 : 25.5 kb/s
  481. Count of elements                        : 2102
  482. Stream size                              : 22.2 MiB (0%)
  483. Language                                 : Russian
  484. Default                                  : No
  485. Forced                                   : No
  486. Original source medium                   : Blu-ray
  487. Text #18
  488. ID                                       : 28
  489. ID in the original source medium         : 4780 (0x12AC)
  490. Format                                   : PGS
  491. Muxing mode                              : zlib
  492. Codec ID                                 : S_HDMV/PGS
  493. Codec ID/Info                            : Picture based subtitle format used on BDs/HD-DVDs
  494. Duration                                 : 19 min 44 s
  495. Bit rate                                 : 947 b/s
  496. Count of elements                        : 12
  497. Stream size                              : 137 KiB (0%)
  498. Language                                 : Russian
  499. Default                                  : No
  500. Forced                                   : No
  501. Original source medium                   : Blu-ray
  502. Text #19
  503. ID                                       : 29
  504. ID in the original source medium         : 4781 (0x12AD)
  505. Format                                   : PGS
  506. Muxing mode                              : zlib
  507. Codec ID                                 : S_HDMV/PGS
  508. Codec ID/Info                            : Picture based subtitle format used on BDs/HD-DVDs
  509. Duration                                 : 2 h 1 min
  510. Bit rate                                 : 19.3 kb/s
  511. Count of elements                        : 2034
  512. Stream size                              : 16.8 MiB (0%)
  513. Language                                 : Chinese
  514. Default                                  : No
  515. Forced                                   : No
  516. Original source medium                   : Blu-ray
  517. Text #20
  518. ID                                       : 30
  519. ID in the original source medium         : 4782 (0x12AE)
  520. Format                                   : PGS
  521. Muxing mode                              : zlib
  522. Codec ID                                 : S_HDMV/PGS
  523. Codec ID/Info                            : Picture based subtitle format used on BDs/HD-DVDs
  524. Duration                                 : 2 h 1 min
  525. Bit rate                                 : 20.6 kb/s
  526. Count of elements                        : 1994
  527. Stream size                              : 18.0 MiB (0%)
  528. Language                                 : Finnish
  529. Default                                  : No
  530. Forced                                   : No
  531. Original source medium                   : Blu-ray
  532. Text #21
  533. ID                                       : 31
  534. ID in the original source medium         : 4783 (0x12AF)
  535. Format                                   : PGS
  536. Muxing mode                              : zlib
  537. Codec ID                                 : S_HDMV/PGS
  538. Codec ID/Info                            : Picture based subtitle format used on BDs/HD-DVDs
  539. Duration                                 : 2 h 1 min
  540. Bit rate                                 : 22.3 kb/s
  541. Count of elements                        : 2024
  542. Stream size                              : 19.4 MiB (0%)
  543. Language                                 : Swedish
  544. Default                                  : No
  545. Forced                                   : No
  546. Original source medium                   : Blu-ray
  547. Text #22
  548. ID                                       : 32
  549. ID in the original source medium         : 4784 (0x12B0)
  550. Format                                   : PGS
  551. Muxing mode                              : zlib
  552. Codec ID                                 : S_HDMV/PGS
  553. Codec ID/Info                            : Picture based subtitle format used on BDs/HD-DVDs
  554. Duration                                 : 2 h 1 min
  555. Bit rate                                 : 21.4 kb/s
  556. Count of elements                        : 2000
  557. Stream size                              : 18.6 MiB (0%)
  558. Language                                 : Thai
  559. Default                                  : No
  560. Forced                                   : No
  561. Original source medium                   : Blu-ray
  562. Text #23
  563. ID                                       : 33
  564. ID in the original source medium         : 4785 (0x12B1)
  565. Format                                   : PGS
  566. Muxing mode                              : zlib
  567. Codec ID                                 : S_HDMV/PGS
  568. Codec ID/Info                            : Picture based subtitle format used on BDs/HD-DVDs
  569. Duration                                 : 1 h 53 min
  570. Bit rate                                 : 192 b/s
  571. Count of elements                        : 28
  572. Stream size                              : 161 KiB (0%)
  573. Language                                 : Japanese
  574. Default                                  : No
  575. Forced                                   : No
  576. Original source medium                   : Blu-ray
  577. Menu
  578. 00:00:00.000                             : Chapter 01
  579. 00:07:20.148                             : Chapter 02
  580. 00:13:10.206                             : Chapter 03
  581. 00:21:42.634                             : Chapter 04
  582. 00:27:37.656                             : Chapter 05
  583. 00:36:57.215                             : Chapter 06
  584. 00:46:33.290                             : Chapter 07
  585. 00:55:36.041                             : Chapter 08
  586. 01:05:45.232                             : Chapter 09
  587. 01:12:06.739                             : Chapter 10
  588. 01:21:51.281                             : Chapter 11
  589. 01:29:11.596                             : Chapter 12
  590. 01:36:02.798                             : Chapter 13
  591. 01:44:21.755                             : Chapter 14
  592. 01:51:07.952                             : Chapter 15
  593. 01:55:53.363                             : Chapter 16
复制代码




                                       
                                       

                                       
                                       
                                       




夺宝奇兵4/印地安纳琼斯之水晶骷髅王国 Indiana.Jones.and.the.Kingdom.of.the.Crystal.Skull.2008.2160p.BluRay.REMUX.HEVC.DTS-HD.MA.TrueHD.7.1.Atmos-FGT 54.23GB

Indiana.Jones.and.the.Kingdom.of.the.Crystal.Skull.2008.2160p.BluRay.REMUX.HEVC..torrent

136.32 KB, 下载次数: 37, 下载积分: 蓝光币 -2

回复

使用道具 举报

懒得打字嘛,点击右侧快捷回复 【右侧内容,后台自定义】
您需要登录后才可以回帖 登录 | 立即加入

本版积分规则

Archiver|小黑屋| 蓝光电影网 |网站地图

Copyright © 2021 Comsenz Inc. Powered by 蓝光电影网

蓝光电影网

本站内容由用户自主分享和转载自互联网,转载目的在于传递更多信息,并不代表本网赞同其观点和对其真实性负责。

如有侵权、违反国家法律政策行为,请联系我们,我们会第一时间及时清除和处理!

举报反馈邮箱:[email protected]

快速回复 返回顶部 返回列表