找回密码

蓝光电影网

查看: 56|回复: 0

[2160p] 星星女孩/明星女孩 Stargirl.2020.2160p.WEBRip.DDP5.1.Atmos.x265-TEPES 14.39GB

[复制链接]
蓝光币
1078
发表于 2020-11-1 22:15:29 | 显示全部楼层 |阅读模式


◎译  名 星星女孩/明星女孩/星光女孩/逐星女
◎片  名 Stargirl
◎年  代 2020
◎产  地 美国
◎类  别 剧情 / 笑剧 / 恋爱
◎语  言 英语
◎上映日期 2020-03-13(美国)
◎IMDb评分  6.2/10 from 3267 users
◎IMDb链接  https://www.imdb.com/title/tt4858674/
◎豆瓣评分 6.8/10 from 2405 users
◎豆瓣链接 https://movie.douban.com/subject/26664834/
◎片  长 103分钟
◎导  演 朱莉·哈特 Julia Hart
◎编  剧 克里斯汀·哈恩 Kristin Hahn / 约旦·霍洛维茨 Jordan Horowitz
◎主  演 吉安卡罗·埃斯波西托 Giancarlo Esposito
       达比·斯坦奇菲尔德 Darby Stanchfield
       卡兰·布拉尔 Karan Brar
       格雷厄姆·维奇尔 Graham Verchere
       马克斯米利亚诺·赫尔南德斯 Maximiliano Hernández
       格蕾丝·万德沃尔 Grace VanderWaal
       达米恩·奥哈尔 Damian O'Hare
       胡利奥塞萨尔·查韦斯 Juliocesar Chavez
       斯蒂芬妮·希尔 Stephanie Hill
       J·内森·西蒙斯 J. Nathan Simmons
       Artemis
◎标  签 青春 | 校园 | 恋爱 | 迪士尼 | 美国 | 音乐 | 2020 | Disney
◎简  介


  报告一个海鸥乔纳森一般自在自在、有自己信心的“怪女孩”Stargirl(VanderWaal饰演),她也会弹尤克里里,会在每一个同门生日时自弹自唱为他们献上生日歌。
  1. Video
  2. ID                                       : 1
  3. Format                                   : HEVC
  4. Format/Info                              : High Efficiency Video Coding
  5. Format profile                           : [email protected]@High
  6. Codec ID                                 : V_MPEGH/ISO/HEVC
  7. Duration                                 : 1 h 43 min
  8. Bit rate                                 : 19.2 Mb/s
  9. Width                                    : 3 840 pixels
  10. Height                                   : 2 160 pixels
  11. Display aspect ratio                     : 16:9
  12. Frame rate mode                          : Constant
  13. Frame rate                               : 23.976 (24000/1001/189150) FPS
  14. Color space                              : YUV
  15. Chroma subsampling                       : 4:2:0
  16. Bit depth                                : 8 bits
  17. Bits/(Pixel*Frame)                       : 0.096
  18. Stream size                              : 13.8 GiB (96%)
  19. Writing library                          : x265 3.3:[Linux][GCC 7.5.0][64 bit] 8bit+10bit+12bit
  20. Encoding settings                        : cpuid=1111039 / frame-threads=1 / wpp / no-pmode / no-pme / no-psnr / no-ssim / log-level=2 / input-csp=1 / input-res=3840x2160 / interlace=0 / total-frames=0 / level-idc=50 / high-tier=1 / uhd-bd=0 / ref=4 / no-allow-non-conformance / repeat-headers / annexb / no-aud / no-hrd / info / hash=0 / no-temporal-layers / no-open-gop / min-keyint=48 / keyint=48 / gop-lookahead=0 / bframes=7 / b-adapt=2 / b-pyramid / bframe-bias=0 / rc-lookahead=97 / lookahead-slices=0 / scenecut=0 / hist-scenecut=0 / radl=0 / no-splice / no-intra-refresh / ctu=32 / min-cu-size=8 / no-rect / no-amp / max-tu-size=16 / tu-inter-depth=2 / tu-intra-depth=2 / limit-tu=0 / rdoq-level=1 / dynamic-rd=0.00 / no-ssim-rd / signhide / no-tskip / nr-intra=0 / nr-inter=0 / no-constrained-intra / no-strong-intra-smoothing / max-merge=5 / limit-refs=0 / no-limit-modes / me=3 / subme=4 / merange=44 / temporal-mvp / no-frame-dup / no-hme / weightp / weightb / no-analyze-src-pics / deblock=0:0 / no-sao / no-sao-non-deblock / rd=4 / selective-sao=0 / no-early-skip / rskip / no-fast-intra / no-tskip-fast / no-cu-lossless / b-intra / no-splitrd-skip / rdpenalty=1 / psy-rd=1.60 / psy-rdoq=5.00 / no-rd-refine / no-lossless / cbqpoffs=0 / crqpoffs=0 / rc=abr / bitrate=20000 / qcomp=0.75 / qpstep=4 / stats-write=0 / stats-read=0 / vbv-maxrate=24000 / vbv-bufsize=40000 / vbv-init=0.9 / ipratio=1.40 / pbratio=1.30 / aq-mode=3 / aq-strength=1.00 / no-cutree / zone-count=0 / no-strict-cbr / qg-size=32 / no-rc-grain / qpmax=69 / qpmin=0 / no-const-vbv / sar=1 / overscan=0 / videoformat=5 / range=0 / colorprim=1 / transfer=1 / colormatrix=1 / chromaloc=0 / display-window=0 / cll=0,0 / min-luma=0 / max-luma=255 / log2-max-poc-lsb=8 / vui-timing-info / vui-hrd-info / slices=1 / no-opt-qp-pps / no-opt-ref-list-length-pps / no-multi-pass-opt-rps / scenecut-bias=0.00 / hist-threshold=0.01 / no-opt-cu-delta-qp / no-aq-motion / no-hdr10 / no-hdr10-opt / no-dhdr10-opt / no-idr-recovery-sei / analysis-reuse-level=0 / analysis-save-reuse-level=0 / analysis-load-reuse-level=0 / scale-factor=0 / refine-intra=0 / refine-inter=0 / refine-mv=1 / refine-ctu-distortion=0 / no-limit-sao / ctu-info=0 / no-lowpass-dct / refine-analysis-type=0 / copy-pic=1 / max-ausize-factor=1.0 / no-dynamic-refine / no-single-sei / no-hevc-aq / no-svt / no-field / qp-adaptation-range=1.00 / no-scenecut-aware-qpconformance-window-offsets / right=0 / bottom=0
  21. Default                                  : Yes
  22. Forced                                   : No
  23. Color range                              : Limited
  24. Color primaries                          : BT.709
  25. Transfer characteristics                 : BT.709
  26. Matrix coefficients                      : BT.709
  27. Audio
  28. ID                                       : 2
  29. Format                                   : E-AC-3 JOC
  30. Format/Info                              : Enhanced AC-3 with Joint Object Coding
  31. Commercial name                          : Dolby Digital Plus with Dolby Atmos
  32. Codec ID                                 : A_EAC3
  33. Duration                                 : 1 h 43 min
  34. Bit rate mode                            : Constant
  35. Bit rate                                 : 768 kb/s
  36. Channel(s)                               : 6 channels
  37. Channel layout                           : L R C LFE Ls Rs
  38. Sampling rate                            : 48.0 kHz
  39. Frame rate                               : 31.250 FPS (1536 SPF)
  40. Compression mode                         : Lossy
  41. Delay relative to video                  : 2 s 551 ms
  42. Stream size                              : 568 MiB (4%)
  43. Language                                 : English
  44. Service kind                             : Complete Main
  45. Default                                  : Yes
  46. Forced                                   : No
  47. Complexity index                         : 16
  48. Number of dynamic objects                : 15
  49. Bed channel count                        : 1 channel
  50. Bed channel configuration                : LFE
  51. Text #1
  52. ID                                       : 3
  53. Format                                   : UTF-8
  54. Codec ID                                 : S_TEXT/UTF8
  55. Codec ID/Info                            : UTF-8 Plain Text
  56. Duration                                 : 1 h 41 min
  57. Bit rate                                 : 48 b/s
  58. Count of elements                        : 1107
  59. Stream size                              : 36.3 KiB (0%)
  60. Language                                 : English
  61. Default                                  : No
  62. Forced                                   : No
  63. Text #2
  64. ID                                       : 4
  65. Format                                   : UTF-8
  66. Codec ID                                 : S_TEXT/UTF8
  67. Codec ID/Info                            : UTF-8 Plain Text
  68. Duration                                 : 1 h 42 min
  69. Bit rate                                 : 42 b/s
  70. Count of elements                        : 1055
  71. Stream size                              : 31.6 KiB (0%)
  72. Language                                 : Danish
  73. Default                                  : No
  74. Forced                                   : No
  75. Text #3
  76. ID                                       : 5
  77. Format                                   : UTF-8
  78. Codec ID                                 : S_TEXT/UTF8
  79. Codec ID/Info                            : UTF-8 Plain Text
  80. Duration                                 : 1 h 41 min
  81. Bit rate                                 : 37 b/s
  82. Count of elements                        : 757
  83. Stream size                              : 27.9 KiB (0%)
  84. Language                                 : Dutch
  85. Default                                  : No
  86. Forced                                   : No
  87. Text #4
  88. ID                                       : 6
  89. Format                                   : UTF-8
  90. Codec ID                                 : S_TEXT/UTF8
  91. Codec ID/Info                            : UTF-8 Plain Text
  92. Duration                                 : 1 h 42 min
  93. Bit rate                                 : 38 b/s
  94. Count of elements                        : 1034
  95. Stream size                              : 28.7 KiB (0%)
  96. Language                                 : Finnish
  97. Default                                  : No
  98. Forced                                   : No
  99. Text #5
  100. ID                                       : 7
  101. Format                                   : UTF-8
  102. Codec ID                                 : S_TEXT/UTF8
  103. Codec ID/Info                            : UTF-8 Plain Text
  104. Duration                                 : 1 h 42 min
  105. Bit rate                                 : 38 b/s
  106. Count of elements                        : 1012
  107. Stream size                              : 28.6 KiB (0%)
  108. Language                                 : French
  109. Default                                  : No
  110. Forced                                   : No
  111. Text #6
  112. ID                                       : 8
  113. Format                                   : UTF-8
  114. Codec ID                                 : S_TEXT/UTF8
  115. Codec ID/Info                            : UTF-8 Plain Text
  116. Duration                                 : 1 h 42 min
  117. Bit rate                                 : 40 b/s
  118. Count of elements                        : 986
  119. Stream size                              : 30.3 KiB (0%)
  120. Language                                 : German
  121. Default                                  : No
  122. Forced                                   : No
  123. Text #7
  124. ID                                       : 9
  125. Format                                   : UTF-8
  126. Codec ID                                 : S_TEXT/UTF8
  127. Codec ID/Info                            : UTF-8 Plain Text
  128. Duration                                 : 1 h 42 min
  129. Bit rate                                 : 43 b/s
  130. Count of elements                        : 1055
  131. Stream size                              : 32.5 KiB (0%)
  132. Language                                 : Italian
  133. Default                                  : No
  134. Forced                                   : No
  135. Text #8
  136. ID                                       : 10
  137. Format                                   : UTF-8
  138. Codec ID                                 : S_TEXT/UTF8
  139. Codec ID/Info                            : UTF-8 Plain Text
  140. Duration                                 : 1 h 42 min
  141. Bit rate                                 : 41 b/s
  142. Count of elements                        : 1053
  143. Stream size                              : 31.0 KiB (0%)
  144. Language                                 : Norwegian
  145. Default                                  : No
  146. Forced                                   : No
  147. Text #9
  148. ID                                       : 11
  149. Format                                   : UTF-8
  150. Codec ID                                 : S_TEXT/UTF8
  151. Codec ID/Info                            : UTF-8 Plain Text
  152. Duration                                 : 1 h 42 min
  153. Bit rate                                 : 42 b/s
  154. Count of elements                        : 1036
  155. Stream size                              : 32.0 KiB (0%)
  156. Language                                 : Polish
  157. Default                                  : No
  158. Forced                                   : No
  159. Text #10
  160. ID                                       : 12
  161. Format                                   : UTF-8
  162. Codec ID                                 : S_TEXT/UTF8
  163. Codec ID/Info                            : UTF-8 Plain Text
  164. Duration                                 : 1 h 42 min
  165. Bit rate                                 : 44 b/s
  166. Count of elements                        : 1056
  167. Stream size                              : 33.2 KiB (0%)
  168. Language                                 : Portuguese
  169. Default                                  : No
  170. Forced                                   : No
  171. Text #11
  172. ID                                       : 13
  173. Format                                   : UTF-8
  174. Codec ID                                 : S_TEXT/UTF8
  175. Codec ID/Info                            : UTF-8 Plain Text
  176. Duration                                 : 1 h 42 min
  177. Bit rate                                 : 42 b/s
  178. Count of elements                        : 1056
  179. Stream size                              : 32.1 KiB (0%)
  180. Title                                    : Brazilian
  181. Language                                 : Portuguese
  182. Default                                  : No
  183. Forced                                   : No
  184. Text #12
  185. ID                                       : 14
  186. Format                                   : UTF-8
  187. Codec ID                                 : S_TEXT/UTF8
  188. Codec ID/Info                            : UTF-8 Plain Text
  189. Duration                                 : 1 h 42 min
  190. Bit rate                                 : 43 b/s
  191. Count of elements                        : 1056
  192. Stream size                              : 32.3 KiB (0%)
  193. Language                                 : Spanish
  194. Default                                  : No
  195. Forced                                   : No
  196. Text #13
  197. ID                                       : 15
  198. Format                                   : UTF-8
  199. Codec ID                                 : S_TEXT/UTF8
  200. Codec ID/Info                            : UTF-8 Plain Text
  201. Duration                                 : 1 h 42 min
  202. Bit rate                                 : 44 b/s
  203. Count of elements                        : 1056
  204. Stream size                              : 33.2 KiB (0%)
  205. Title                                    : European Spanish
  206. Language                                 : Spanish
  207. Default                                  : No
  208. Forced                                   : No
  209. Text #14
  210. ID                                       : 16
  211. Format                                   : UTF-8
  212. Codec ID                                 : S_TEXT/UTF8
  213. Codec ID/Info                            : UTF-8 Plain Text
  214. Duration                                 : 1 h 41 min
  215. Bit rate                                 : 42 b/s
  216. Count of elements                        : 1052
  217. Stream size                              : 31.7 KiB (0%)
  218. Language                                 : Swedish
  219. Default                                  : No
  220. Forced                                   : No
复制代码






                                       
                                       

                                       
                                       
                                       




回复

使用道具 举报

懒得打字嘛,点击右侧快捷回复 【右侧内容,后台自定义】
您需要登录后才可以回帖 登录 | 立即加入

本版积分规则

Archiver|小黑屋| 蓝光电影网 |网站地图

Copyright © 2021 Comsenz Inc. Powered by 蓝光电影网

蓝光电影网

本站内容由用户自主分享和转载自互联网,转载目的在于传递更多信息,并不代表本网赞同其观点和对其真实性负责。

如有侵权、违反国家法律政策行为,请联系我们,我们会第一时间及时清除和处理!

举报反馈邮箱:[email protected]

快速回复 返回顶部 返回列表